osu file format v14

[General]
AudioFilename: audio.mp3
AudioLeadIn: 0
PreviewTime: -1
Countdown: 1
SampleSet: Normal
StackLeniency: 0.7
Mode: 0
LetterboxInBreaks: 0
WidescreenStoryboard: 0

[Editor]
DistanceSpacing: 0.9
BeatDivisor: 4
GridSize: 4
TimelineZoom: 1

[Metadata]
Title:Birth of the People
TitleUnicode:Birth of the People
Artist:Actriser
ArtistUnicode:Actriser
Creator:rexdo206
Version:Cold
Source:
Tags:
BeatmapID:1924546
BeatmapSetID:921580

[Difficulty]
HPDrainRate:2
CircleSize:4
OverallDifficulty:1
ApproachRate:3
SliderMultiplier:1.4
SliderTickRate:1

[Events]
//Background and Video events
0,0,"download.jpg",0,0
//Break Periods
//Storyboard Layer 0 (Background)
//Storyboard Layer 1 (Fail)
//Storyboard Layer 2 (Pass)
//Storyboard Layer 3 (Foreground)
//Storyboard Sound Samples

[TimingPoints]
0,-400,4,1,0,100,0,0
500,315.109500551442,4,1,0,100,1,0
600,-200,4,1,0,100,0,0

[HitObjects]
55,191,1484,6,0,P|95:280|136:184,1,245
70,83,3178,1,0,0:0:0:0:
190,218,4084,1,0,0:0:0:0:
101,118,4714,1,0,0:0:0:0:
194,132,5187,5,0,0:0:0:0:
254,115,5502,2,0,P|303:60|348:132,1,175
345,188,6565,2,0,L|259:237,1,70
206,140,7274,1,0,0:0:0:0:
313,74,7589,1,0,0:0:0:0:
301,120,8062,6,0,B|346:117|375:117|320:175,1,105
250,189,8850,1,0,0:0:0:0:
335,257,9559,1,0,0:0:0:0:
256,192,10032,12,0,10819,0:0:0:0:
232,237,11686,6,0,L|321:151,6,105
246,292,14837,2,0,B|311:324|352:208|356:176,1,175
203,221,16176,2,0,P|212:139|306:65,1,175
318,131,17358,1,0,0:0:0:0:
397,211,17752,1,0,0:0:0:0:
310,296,18067,1,0,0:0:0:0:
230,204,18303,1,0,0:0:0:0:
206,142,18776,6,0,P|165:104|81:158,1,157.5
148,168,19958,2,0,P|165:204|240:167,1,140
237,130,20903,1,0,0:0:0:0:
295,73,21139,1,0,0:0:0:0:
345,35,21376,1,0,0:0:0:0:
424,37,21612,1,0,0:0:0:0:
461,92,22163,6,0,P|472:111|425:239,1,157.5
256,192,23424,12,0,24842,0:0:0:0:
92,196,25393,6,0,P|166:145|356:144,1,280
260,200,27205,5,0,0:0:0:0:
260,253,27678,2,0,P|286:298|388:256,1,175
388,215,28938,2,0,P|385:173|270:102,1,175
266,50,30199,6,0,P|352:90|410:274,1,297.5
336,333,31774,2,0,L|402:286,5,70
426,256,33586,2,0,B|453:218|458:95|339:53|285:258|206:277|194:120,1,402.5
241,77,35871,1,0,0:0:0:0:
301,84,36264,6,0,P|357:85|400:291,1,315
328,298,38076,2,0,P|239:262|270:84,1,297.5
306,95,39809,1,0,0:0:0:0:
371,139,40125,1,0,0:0:0:0:
409,187,40361,1,0,0:0:0:0:
395,239,40755,6,0,P|358:268|191:181,1,262.5
220,168,42330,2,0,P|253:106|385:168,1,245
381,260,43748,1,0,0:0:0:0:
322,180,44063,1,0,0:0:0:0:
259,257,44378,1,0,0:0:0:0:
263,198,44615,6,0,B|277:32|277:32|57:33,1,385
58,32,46821,6,0,B|44:198|44:198|264:197,1,385
256,192,48948,12,0,50208,0:0:0:0:
97,280,50523,6,0,L|152:225,8,70
94,321,53595,2,0,B|171:335|272:247|240:120|288:40|425:66,1,455
431,127,56038,2,0,B|423:194|355:335|205:265|222:166|354:142|343:73|219:60|155:287,1,542.5
212,285,58795,2,0,P|274:290|337:106,1,297.5
280,57,60449,1,0,0:0:0:0:
202,55,60764,5,0,0:0:0:0:
145,97,61158,2,0,P|80:148|161:302,1,280
182,304,62734,2,0,B|270:294|262:248|181:214|215:158|330:164,1,245
256,192,64073,12,0,67460,0:0:0:0:
84,266,68327,6,0,B|145:263|124:157|157:61|219:90,1,245
209,155,69745,2,0,B|259:150|263:70|321:58|368:230|360:333,1,332.5
245,284,71714,1,0,0:0:0:0:
245,102,72187,1,0,0:0:0:0:
307,103,72660,6,0,B|335:111|398:202|398:202|287:278|287:278|234:272|234:272|143:231|143:231|128:180|128:180|128:180|260:169,1,595
289,155,75732,1,0,0:0:0:0:
351,80,76047,1,0,0:0:0:0:
224,83,76362,1,0,0:0:0:0:
239,200,76677,1,0,0:0:0:0:
281,242,77229,6,0,P|326:284|437:171,1,262.5
381,224,78647,2,0,P|374:127|259:127,1,227.5
314,174,79986,1,0,0:0:0:0:
332,226,80459,6,0,P|341:283|203:209,1,350
257,226,82349,1,0,0:0:0:0:
253,144,82664,1,0,0:0:0:0:
257,226,82979,1,0,0:0:0:0:
253,144,83216,1,0,0:0:0:0:
311,143,83846,6,0,B|390:140|426:317|250:257,1,262.5
317,215,85500,2,0,P|272:186|356:113,1,210
417,154,86918,1,0,0:0:0:0:
325,226,87312,1,0,0:0:0:0:
237,155,87627,1,0,0:0:0:0:
256,192,88100,12,0,90227,0:0:0:0:
165,289,90542,6,0,L|310:126,1,210
345,303,91960,2,0,L|281:211,1,105
276,198,92669,2,0,P|255:146|429:222,1,507.5
404,172,95111,2,0,B|428:85|347:58|300:83|333:181,1,227.5
256,192,96450,12,0,98499,0:0:0:0:
258,111,99208,5,0,0:0:0:0:
331,193,99601,1,0,0:0:0:0:
249,287,99995,1,0,0:0:0:0:
177,196,100310,1,0,0:0:0:0:
256,192,100547,12,0,105667,0:0:0:0:
70,278,107716,6,0,B|166:285|139:223|48:137|249:59|366:82|415:293|357:329,1,525
321,331,110315,2,0,B|231:288|260:225|317:225|423:297|419:373|297:365|187:338|156:202|223:102|374:206|431:209|437:111|415:66|365:43|225:32|117:59|115:277,1,822.5
256,192,114412,12,0,117799,0:0:0:0:
139,288,118114,6,0,L|194:241,13,70
256,192,122683,12,0,123392,0:0:0:0:
114,231,124338,6,0,B|197:306|299:246|181:70,1,297.5
175,34,125913,2,0,B|245:20|294:157|209:282|404:172,1,332.5
256,192,127804,12,0,143576,0:0:0:0:
