osu file format v14

[General]
AudioFilename: audio.mp3
AudioLeadIn: 0
PreviewTime: -1
Countdown: 0
SampleSet: Normal
StackLeniency: 0.3
Mode: 0
LetterboxInBreaks: 0
WidescreenStoryboard: 1

[Editor]
DistanceSpacing: 0.8
BeatDivisor: 3
GridSize: 16
TimelineZoom: 1

[Metadata]
Title:Juggernog Jingle
TitleUnicode:Juggernog Jingle
Artist:Activision
ArtistUnicode:Activision
Creator:Vel0ciTy
Version:Normal
Source:Call of Duty Zombies
Tags:
BeatmapID:2138214
BeatmapSetID:1021522

[Difficulty]
HPDrainRate:3
CircleSize:3
OverallDifficulty:3
ApproachRate:5
SliderMultiplier:1.2
SliderTickRate:1

[Events]
//Background and Video events
0,0,"pepiqo5hmy6z.png",0,0
//Break Periods
//Storyboard Layer 0 (Background)
//Storyboard Layer 1 (Fail)
//Storyboard Layer 2 (Pass)
//Storyboard Layer 3 (Foreground)
//Storyboard Layer 4 (Overlay)
//Storyboard Sound Samples

[TimingPoints]
950,535.714285714286,4,1,0,40,1,0
950,-200,4,1,0,30,0,0
5235,-100,4,1,0,50,0,0
13807,-90.9090909090909,4,1,0,60,0,0
22378,-76.9230769230769,4,1,0,70,0,0
29878,-133.333333333333,4,1,0,80,0,0
30414,-133.333333333333,4,1,0,40,0,0
30950,-133.333333333333,4,1,0,5,0,0

[HitObjects]
32,32,950,5,0,0:0:0:0:
152,32,1485,1,0,0:0:0:0:
92,136,2021,2,0,L|76:136,2,15
152,136,2557,1,0,0:0:0:0:
212,136,2825,1,0,0:0:0:0:
272,136,3092,5,0,0:0:0:0:
348,229,3628,1,0,0:0:0:0:
391,117,4164,2,0,L|407:117,2,15
331,118,4700,6,0,L|299:118,2,20
391,116,5235,6,0,P|429:124|460:149,1,80
478,185,5771,2,0,L|457:262,1,80
444,300,6307,2,0,P|412:277|373:273,1,80
335,283,6842,2,0,L|242:307,1,80
217,310,7378,2,0,P|185:287|175:249,1,80
182,209,7914,2,0,L|202:131,1,80
178,98,8450,2,0,P|141:84|102:86,1,80
65,106,8985,2,0,L|44:183,1,80
40,225,9521,6,0,P|76:208|115:209,1,80
155,218,10057,2,0,L|232:238,1,80
267,259,10592,2,0,P|251:295|220:320,1,80
181,314,11128,2,0,L|88:289,1,80
66,281,11664,2,0,P|37:307|26:346,1,80
53,376,12200,6,0,L|130:355,1,80
170,344,12735,2,0,L|247:364,1,80
288,363,13271,2,0,L|365:342,1,80
407,319,13807,6,0,P|433:284|443:241,1,88.000002685547
437,198,14342,2,0,L|412:105,1,88.000002685547
401,70,14878,2,0,P|437:36|486:29,1,88.000002685547
490,70,15414,2,0,L|512:155,1,88.000002685547
489,194,15950,2,0,P|451:174|398:175,1,88.000002685547
362,184,16485,2,0,L|269:208,1,88.000002685547
232,213,17021,2,0,P|191:196|166:161,1,88.000002685547
165,116,17557,2,0,L|187:30,1,88.000002685547
226,8,18092,6,0,P|242:48|275:76,1,88.000002685547
318,86,18628,2,0,L|403:63,1,88.000002685547
442,86,19164,2,0,P|439:129|415:165,1,88.000002685547
372,177,19700,2,0,L|279:152,1,88.000002685547
241,137,20235,2,0,P|199:148|168:179,1,88.000002685547
157,224,20771,2,0,L|169:270,2,44.0000013427735
127,190,21307,2,0,P|93:163|51:156,1,88.000002685547
7,158,21842,2,0,L|18:200,2,44.0000013427735
5,105,22378,6,0,L|33:-3,1,103.999995239258
85,0,22914,2,0,L|185:26,1,103.999995239258
229,57,23450,2,0,P|237:107|218:154,1,103.999995239258
172,177,23985,2,0,L|63:205,1,103.999995239258
34,243,24521,6,0,B|32:298|32:298|60:348,1,103.999995239258
100,369,25057,2,0,L|208:340,1,103.999995239258
247,318,25592,2,0,P|225:272|226:221,1,103.999995239258
268,183,26128,2,0,B|322:188|322:188|376:211,1,103.999995239258
404,247,26664,6,0,P|369:283|359:334,1,103.999995239258
391,380,27200,2,0,L|499:351,1,103.999995239258
504,301,27735,2,0,P|480:257|436:230,1,103.999995239258
385,218,28271,2,0,L|261:251,1,103.999995239258
249,202,28807,2,0,P|253:151|282:109,1,103.999995239258
338,97,29342,2,0,L|388:110,2,51.999997619629
308,34,29878,6,0,B|255:17|218:55|218:55|182:93|129:77,1,180.000006866455
