osu file format v14

[General]
AudioFilename: audio.mp3
AudioLeadIn: 0
PreviewTime: 85162
Countdown: 0
SampleSet: Soft
StackLeniency: 0.4
Mode: 0
LetterboxInBreaks: 0
WidescreenStoryboard: 0

[Editor]
Bookmarks: 15531,116899,223320
DistanceSpacing: 0.9
BeatDivisor: 4
GridSize: 8
TimelineZoom: 2.2

[Metadata]
Title:Pistol
TitleUnicode:ピストル
Artist:Acid Black Cherry
ArtistUnicode:Acid Black Cherry
Creator:gazimal
Version:Crack Pain
Source:
Tags:2012 j rock japanese Shizuku- Kazato Asa Shikibe Mayu Ayesha Altugle pnky
BeatmapID:3911995
BeatmapSetID:1898062

[Difficulty]
HPDrainRate:5
CircleSize:4
OverallDifficulty:9
ApproachRate:9.4
SliderMultiplier:1.8
SliderTickRate:1

[Events]
//Background and Video events
0,0,"76096803_p2 (1).png",0,0
//Break Periods
//Storyboard Layer 0 (Background)
//Storyboard Layer 1 (Fail)
//Storyboard Layer 2 (Pass)
//Storyboard Layer 3 (Foreground)
//Storyboard Layer 4 (Overlay)
//Storyboard Sound Samples

[TimingPoints]
-890,315.789473684211,4,2,1,60,1,0
373,-100,4,2,1,50,0,0
846,-200,4,2,1,50,0,0
1794,-133.333333333333,4,2,1,50,0,0
3373,-200,4,2,1,50,0,0
6846,-133.333333333333,4,2,1,50,0,0
8425,-200,4,2,1,50,0,0
9688,-100,4,2,1,50,0,0
9846,-100,4,2,1,70,0,0
10004,-500,4,2,1,70,0,0
10399,-500,4,2,1,5,0,0
10478,-500,4,2,1,75,0,0
10952,-83.3333333333333,4,2,1,75,0,0
11267,-133.333333333333,4,2,1,75,0,0
12215,-83.3333333333333,4,2,1,75,0,0
12531,-66.6666666666667,4,2,1,75,0,0
12846,-133.333333333333,4,2,1,75,0,0
13004,-66.6666666666667,4,2,1,75,0,0
13241,-500,4,2,1,5,0,0
13320,-66.6666666666667,4,2,1,75,0,0
13478,-83.3333333333333,4,2,1,75,0,0
13794,-133.333333333333,4,2,1,75,0,0
14899,-100,4,2,1,75,0,0
15215,-66.6666666666667,4,2,1,75,0,0
15531,-83.3333333333333,4,2,1,70,0,0
17583,-66.6666666666667,4,2,1,70,0,0
17899,-100,4,2,1,70,0,0
18057,-83.3333333333333,4,2,1,70,0,0
18294,-500,4,2,1,5,0,0
18373,-83.3333333333333,4,2,1,70,0,0
19320,-133.333333333333,4,2,1,70,0,0
20583,-71.4285714285714,4,2,1,70,0,0
20820,-500,4,2,1,5,0,0
20899,-133.333333333333,4,2,1,70,0,0
21057,-71.4285714285714,4,2,1,70,0,0
22320,-83.3333333333333,4,2,1,70,0,0
22636,-66.6666666666667,4,2,1,70,0,0
22952,-133.333333333333,4,2,1,70,0,0
23110,-83.3333333333333,4,2,1,70,0,0
23346,-500,4,2,1,5,0,0
23425,-83.3333333333333,4,2,1,70,0,0
24373,-133.333333333333,4,2,1,70,0,0
25162,-66.6666666666667,4,2,1,70,0,0
25478,-100,4,2,1,70,0,0
25794,-100,4,2,1,60,0,0
25952,-133.333333333333,4,2,1,60,0,0
26188,-500,4,2,1,5,0,0
26267,-133.333333333333,4,2,1,60,0,0
28004,-100,4,2,1,60,0,0
28478,-133.333333333333,4,2,1,60,0,0
30531,-100,4,2,1,60,0,0
31162,-133.333333333333,4,2,1,60,0,0
31794,-100,4,2,1,60,0,0
32741,-133.333333333333,4,2,1,60,0,0
33057,-100,4,2,1,60,0,0
33846,-66.6666666666667,4,2,1,60,0,0
34320,-125,4,2,1,60,0,0
34557,-500,4,2,1,5,0,0
34636,-66.6666666666667,4,2,1,60,0,0
34794,-66.6666666666667,4,2,1,65,0,0
34952,-133.333333333333,4,2,1,70,0,0
35110,-133.333333333333,4,2,1,80,0,0
35583,-76.9230769230769,4,2,1,65,0,0
36057,-133.333333333333,4,2,1,65,0,0
36531,-100,4,2,1,65,0,0
37794,-133.333333333333,4,2,1,65,0,0
38267,-100,4,2,1,65,0,0
39846,-133.333333333333,4,2,1,65,0,0
40162,-100,4,2,1,65,0,0
43873,-500,4,2,1,5,0,0
43952,-133.333333333333,4,2,1,65,0,0
44425,-83.3333333333333,4,2,1,65,0,0
44662,-500,4,2,1,5,0,0
44741,-83.3333333333333,4,2,1,65,0,0
45215,-133.333333333333,4,2,1,65,0,0
45688,-83.3333333333333,4,2,1,75,0,0
46162,-100,4,2,1,75,0,0
46952,-133.333333333333,4,2,1,75,0,0
47741,-100,4,2,1,75,0,0
49478,-133.333333333333,4,2,1,75,0,0
49794,-66.6666666666667,4,2,1,75,0,0
50110,-100,4,2,1,75,0,0
51373,-71.4285714285714,4,2,1,75,0,0
52004,-133.333333333333,4,2,1,75,0,0
52794,-100,4,2,1,75,0,0
52952,-133.333333333333,4,2,1,75,0,0
53110,-83.3333333333333,4,2,1,75,0,0
53267,-133.333333333333,4,2,1,75,0,0
53425,-100,4,2,1,75,0,0
54373,-66.6666666666667,4,2,1,75,0,0
54688,-83.3333333333333,4,2,1,75,0,0
55636,-66.6666666666667,4,2,1,75,0,0
55794,-83.3333333333333,4,2,1,75,0,0
56110,-83.3333333333333,4,2,1,65,0,0
56267,-100,4,2,1,65,0,0
56583,-133.333333333333,4,2,1,65,0,0
56899,-83.3333333333333,4,2,1,65,0,0
57846,-133.333333333333,4,2,1,65,0,0
58320,-83.3333333333333,4,2,1,65,0,0
58794,-100,4,2,1,65,0,0
60215,-133.333333333333,4,2,1,65,0,0
60846,-100,4,2,1,65,0,0
63057,-83.3333333333333,4,2,1,65,0,0
63846,-100,4,2,1,65,0,0
64162,-133.333333333333,4,2,1,65,0,0
64636,-100,4,2,1,65,0,0
64873,-500,4,2,1,5,0,0
64952,-100,4,2,1,65,0,0
65110,-133.333333333333,4,2,1,65,0,0
65899,-100,4,2,1,60,0,0
66688,-66.6666666666667,4,2,1,60,0,0
67083,-500,4,2,1,5,0,0
67162,-100,4,2,1,60,0,0
67952,-66.6666666666667,4,2,1,60,0,0
68346,-500,4,2,1,5,0,0
68425,-100,4,2,1,60,0,0
69215,-58.8235294117647,4,2,1,60,0,0
69610,-500,4,2,1,5,0,0
69688,-76.9230769230769,4,2,1,60,0,0
69925,-500,4,2,1,5,0,0
70004,-100,4,2,1,60,0,0
70162,-133.333333333333,4,2,1,60,0,0
70478,-76.9230769230769,4,2,1,60,0,0
70636,-500,4,2,1,5,0,0
70715,-76.9230769230769,4,2,1,60,0,0
70873,-500,4,2,1,5,0,0
70952,-100,4,2,1,60,0,0
71741,-58.8235294117647,4,2,1,60,0,0
72136,-500,4,2,1,5,0,0
72215,-100,4,2,1,60,0,0
72688,-133.333333333333,4,2,1,60,0,0
73478,-100,4,2,1,60,0,0
74267,-58.8235294117647,4,2,1,60,0,0
74662,-500,4,2,1,5,0,0
74741,-83.3333333333333,4,2,1,60,0,0
74978,-500,4,2,1,5,0,0
75057,-133.333333333333,4,2,1,60,0,0
75531,-76.9230769230769,4,2,1,60,0,0
75688,-500,4,2,1,5,0,0
75767,-76.9230769230769,4,2,1,60,0,0
75925,-500,4,2,1,5,0,0
76004,-83.3333333333333,4,2,1,65,0,0
76478,-133.333333333333,4,2,1,65,0,0
76952,-66.6666666666667,4,2,1,65,0,0
77267,-83.3333333333333,4,2,1,65,0,0
77583,-133.333333333333,4,2,1,65,0,0
78531,-83.3333333333333,4,2,1,65,0,0
79794,-100,4,2,1,65,0,0
80583,-66.6666666666667,4,2,1,65,0,0
80899,-133.333333333333,4,2,1,65,0,0
81057,-133.333333333333,4,2,1,60,0,0
82320,-100,4,2,1,60,0,0
83110,-133.333333333333,4,2,1,60,0,0
83425,-66.6666666666667,4,2,1,60,0,0
84057,-100,4,2,1,60,0,0
84531,-83.3333333333333,4,2,1,60,0,0
84846,-100,4,2,1,60,0,0
85320,-66.6666666666667,4,2,1,60,0,0
85636,-50,4,2,1,75,0,0
85794,-200,4,2,1,75,0,0
86031,-500,4,2,1,5,0,0
86110,-66.6666666666667,4,2,1,80,0,1
87136,-66.6666666666667,4,2,1,5,0,1
87215,-66.6666666666667,4,2,1,80,0,1
87688,-83.3333333333333,4,2,1,80,0,1
88004,-66.6666666666667,4,2,1,80,0,1
88241,-66.6666666666667,4,2,1,5,0,1
88320,-66.6666666666667,4,2,1,80,0,1
89662,-66.6666666666667,4,2,1,5,0,1
89741,-66.6666666666667,4,2,1,80,0,1
90215,-83.3333333333333,4,2,1,80,0,1
90531,-71.4285714285714,4,2,1,80,0,1
90688,-200,4,2,1,80,0,1
90846,-71.4285714285714,4,2,1,80,0,1
91004,-71.4285714285714,4,2,1,80,0,1
91162,-66.6666666666667,4,2,1,80,0,1
92110,-200,4,2,1,80,0,1
92425,-66.6666666666667,4,2,1,80,0,1
92741,-58.8235294117647,4,2,1,80,0,1
93215,-133.333333333333,4,2,1,80,0,1
93846,-58.8235294117647,4,2,1,80,0,1
94162,-83.3333333333333,4,2,1,80,0,1
94320,-76.9230769230769,4,2,1,80,0,1
96215,-66.6666666666667,4,2,1,80,0,1
97241,-66.6666666666667,4,2,1,5,0,1
97320,-66.6666666666667,4,2,1,80,0,1
98346,-66.6666666666667,4,2,1,5,0,1
98425,-66.6666666666667,4,2,1,80,0,1
98820,-66.6666666666667,4,2,1,5,0,1
98899,-133.333333333333,4,2,1,80,0,1
99215,-66.6666666666667,4,2,1,80,0,1
99767,-66.6666666666667,4,2,1,5,0,1
99846,-83.3333333333333,4,2,1,80,0,1
100320,-66.6666666666667,4,2,1,80,0,1
101346,-66.6666666666667,4,2,1,5,0,1
101425,-66.6666666666667,4,2,1,80,0,1
101662,-66.6666666666667,4,2,1,5,0,1
101741,-66.6666666666667,4,2,1,80,0,1
102215,-83.3333333333333,4,2,1,80,0,1
102452,-66.6666666666667,4,2,1,80,0,1
103478,-83.3333333333333,4,2,1,80,0,1
104425,-66.6666666666667,4,2,1,80,0,1
104741,-66.6666666666667,4,2,1,80,0,1
106320,-100,4,2,1,80,0,1
106478,-58.8235294117647,4,2,1,80,0,0
106794,-66.6666666666667,4,2,1,80,0,0
107267,-133.333333333333,4,2,1,80,0,0
108215,-83.3333333333333,4,2,1,80,0,0
108373,-66.6666666666667,4,2,1,80,0,0
108846,-133.333333333333,4,2,1,80,0,0
109004,-66.6666666666667,4,2,1,80,0,0
109241,-66.6666666666667,4,2,1,5,0,0
109320,-83.3333333333333,4,2,1,80,0,0
113583,-66.6666666666667,4,2,1,80,0,0
113899,-100,4,2,1,80,0,0
114057,-83.3333333333333,4,2,1,80,0,0
114294,-83.3333333333333,4,2,1,5,0,0
114373,-83.3333333333333,4,2,1,80,0,0
115478,-58.8235294117647,4,2,1,80,0,0
116110,-83.3333333333333,4,2,1,80,0,0
116425,-83.3333333333333,4,2,1,80,0,0
116741,-83.3333333333333,4,2,1,65,0,0
116899,-83.3333333333333,4,2,3,65,0,0
118636,-66.6666666666667,4,2,1,65,0,0
118952,-83.3333333333333,4,2,1,65,0,0
119425,-83.3333333333333,4,2,2,65,0,0
121162,-66.6666666666667,4,2,1,65,0,0
121794,-100,4,2,1,65,0,0
121952,-200,4,2,1,65,0,0
122583,-66.6666666666667,4,2,1,65,0,0
122741,-83.3333333333333,4,2,1,65,0,0
123057,-200,4,2,1,65,0,0
123215,-100,4,2,1,65,0,0
124478,-333.333333333333,4,2,1,30,0,0
125425,-66.6666666666667,4,2,1,70,0,0
126215,-200,4,2,1,70,0,0
126452,-83.3333333333333,4,2,1,5,0,0
126531,-83.3333333333333,4,2,1,70,0,0
126846,-83.3333333333333,4,2,1,65,0,0
127004,-100,4,2,1,65,0,0
128583,-133.333333333333,4,2,1,65,0,0
129215,-100,4,2,1,65,0,0
134820,-83.3333333333333,4,2,1,5,0,0
134899,-133.333333333333,4,2,1,65,0,0
135373,-83.3333333333333,4,2,1,65,0,0
135531,-83.3333333333333,4,2,1,5,0,0
135688,-83.3333333333333,4,2,1,65,0,0
136636,-100,4,2,1,60,0,0
137110,-200,4,2,1,60,0,0
137425,-66.6666666666667,4,2,1,60,0,0
137820,-83.3333333333333,4,2,1,5,0,0
137899,-66.6666666666667,4,2,1,60,0,0
138136,-83.3333333333333,4,2,1,5,0,0
138215,-333.333333333333,4,2,1,60,0,0
138688,-100,4,2,1,60,0,0
138846,-66.6666666666667,4,2,1,60,0,0
139083,-83.3333333333333,4,2,1,5,0,0
139162,-100,4,2,1,60,0,0
139794,-133.333333333333,4,2,1,60,0,0
139952,-66.6666666666667,4,2,1,60,0,0
140346,-83.3333333333333,4,2,1,5,0,0
140425,-83.3333333333333,4,2,1,60,0,0
140662,-83.3333333333333,4,2,1,5,0,0
140741,-83.3333333333333,4,2,1,60,0,0
140899,-100,4,2,1,60,0,0
141057,-133.333333333333,4,2,1,60,0,0
141215,-76.9230769230769,4,2,1,60,0,0
141373,-83.3333333333333,4,2,1,5,0,0
141452,-76.9230769230769,4,2,1,60,0,0
141610,-83.3333333333333,4,2,1,5,0,0
141688,-76.9230769230769,4,2,1,60,0,0
142952,-100,4,2,1,60,0,0
143741,-133.333333333333,4,2,1,60,0,0
144057,-66.6666666666667,4,2,1,60,0,0
145004,-100,4,2,1,60,0,0
145162,-83.3333333333333,4,2,1,60,0,0
145478,-100,4,2,1,60,0,0
145794,-100,4,2,1,75,0,0
146267,-50,4,2,1,75,0,0
146425,-200,4,2,1,75,0,0
146662,-83.3333333333333,4,2,1,5,0,0
146741,-58.8235294117647,4,2,1,80,0,1
147215,-58.8235294117647,4,2,1,80,0,1
147767,-58.8235294117647,4,2,1,5,0,1
147846,-83.3333333333333,4,2,1,80,0,1
148636,-66.6666666666667,4,2,1,80,0,1
148873,-58.8235294117647,4,2,1,5,0,1
148952,-100,4,2,1,80,0,1
149267,-66.6666666666667,4,2,1,80,0,1
150294,-58.8235294117647,4,2,1,5,0,1
150373,-83.3333333333333,4,2,1,80,0,1
151162,-66.6666666666667,4,2,1,80,0,1
151320,-200,4,2,1,80,0,1
151478,-66.6666666666667,4,2,1,80,0,1
151794,-71.4285714285714,4,2,1,80,0,1
151952,-66.6666666666667,4,2,1,80,0,1
152741,-100,4,2,1,80,0,1
153373,-66.6666666666667,4,2,1,80,0,1
153846,-133.333333333333,4,2,1,80,0,1
154478,-58.8235294117647,4,2,1,80,0,1
154794,-100,4,2,1,80,0,1
155583,-76.9230769230769,4,2,1,80,0,1
156846,-58.8235294117647,4,2,1,80,0,1
157320,-66.6666666666667,4,2,1,80,0,1
157873,-58.8235294117647,4,2,1,5,0,1
157952,-66.6666666666667,4,2,1,80,0,1
158978,-58.8235294117647,4,2,1,5,0,1
159057,-58.8235294117647,4,2,1,80,0,1
159215,-66.6666666666667,4,2,1,80,0,1
159452,-58.8235294117647,4,2,1,5,0,1
159531,-133.333333333333,4,2,1,80,0,1
159846,-66.6666666666667,4,2,1,80,0,1
160399,-58.8235294117647,4,2,1,5,0,1
160478,-83.3333333333333,4,2,1,80,0,1
161267,-66.6666666666667,4,2,1,80,0,1
161978,-58.8235294117647,4,2,1,5,0,1
162057,-66.6666666666667,4,2,1,80,0,1
162294,-58.8235294117647,4,2,1,5,0,1
162373,-66.6666666666667,4,2,1,80,0,1
162846,-90.9090909090909,4,2,1,80,0,1
163162,-66.6666666666667,4,2,1,80,0,1
163478,-133.333333333333,4,2,1,80,0,1
164110,-83.3333333333333,4,2,1,80,0,1
165057,-66.6666666666667,4,2,1,80,0,1
166952,-58.8235294117647,4,2,1,80,0,1
167188,-58.8235294117647,4,2,1,5,0,1
167267,-100,4,2,1,80,0,1
167425,-83.3333333333333,4,2,1,80,0,1
168215,-66.6666666666667,4,2,1,80,0,1
168452,-58.8235294117647,4,2,1,5,0,1
168531,-100,4,2,1,80,0,1
168688,-83.3333333333333,4,2,1,80,0,1
169478,-66.6666666666667,4,2,1,80,0,1
169715,-58.8235294117647,4,2,1,5,0,1
169794,-66.6666666666667,4,2,1,80,0,1
170741,-100,4,2,1,80,0,1
170899,-66.6666666666667,4,2,1,80,0,1
171215,-100,4,2,1,80,0,1
171846,-133.333333333333,4,2,1,80,0,0
172083,-133.333333333333,4,2,1,5,0,0
172162,-133.333333333333,4,2,1,55,0,0
172478,-200,4,2,1,55,0,0
173583,-133.333333333333,4,2,1,55,0,0
175162,-200,4,2,1,55,0,0
176741,-133.333333333333,4,2,1,55,0,0
177057,-100,4,2,1,55,0,0
177688,-200,4,2,1,55,0,0
178636,-133.333333333333,4,2,1,55,0,0
180215,-200,4,2,1,55,0,0
181004,-200,4,2,1,70,0,0
181320,-58.8235294117647,4,2,1,70,0,0
181794,-66.6666666666667,4,2,1,70,0,0
182267,-100,4,2,1,70,0,0
182583,-66.6666666666667,4,2,1,70,0,0
182899,-83.3333333333333,4,2,1,70,0,0
184004,-133.333333333333,4,2,1,70,0,0
184162,-58.8235294117647,4,2,1,70,0,0
184320,-83.3333333333333,4,2,1,70,0,0
185899,-133.333333333333,4,2,1,70,0,0
186215,-100,4,2,1,70,0,0
186688,-71.4285714285714,4,2,1,70,0,0
186846,-133.333333333333,4,2,1,5,0,0
186925,-71.4285714285714,4,2,1,70,0,0
187083,-133.333333333333,4,2,1,5,0,0
187162,-100,4,2,1,70,0,0
187320,-83.3333333333333,4,2,1,70,0,0
187794,-66.6666666666667,4,2,1,70,0,0
187952,-83.3333333333333,4,2,1,70,0,0
188899,-133.333333333333,4,2,1,70,0,0
189215,-66.6666666666667,4,2,1,70,0,0
190083,-100,4,2,1,70,0,0
190478,-76.9230769230769,4,2,1,70,0,0
190794,-100,4,2,1,70,0,0
191110,-66.6666666666667,4,2,1,70,0,0
191662,-133.333333333333,4,2,1,5,0,0
191741,-66.6666666666667,4,2,1,70,0,0
192373,-66.6666666666667,4,2,1,75,0,1
195215,-100,4,2,1,75,0,1
195373,-66.6666666666667,4,2,1,75,0,1
195846,-83.3333333333333,4,2,1,75,0,1
196478,-66.6666666666667,4,2,1,75,0,1
196794,-133.333333333333,4,2,1,75,0,1
197425,-133.333333333333,4,2,1,80,0,1
197741,-66.6666666666667,4,2,1,80,0,1
198925,-133.333333333333,4,2,1,5,0,1
199004,-66.6666666666667,4,2,1,80,0,1
199162,-50,4,2,1,80,0,1
199557,-133.333333333333,4,2,1,5,0,1
199636,-83.3333333333333,4,2,1,80,0,1
199873,-83.3333333333333,4,2,1,5,0,1
199952,-83.3333333333333,4,2,1,80,0,1
200583,-66.6666666666667,4,2,1,80,0,1
201215,-133.333333333333,4,2,1,80,0,1
201531,-66.6666666666667,4,2,1,80,0,1
202320,-100,4,2,1,80,0,0
202636,-200,4,2,1,60,0,0
203110,-58.8235294117647,4,2,1,60,0,0
203504,-58.8235294117647,4,2,1,5,0,0
203583,-100,4,2,1,60,0,0
204373,-58.8235294117647,4,2,1,60,0,0
204846,-100,4,2,1,60,0,0
205636,-58.8235294117647,4,2,1,60,0,0
206031,-58.8235294117647,4,2,1,5,0,0
206110,-100,4,2,1,60,0,0
208162,-58.8235294117647,4,2,1,60,0,0
208557,-58.8235294117647,4,2,1,5,0,0
208636,-100,4,2,1,60,0,0
209425,-66.6666666666667,4,2,1,60,0,0
209899,-100,4,2,1,60,0,0
210688,-66.6666666666667,4,2,1,60,0,0
211083,-58.8235294117647,4,2,1,5,0,0
211162,-100,4,2,1,60,0,0
211399,-58.8235294117647,4,2,1,5,0,0
211478,-133.333333333333,4,2,1,60,0,0
211952,-76.9230769230769,4,2,1,60,0,0
212110,-58.8235294117647,4,2,1,5,0,0
212188,-76.9230769230769,4,2,1,60,0,0
212346,-58.8235294117647,4,2,1,5,0,0
212425,-83.3333333333333,4,2,1,65,0,0
213373,-66.6666666666667,4,2,1,65,0,0
213531,-83.3333333333333,4,2,1,65,0,0
213925,-58.8235294117647,4,2,1,5,0,0
214004,-133.333333333333,4,2,1,65,0,0
214952,-83.3333333333333,4,2,1,65,0,0
215188,-58.8235294117647,4,2,1,5,0,0
215267,-83.3333333333333,4,2,1,65,0,0
217004,-133.333333333333,4,2,1,65,0,0
217478,-133.333333333333,4,2,1,60,0,0
218741,-83.3333333333333,4,2,1,60,0,0
219531,-133.333333333333,4,2,1,60,0,0
219846,-66.6666666666667,4,2,1,60,0,0
220162,-66.6666666666667,4,2,1,70,0,0
220636,-100,4,2,1,70,0,0
222688,-66.6666666666667,4,2,1,70,0,0
223320,-50,4,2,1,75,0,0
223478,-200,4,2,1,75,0,0
223715,-58.8235294117647,4,2,1,5,0,0
223794,-58.8235294117647,4,2,1,85,0,1
224583,-66.6666666666667,4,2,1,85,0,1
224820,-66.6666666666667,4,2,1,5,0,1
224899,-83.3333333333333,4,2,1,85,0,1
225688,-66.6666666666667,4,2,1,85,0,1
225925,-66.6666666666667,4,2,1,5,0,1
226004,-66.6666666666667,4,2,1,85,0,1
227346,-66.6666666666667,4,2,1,5,0,1
227425,-66.6666666666667,4,2,1,85,0,1
228373,-200,4,2,1,85,0,1
228531,-66.6666666666667,4,2,1,85,0,1
229004,-58.8235294117647,4,2,1,85,0,1
229320,-66.6666666666667,4,2,1,85,0,1
229636,-83.3333333333333,4,2,1,85,0,1
229794,-333.333333333333,4,2,1,85,0,1
230110,-66.6666666666667,4,2,1,85,0,1
231057,-133.333333333333,4,2,1,85,0,1
231531,-58.8235294117647,4,2,1,85,0,1
231846,-83.3333333333333,4,2,1,85,0,1
232004,-66.6666666666667,4,2,1,85,0,1
232794,-76.9230769230769,4,2,1,85,0,1
233899,-66.6666666666667,4,2,1,85,0,1
234373,-66.6666666666667,4,2,1,85,0,1
234925,-66.6666666666667,4,2,1,5,0,1
235004,-66.6666666666667,4,2,1,85,0,1
236031,-66.6666666666667,4,2,1,5,0,1
236110,-83.3333333333333,4,2,1,85,0,1
236267,-66.6666666666667,4,2,1,85,0,1
236504,-66.6666666666667,4,2,1,5,0,1
236583,-133.333333333333,4,2,1,85,0,1
236899,-66.6666666666667,4,2,1,85,0,1
237452,-66.6666666666667,4,2,1,5,0,1
237531,-83.3333333333333,4,2,1,85,0,1
238162,-153.846153846153,4,2,1,85,0,1
238320,-66.6666666666667,4,2,1,85,0,1
238636,-83.3333333333333,4,2,1,85,0,1
238794,-71.4285714285714,4,2,1,85,0,1
239031,-66.6666666666667,4,2,1,5,0,1
239110,-66.6666666666667,4,2,1,85,0,1
239346,-66.6666666666667,4,2,1,5,0,1
239425,-76.9230769230769,4,2,1,85,0,1
240531,-66.6666666666667,4,2,1,85,0,1
241952,-83.3333333333333,4,2,1,85,0,1
242110,-66.6666666666667,4,2,1,85,0,1
244004,-66.6666666666667,4,2,1,85,0,1
245583,-83.3333333333333,4,2,1,85,0,1
245741,-66.6666666666667,4,2,1,85,0,1
246925,-66.6666666666667,4,2,1,85,0,1
247794,-58.8235294117647,4,2,1,85,0,1
248267,-83.3333333333333,4,2,1,85,0,1
248583,-50,4,2,1,85,0,1
248741,-333.333333333333,4,2,1,85,0,0
248978,-333.333333333333,4,2,1,5,0,0
249057,-58.8235294117647,4,2,1,70,0,0
249294,-333.333333333333,4,2,1,5,0,0
249373,-58.8235294117647,4,2,1,70,0,0
250004,-83.3333333333333,4,2,1,70,0,0
250636,-133.333333333333,4,2,1,70,0,0
250794,-66.6666666666667,4,2,1,70,0,0
251583,-133.333333333333,4,2,1,70,0,0
251741,-66.6666666666667,4,2,1,70,0,0
251978,-333.333333333333,4,2,1,5,0,0
252057,-100,4,2,1,70,0,0
252215,-66.6666666666667,4,2,1,70,0,0
253004,-83.3333333333333,4,2,1,70,0,0
253636,-71.4285714285714,4,2,1,70,0,0
254267,-71.4285714285714,4,2,1,70,0,0
256004,-83.3333333333333,4,2,1,70,0,0
256320,-66.6666666666667,4,2,1,70,0,0
256636,-83.3333333333333,4,2,1,70,0,0
257031,-333.333333333333,4,2,1,5,0,0
257110,-133.333333333333,4,2,1,70,0,0
257267,-83.3333333333333,4,2,1,70,0,0
258057,-133.333333333333,4,2,1,70,0,0
259320,-58.8235294117647,4,2,1,70,0,0
259557,-333.333333333333,4,2,1,5,0,0
259636,-100,4,2,1,70,0,0
259794,-66.6666666666667,4,2,1,70,0,0
261057,-83.3333333333333,4,2,1,70,0,0
261373,-66.6666666666667,4,2,1,70,0,0
262083,-333.333333333333,4,2,1,5,0,0
262162,-66.6666666666667,4,2,1,70,0,0
262636,-133.333333333333,4,2,1,70,0,0
262794,-100,4,2,1,70,0,0
262952,-80,4,2,1,70,0,0
263110,-52.6315789473684,4,2,1,80,0,0
264215,-1000,4,2,1,80,0,0
265320,-333.333333333333,4,2,1,5,0,0

[Colours]
Combo1 : 98,6,249
Combo2 : 192,192,192
Combo3 : 128,128,128
Combo4 : 255,128,0
Combo5 : 227,0,0

[HitObjects]
110,296,373,5,6,3:2:0:0:
217,259,531,1,2,0:0:0:0:
110,296,688,1,2,3:2:0:0:
170,384,846,2,0,L|179:339,5,45,2|0|0|0|0|0,0:0|3:2|0:0|3:2|0:0|3:2,0:0:0:0:
334,347,1794,6,0,L|263:332,1,67.5000025749208,2|2,0:0|3:2,0:0:0:0:
334,347,2110,1,2,0:0:0:0:
422,277,2267,2,0,L|351:262,1,67.5000025749208,2|0,3:2|0:0,0:0:0:0:
422,277,2583,1,2,3:2:0:0:
444,368,2741,1,2,0:0:0:0:
512,218,2899,53,2,3:2:0:0:
372,187,3057,1,2,0:0:0:0:
512,218,3215,1,2,3:2:0:0:
449,109,3373,2,0,L|458:155,4,45,2|0|0|0|0,0:0|3:2|0:0|3:2|0:0,0:0:0:0:
501,44,4162,6,0,L|510:-2,2,45,2|2|2,3:3|0:3|3:3,0:0:0:0:
379,77,4636,2,0,P|389:57|406:43,1,45,2|0,0:0|3:2,0:0:0:0:
309,120,4952,2,0,P|296:101|294:79,1,45,2|0,0:0|3:2,0:0:0:0:
381,160,5267,1,2,0:0:0:0:
333,8,5425,53,6,3:2:0:0:
231,142,5583,1,2,0:0:0:0:
333,8,5741,1,2,3:2:0:0:
203,26,5899,2,0,L|257:14,5,45,2|0|0|0|0|0,0:0|3:2|0:0|3:2|0:0|3:2,0:0:0:0:
118,77,6846,6,0,L|132:6,1,67.5000025749208,2|2,0:0|3:2,0:0:0:0:
118,77,7162,1,2,0:0:0:0:
19,132,7320,2,0,L|33:61,1,67.5000025749208,2|0,3:2|0:0,0:0:0:0:
19,132,7636,1,2,3:2:0:0:
177,178,7794,1,0,0:0:0:0:
70,330,7952,53,2,3:2:0:0:
41,212,8110,1,2,0:0:0:0:
70,330,8267,1,2,3:2:0:0:
168,263,8425,2,0,L|121:253,4,45,2|0|0|0|0,0:0|3:2|0:0|3:2|0:0,0:0:0:0:
217,350,9215,6,0,L|263:340,2,45,2|2|2,3:3|0:3|3:3,0:0:0:0:
299,256,9688,53,2,3:3:0:0:
299,256,9767,1,0,3:2:0:0:
299,256,9846,2,0,P|321:269|341:295,1,45,10|0,3:2|0:0,0:0:0:0:
402,373,10004,6,0,P|412:352|428:337,1,45,10|0,0:0|0:0,0:0:0:0:
498,302,10478,53,6,3:2:0:0:
347,182,10636,1,2,0:0:0:0:
299,256,10794,1,10,0:0:0:0:
501,194,10952,2,0,L|477:84,1,107.999996704102,2|8,3:2|0:0,0:0:0:0:
388,261,11267,1,0,3:2:0:0:
302,351,11425,2,0,L|292:397,1,33.7500012874604,8|0,0:0|0:0,0:0:0:0:
185,226,11583,22,0,L|189:202,2,22.5000008583069,2|0|0,3:2|3:2|3:2,0:0:0:0:
220,292,11741,54,0,L|210:338,1,33.7500012874604,10|0,0:0|0:0,0:0:0:0:
134,352,11899,2,0,L|124:398,1,33.7500012874604,0|0,3:2|0:0,0:0:0:0:
88,245,12057,2,0,L|95:277,1,33.7500012874604,10|0,0:0|0:0,0:0:0:0:
0,185,12215,2,0,L|23:294,1,107.999996704102,0|8,3:2|0:0,0:0:0:0:
92,128,12531,2,0,B|84:108|84:108|56:103|56:103|61:113|65:123,1,67.5000025749208,2|0,3:1|0:0,0:0:0:0:
191,189,12688,1,8,0:0:0:0:
312,25,12846,54,0,L|343:18,2,22.5000008583069,0|0|0,3:2|3:2|3:2,0:0:0:0:
240,68,13004,22,0,B|147:48|147:48|137:39|137:39|42:18,1,202.500007724762,10|0,3:1|0:0,0:0:0:0:
45,19,13320,2,0,B|31:31|31:31|101:47,1,67.5000025749208,8|0,0:0|0:0,0:0:0:0:
298,127,13478,2,0,B|310:116|314:100|314:100|413:79,1,107.999996704102,2|8,3:2|0:0,0:0:0:0:
505,47,13794,2,0,L|514:0,1,33.7500012874604,2|0,3:2|0:0,0:0:0:0:
453,150,13952,2,0,L|462:103,1,33.7500012874604,10|0,0:0|0:0,0:0:0:0:
382,51,14110,2,0,L|391:97,1,33.7500012874604,2|0,3:2|0:0,0:0:0:0:
427,234,14267,53,0,3:2:0:0:
427,234,14346,2,0,L|436:280,1,33.7500012874604,0|2,1:0|0:0,0:0:0:0:
365,313,14504,1,0,1:2:0:0:
365,313,14583,2,0,L|356:267,1,33.7500012874604,8|0,3:2|0:0,0:0:0:0:
501,318,14741,1,0,1:2:0:0:
501,318,14820,1,0,1:2:0:0:
501,318,14899,2,0,L|489:372,1,45,0|0,3:2|1:2,0:0:0:0:
318,384,15057,1,8,0:0:0:0:
304,379,15136,1,0,1:2:0:0:
291,374,15215,2,0,L|274:295,1,67.5000025749208,2|0,3:1|3:2,0:0:0:0:
153,222,15373,53,0,3:2:0:0:
169,234,15452,1,0,3:2:0:0:
184,244,15531,2,0,L|293:220,1,107.999996704102,4|2,3:2|0:0,0:0:0:0:
208,151,15846,1,10,0:0:0:0:
99,284,16004,2,0,B|85:273|78:255|78:255|-15:235,2,107.999996704102,2|0|0,0:0|3:2|0:0,0:0:0:0:
22,331,16478,1,10,0:0:0:0:
153,222,16636,1,2,0:0:0:0:
199,384,16794,21,2,3:2:0:0:
99,284,16952,1,2,0:0:0:0:
289,221,17110,1,8,0:0:0:0:
276,307,17267,2,0,B|250:285|216:272|216:272|199:296|174:299,1,107.999996704102,2|0,0:0|3:2,0:0:0:0:
375,366,17583,2,0,B|396:371|396:371|427:350|427:350|431:328,1,67.5000025749208,2|0,0:1|0:0,0:0:0:0:
443,243,17741,1,8,0:0:0:0:
276,307,17899,2,0,L|330:318,1,45,2|0,0:1|0:0,0:0:0:0:
488,356,18057,54,0,B|430:344|430:344|401:310|401:310|343:297,1,161.999995056153,2|0,3:1|0:0,0:0:0:0:
289,221,18373,1,8,0:0:0:0:
199,384,18531,2,0,B|188:355|188:355|197:321|197:321|202:349|224:366,1,107.999996704102,2|0,0:0|3:2,0:0:0:0:
104,381,18846,1,2,0:0:0:0:
3,257,19004,1,10,0:0:0:0:
24,371,19162,1,2,0:0:0:0:
111,295,19320,54,0,L|102:255,1,33.7500012874604,2|0,3:2|0:0,0:0:0:0:
179,235,19478,2,0,L|170:195,1,33.7500012874604,2|0,3:2|0:0,0:0:0:0:
7,161,19636,1,8,0:0:0:0:
154,83,19794,21,2,3:2:0:0:
150,75,19873,1,2,0:0:0:0:
137,73,19952,1,10,0:0:0:0:
124,80,20031,1,2,1:2:0:0:
119,92,20110,1,2,1:2:0:0:
124,106,20188,1,2,1:2:0:0:
144,113,20267,1,10,3:2:0:0:
182,104,20346,1,10,0:0:0:0:
231,95,20425,1,10,0:0:0:0:
286,84,20504,1,10,0:0:0:0:
346,71,20583,54,0,B|327:65|310:49|310:49|245:64|245:64|233:86|244:121|283:119,1,188.999994232178,6|0,3:2|0:0,0:0:0:0:
371,147,20899,2,0,P|391:139|409:114,1,33.7500012874604,8|0,0:0|0:0,0:0:0:0:
486,68,21057,2,0,B|479:40|493:5|493:5|478:39|441:51,1,125.999996154785,2|0,0:0|3:2,0:0:0:0:
296,206,21373,1,0,0:0:0:0:
481,259,21531,1,10,0:0:0:0:
461,174,21688,1,2,0:0:0:0:
362,297,21846,53,2,3:2:0:0:
388,379,22004,1,2,0:0:0:0:
481,259,22162,1,10,0:0:0:0:
266,332,22320,2,0,B|283:384|283:384|309:373|309:373|298:333,1,107.999996704102,2|0,0:0|3:2,0:0:0:0:
154,254,22636,2,0,B|148:249|148:249|104:255|104:255|84:281,1,67.5000025749208,2|0,0:1|0:0,0:0:0:0:
41,343,22794,1,8,0:0:0:0:
170,366,22952,2,0,L|130:357,1,33.7500012874604,2|0,0:1|0:0,0:0:0:0:
50,234,23110,22,0,B|101:244|101:244|136:278|136:278|196:291,1,161.999995056153,2|0,3:1|0:0,0:0:0:0:
263,251,23425,1,8,0:0:0:0:
68,152,23583,2,0,B|50:125|17:127|17:127|13:164|-8:180,1,107.999996704102,2|0,0:0|3:2,0:0:0:0:
190,215,23899,1,2,0:0:0:0:
344,144,24057,1,10,0:0:0:0:
181,91,24215,1,2,0:0:0:0:
263,251,24373,54,0,L|271:211,1,33.7500012874604,2|0,3:2|0:0,0:0:0:0:
357,228,24531,1,2,3:2:0:0:
357,228,24610,1,0,3:2:0:0:
357,228,24688,2,0,L|348:267,1,33.7500012874604,10|0,0:0|0:0,0:0:0:0:
436,270,24846,1,2,3:2:0:0:
436,270,24925,1,0,3:2:0:0:
436,270,25004,2,0,L|443:237,1,33.7500012874604,10|0,0:0|0:0,0:0:0:0:
386,39,25162,2,0,B|434:39|434:39|459:71,1,67.5000025749208,2|0,3:2|0:0,0:0:0:0:
492,144,25320,1,0,0:0:0:0:
354,92,25478,54,0,B|417:78|417:78|434:29|434:29|496:16,1,180,6|0,3:2|3:2,0:0:0:0:
284,134,25952,2,0,B|275:119|271:101|271:101|236:85|209:114,1,101.250003862381,10|0,0:0|0:0,0:0:0:0:
211,112,26267,2,0,P|234:92|242:56,1,67.5000025749208,0|0,3:2|3:2,0:0:0:0:
354,92,26583,1,10,0:0:0:0:
312,233,26741,2,0,P|332:206|359:186,1,67.5000025749208,2|0,3:2|0:0,0:0:0:0:
243,292,27057,22,0,P|229:261|224:227,2,67.5000025749208,2|8|2,3:2|0:0|0:0,0:0:0:0:
325,324,27531,1,2,3:2:0:0:
163,320,27688,2,0,P|149:333|140:348,1,33.7500012874604,2|0,3:2|0:0,0:0:0:0:
230,376,27846,1,8,0:0:0:0:
46,381,28004,54,0,B|74:342|69:267|69:267|67:311|48:328,1,180,6|0,3:2|3:2,0:0:0:0:
230,376,28478,2,0,B|259:363|283:355|283:355|299:364,1,67.5000025749208,10|0,0:0|0:0,0:0:0:0:
447,362,28794,1,2,3:2:0:0:
361,384,28952,2,0,P|366:349|377:305,1,67.5000025749208,2|8,3:2|0:0,0:0:0:0:
398,193,29267,54,0,B|417:241|458:237|458:237|461:210|461:210|442:207|428:196,1,135.000005149842,2|2,3:2|3:2,0:0:0:0:
289,233,29741,1,10,0:0:0:0:
456,129,29899,1,2,0:0:0:0:
282,73,30057,2,0,L|290:112,1,33.7500012874604,2|0,3:2|0:0,0:0:0:0:
371,119,30215,2,0,L|362:79,1,33.7500012874604,2|0,3:2|0:0,0:0:0:0:
351,7,30373,1,10,0:0:0:0:
255,77,30531,22,0,L|434:38,1,180,6|0,3:2|3:2,0:0:0:0:
255,77,31004,1,8,0:0:0:0:
456,129,31320,54,0,L|502:119,1,33.7500012874604,2|0,3:2|0:0,0:0:0:0:
432,239,31478,2,0,P|414:226|401:209,1,33.7500012874604,2|0,3:2|0:0,0:0:0:0:
371,119,31636,1,8,0:0:0:0:
511,215,31794,54,0,P|431:243|376:325,1,180,6|0,3:2|3:2,0:0:0:0:
174,376,32267,2,0,B|194:370|197:332|197:332|172:346|180:366,1,90,8|0,0:0|0:0,0:0:0:0:
282,347,32583,1,2,3:2:0:0:
133,269,32741,2,0,L|100:275,1,33.7500012874604,2|0,3:2|0:0,0:0:0:0:
6,292,32899,1,8,0:0:0:0:
182,319,33057,22,0,B|119:306|119:306|92:266|92:266|20:248,1,180,6|0,3:2|3:2,0:0:0:0:
182,319,33531,1,8,0:0:0:0:
444,197,33846,54,0,P|416:226|414:270,1,67.5000025749208,2|0,3:2|0:0,0:0:0:0:
278,255,34004,2,0,P|318:262|345:297,1,67.5000025749208,2|0,3:2|0:0,0:0:0:0:
336,163,34162,1,8,0:0:0:0:
380,342,34320,2,0,B|405:358|415:383|415:383|405:358|415:324,1,107.999996704102,6|0,3:2|0:0,0:0:0:0:
337,280,34636,54,0,P|311:259|278:255,1,67.5000025749208,2|0,3:2|0:0,0:0:0:0:
411,251,34794,2,0,P|419:219|444:197,1,67.5000025749208,2|0,1:2|0:0,0:0:0:0:
336,163,34952,2,0,L|347:194,1,33.7500012874604,10|0,1:2|0:0,0:0:0:0:
294,54,35110,22,0,L|305:85,1,33.7500012874604,10|0,1:2|0:0,0:0:0:0:
382,298,35267,1,10,1:2:0:0:
382,298,35583,54,0,B|411:300|433:276|433:276|401:321|346:295|353:291|324:239|277:257,1,233.999989288331,4|0,3:2|3:2,0:0:0:0:
178,376,36057,2,0,L|192:305,2,67.5000025749208,10|2|2,0:0|0:0|3:2,0:0:0:0:
48,324,36531,2,0,B|40:335|26:342|26:342|89:325,1,90,2|8,0:0|0:0,0:0:0:0:
198,220,36846,54,0,B|190:182|190:182|183:171|183:171|173:123,1,90,2|0,0:0|3:2,0:0:0:0:
276,170,37162,1,2,0:0:0:0:
120,228,37320,2,0,B|96:239|96:239|32:225,1,90,8|0,0:0|0:0,0:0:0:0:
86,157,37636,1,2,3:2:0:0:
20,143,37794,2,0,L|90:157,1,67.5000025749208,2|8,3:2|0:0,0:0:0:0:
196,32,38110,2,0,B|180:27|180:27|147:34,1,33.7500012874604,2|0,0:2|0:0,0:0:0:0:
112,58,38267,22,0,B|184:42|184:42|207:23,1,90,0|0,3:2|0:0,0:0:0:0:
50,2,38583,1,10,0:0:0:0:
86,156,38741,1,2,0:0:0:0:
0,65,38899,1,2,3:2:0:0:
175,133,39057,2,0,L|153:234,1,90,2|8,0:0|0:0,0:0:0:0:
259,324,39373,54,0,B|254:310|254:310|203:285|203:285|220:298|221:317,1,90,2|0,0:0|3:2,0:0:0:0:
313,384,39688,1,2,0:0:0:0:
159,347,39846,2,0,L|104:358,1,33.7500012874604,10|0,0:0|0:0,0:0:0:0:
31,379,40004,1,2,0:0:0:0:
124,343,40162,2,0,L|178:354,1,45,2|0,3:2|0:0,0:0:0:0:
340,309,40320,1,2,3:2:0:0:
156,221,40478,2,0,L|109:230,1,45,8|0,0:0|0:0,0:0:0:0:
86,156,40636,54,0,B|218:128|218:128|229:183,1,180,6|0,3:2|3:2,0:0:0:0:
35,222,41110,1,8,0:0:0:0:
340,309,41425,22,0,L|351:254,1,45,2|0,3:2|0:0,0:0:0:0:
367,185,41583,1,2,3:2:0:0:
268,271,41741,2,0,L|256:325,1,45,8|0,0:0|0:0,0:0:0:0:
385,312,41899,54,0,B|391:277|391:277|308:203|308:203|318:153,1,180,6|2,3:2|3:2,0:0:0:0:
462,294,42373,1,8,0:0:0:0:
436,98,42531,2,0,B|452:64|494:78|494:78|467:79|455:94,1,90,2|0,0:0|3:2,0:0:0:0:
280,188,42846,2,0,L|291:133,1,45,2|0,3:2|0:0,0:0:0:0:
325,45,43004,53,8,0:0:0:0:
325,45,43083,1,2,0:0:0:0:
325,45,43162,2,0,B|334:61|355:74|355:74|221:46,1,180,6|0,3:2|3:2,0:0:0:0:
44,67,43636,2,0,B|142:46|142:46|143:24|158:7,1,135,8|0,0:0|0:0,0:0:0:0:
153,14,43952,2,0,L|113:22,1,33.7500012874604,2|0,3:2|0:0,0:0:0:0:
23,152,44110,2,0,L|62:143,1,33.7500012874604,2|0,3:2|0:0,0:0:0:0:
186,124,44267,1,8,0:0:0:0:
136,281,44425,22,0,B|131:223|182:206|182:206|228:212|250:169,1,161.999995056153,2|0,3:2|0:0,0:0:0:0:
266,110,44741,1,0,3:2:0:0:
310,321,44899,1,8,0:0:0:0:
429,183,45057,1,2,3:2:0:0:
477,350,45215,54,0,L|467:396,1,33.7500012874604,8|0,0:3|0:0,0:0:0:0:
406,301,45373,2,0,L|396:347,1,33.7500012874604,4|0,0:3|0:0,0:0:0:0:
217,280,45531,2,0,L|226:326,1,33.7500012874604,12|0,0:3|0:0,0:0:0:0:
266,110,45688,54,0,L|315:344,1,215.999993408203,6|2,3:2|3:2,0:0:0:0:
317,329,46083,1,0,3:2:0:0:
317,329,46162,2,0,L|270:319,1,45,10|0,0:0|0:0,0:0:0:0:
58,131,46320,1,2,3:2:0:0:
43,216,46478,2,0,L|89:206,1,45,8|0,0:0|0:0,0:0:0:0:
238,22,46636,1,0,3:2:0:0:
266,110,46794,21,8,0:0:0:0:
243,105,46872,1,0,3:2:0:0:
221,100,46952,54,0,L|226:126,2,22.5000008583069,0|0|0,3:2|3:2|3:2,0:0:0:0:
141,84,47109,1,8,0:0:0:0:
331,42,47267,53,2,3:2:0:0:
374,245,47425,1,10,0:0:0:0:
461,110,47583,1,2,3:2:0:0:
295,208,47741,2,0,P|311:185|339:172,1,45,8|0,0:0|0:0,0:0:0:0:
376,331,47899,1,2,3:2:0:0:
376,331,47978,1,0,3:2:0:0:
376,331,48057,2,0,P|347:328|322:310,1,45,10|0,0:0|0:0,0:0:0:0:
247,284,48215,1,2,3:2:0:0:
443,200,48373,22,0,P|454:225|452:256,1,45,10|0,0:0|0:0,0:0:0:0:
512,309,48531,2,0,P|495:331|468:344,1,45,2|0,3:2|0:0,0:0:0:0:
374,245,48688,1,8,0:0:0:0:
461,110,48846,1,0,3:2:0:0:
366,96,49004,2,0,L|377:150,1,45,8|0,0:0|0:0,0:0:0:0:
176,42,49162,1,0,3:2:0:0:
271,28,49321,53,8,0:0:0:0:
266,51,49399,1,0,3:2:0:0:
261,73,49478,54,0,L|287:68,2,22.5000008583069,0|0|0,3:2|3:2|3:2,0:0:0:0:
246,150,49636,1,10,0:0:0:0:
36,36,49794,22,0,B|58:16|58:16|97:23,1,67.5000025749208,2|0,3:3|0:0,0:0:0:0:
109,102,49952,2,0,B|86:121|86:121|47:114,1,67.5000025749208,8|0,0:0|0:0,0:0:0:0:
8,196,50110,54,0,L|54:205,1,45,6|0,3:2|0:0,0:0:0:0:
251,347,50267,1,8,0:0:0:0:
169,353,50425,2,0,L|178:306,1,45,6|0,3:2|0:0,0:0:0:0:
265,266,50583,1,8,0:0:0:0:
108,283,50741,2,0,L|117:236,1,45,6|0,3:2|0:0,0:0:0:0:
12,296,50899,53,2,3:2:0:0:
16,318,50977,1,0,3:2:0:0:
21,340,51056,1,2,3:2:0:0:
26,362,51135,1,0,3:2:0:0:
30,384,51215,2,0,B|44:367|44:367|40:330,1,45,10|0,0:0|0:0,0:0:0:0:
8,196,51373,2,0,B|24:190|36:179|36:179|145:202,1,125.999996154785,2|8,3:2|0:0,0:0:0:0:
325,318,51688,1,0,3:2:0:0:
211,181,51846,21,8,0:0:0:0:
234,176,51924,1,0,3:2:0:0:
256,171,52004,54,0,L|251:147,2,22.5000008583069,0|0|0,3:2|3:2|3:2,0:0:0:0:
339,162,52161,1,8,0:0:0:0:
178,263,52320,1,2,3:2:0:0:
117,34,52478,1,10,0:0:0:0:
227,54,52636,1,2,3:2:0:0:
127,198,52794,2,0,L|80:188,1,45,8|0,0:0|0:0,0:0:0:0:
10,132,52952,54,0,L|5:108,2,22.5000008583069,2|0|0,3:2|3:2|3:2,0:0:0:0:
82,200,53110,2,0,L|152:185,1,53.9999983520508,10|0,0:0|0:0,0:0:0:0:
234,87,53267,2,0,L|225:47,1,33.7500012874604,2|0,3:2|0:0,0:0:0:0:
306,2,53425,22,0,L|319:64,1,45,10|0,0:0|0:0,0:0:0:0:
411,82,53583,2,0,L|397:19,1,45,2|0,3:2|0:0,0:0:0:0:
315,137,53741,1,8,0:0:0:0:
496,70,53899,1,0,3:2:0:0:
404,207,54057,2,0,L|390:144,1,45,8|0,0:0|0:0,0:0:0:0:
502,253,54215,1,0,3:2:0:0:
348,360,54373,2,0,L|319:226,1,135.000005149842,8|0,0:0|0:0,0:0:0:0:
429,288,54688,53,8,3:2:0:0:
432,298,54768,2,0,P|444:317|477:334,1,53.9999983520508,8|0,0:0|0:0,0:0:0:0:
319,228,54926,1,0,1:2:0:0:
311,235,55004,2,0,P|300:254|302:291,1,53.9999983520508,8|0,3:2|0:0,0:0:0:0:
404,207,55162,53,8,0:0:0:0:
461,190,55241,1,0,1:2:0:0:
477,149,55320,1,8,3:2:0:0:
470,119,55399,1,8,1:2:0:0:
452,111,55478,1,8,0:0:0:0:
436,114,55557,1,8,1:2:0:0:
426,123,55636,2,0,B|438:138|438:148|438:148|451:123|419:99,1,67.5000025749208,8|0,0:0|0:0,0:0:0:0:
471,25,55794,22,0,B|448:29|423:20|423:20|322:71|322:71|300:60|260:71,1,215.999993408203,6|0,3:2|3:2,0:0:0:0:
279,217,56267,2,0,B|308:155|308:155|268:135,1,90,10|2,0:0|0:0,0:0:0:0:
209,129,56504,1,0,0:0:0:0:
209,129,56583,2,0,L|217:168,1,33.7500012874604,2|0,3:2|0:0,0:0:0:0:
248,298,56741,1,2,3:2:0:0:
79,228,56899,53,10,0:0:0:0:
79,228,56978,1,2,0:0:0:0:
79,228,57057,2,0,B|157:211|157:211|171:227|193:235,1,107.999996704102,2|0,0:0|3:2,0:0:0:0:
202,381,57373,1,2,0:0:0:0:
279,217,57531,1,10,0:0:0:0:
202,381,57688,1,2,0:0:0:0:
0,325,57846,2,0,L|46:315,1,33.7500012874604,2|0,3:2|0:0,0:0:0:0:
107,303,58004,2,0,L|153:293,1,33.7500012874604,2|0,3:2|0:0,0:0:0:0:
85,381,58162,1,8,0:0:0:0:
19,247,58320,54,0,B|52:239|52:239|159:324|159:324|203:315,1,215.999993408203,6|0,3:2|3:2,0:0:0:0:
367,198,58794,2,0,B|356:173|356:173|326:164|326:164|345:177|351:198,1,90,10|2,0:0|0:0,0:0:0:0:
347,333,59110,1,2,3:2:0:0:
503,279,59267,1,2,3:2:0:0:
446,378,59425,1,10,0:0:0:0:
279,217,59583,22,0,L|388:193,1,90,2|0,0:2|3:2,0:0:0:0:
248,127,59899,1,2,0:0:0:0:
203,315,60057,1,8,0:0:0:0:
158,188,60215,2,0,L|204:197,1,33.7500012874604,2|0,0:0|0:0,0:0:0:0:
109,266,60373,2,0,L|75:258,1,33.7500012874604,2|0,3:2|0:0,0:0:0:0:
121,361,60531,1,2,3:2:0:0:
75,176,60688,2,0,L|83:136,1,33.7500012874604,8|0,0:0|0:0,0:0:0:0:
75,54,60846,54,0,B|26:43|26:43|-3:181,1,180,4|0,3:2|3:2,0:0:0:0:
149,95,61320,2,0,B|164:81|165:62|165:62|199:39|240:72,1,90,8|0,0:0|0:0,0:0:0:0:
396,142,61636,2,0,B|375:127|375:127|367:103,1,45,2|0,3:2|0:0,0:0:0:0:
440,71,61794,1,2,3:2:0:0:
270,129,61952,2,0,B|272:103|272:103|289:84,1,45,8|0,0:0|0:0,0:0:0:0:
382,6,62110,54,0,B|398:38|398:38|344:136|344:136|357:172,1,180,6|2,3:2|3:2,0:0:0:0:
301,11,62583,1,8,0:0:0:0:
480,147,62741,2,0,B|492:176|492:176|458:239,1,90,2|0,0:2|3:2,0:0:0:0:
347,369,63057,2,0,B|374:354|374:354|400:361,1,53.9999983520508,2|0,3:2|0:0,0:0:0:0:
498,378,63215,1,8,0:0:0:0:
401,276,63373,22,0,B|361:264|361:264|246:340|246:340|193:323,1,215.999993408203,6|0,3:2|3:2,0:0:0:0:
11,284,63846,2,0,B|24:345|24:345|7:360|0:372,1,90,8|0,0:0|0:0,0:0:0:0:
239,259,64162,2,0,L|207:251,1,33.7500012874604,2|0,3:2|0:0,0:0:0:0:
71,215,64320,1,2,3:2:0:0:
115,380,64478,1,8,0:0:0:0:
287,240,64636,54,0,L|134:278,1,135,2|0,0:0|0:0,0:0:0:0:
87,293,64952,1,2,3:2:0:0:
239,259,65110,2,0,L|207:251,1,33.7500012874604,10|0,0:0|0:0,0:0:0:0:
71,215,65267,53,0,3:2:0:0:
148,171,65373,22,0,L|154:202,2,22.5000008583069,0|4|8,3:2|0:3|0:3,0:0:0:0:
73,128,65583,54,0,L|81:84,1,45.0000017166138,0|0,3:2|3:2,0:0:0:0:
67,70,65741,54,0,L|58:109,1,33.7500012874604,8|0,0:0|0:0,0:0:0:0:
183,96,65899,22,0,B|202:103|218:121|218:121|319:99|319:99|336:120|366:124,1,180,6|0,3:2|3:2,0:0:0:0:
148,171,66373,1,0,3:2:0:0:
148,171,66688,54,2,B|202:137|199:65|199:65|224:150|296:178|296:178|268:152|273:108,1,337.500012874604,8|0,0:0|0:0,0:1:0:0:
345,118,67162,54,0,L|305:305,1,180,4|0,3:2|0:0,0:0:0:0:
236,249,67636,1,0,3:2:0:0:
408,203,67794,1,0,3:2:0:0:
461,360,67952,22,2,B|474:386|513:379|513:379|484:302|381:336|340:362|340:362|379:339|383:300,1,337.500012874604,8|0,0:0|0:0,0:1:0:0:
307,294,68425,54,0,B|270:296|236:249|236:249|269:297|252:337,1,180,4|0,3:2|0:0,0:0:0:0:
312,212,68899,1,0,3:2:0:0:
312,212,68978,1,0,0:0:0:0:
312,212,69057,1,0,3:2:0:0:
166,316,69215,54,2,B|149:338|152:374|152:374|113:336|134:291|138:293|154:228|107:180|38:200|38:200|91:210|102:256,1,382.500007295609,8|0,0:0|0:0,0:1:0:0:
168,203,69688,22,0,B|118:186|92:231|92:231|77:282|28:277,1,175.499991966248,6|0,3:2|0:0,0:0:0:0:
96,238,70004,2,0,P|71:212|38:206,1,45,8|0,0:0|0:0,0:0:0:0:
44,135,70162,2,0,P|25:140|7:153,1,33.7500012874604,0|0,3:2|0:0,0:0:0:0:
89,62,70320,53,0,3:2:0:0:
89,62,70399,1,0,3:2:0:0:
89,62,70478,2,0,B|108:71|119:86|119:86|165:72|166:11,1,116.999994644165,8|0,0:0|0:0,0:0:0:0:
232,77,70715,54,0,B|230:56|237:39|237:39|202:6|149:35,1,116.999994644165,8|0,0:0|0:0,0:0:0:0:
44,135,70952,22,0,L|82:314,1,180,6|0,3:2|0:0,0:0:0:0:
168,203,71425,1,0,3:2:0:0:
89,319,71583,1,2,3:3:0:0:
89,319,71662,1,2,0:3:0:0:
89,319,71741,54,2,B|45:327|33:371|33:371|35:284|127:267|182:283|182:283|195:342|268:349,1,382.500007295609,8|0,0:0|0:0,0:1:0:0:
346,380,72215,54,0,P|415:323|517:305,1,180,6|0,3:2|0:0,0:0:0:0:
501,304,72688,2,0,P|483:294|470:277,1,33.7500012874604,0|0,3:2|0:0,0:0:0:0:
392,247,72846,2,0,P|391:226|399:206,1,33.7500012874604,0|0,3:2|0:0,0:0:0:0:
498,153,73004,21,0,3:2:0:0:
453,151,73110,53,0,3:2:0:0:
425,113,73215,53,0,3:2:0:0:
435,66,73320,22,0,L|481:56,1,33.7500012874604,8|0,3:2|0:0,0:0:0:0:
512,63,73478,54,0,B|471:76|471:76|377:26|377:26|338:38,1,180,4|0,3:2|0:0,0:0:0:0:
300,126,73952,1,0,3:2:0:0:
258,0,74110,1,0,3:2:0:0:
139,121,74267,54,2,B|111:145|64:140|45:100|45:100|67:25|142:21|216:71|216:71|185:52|180:22,1,382.500007295609,8|0,0:0|0:0,0:1:0:0:
258,0,74741,22,0,L|221:172,1,161.999995056153,6|0,3:2|0:0,0:0:0:0:
291,206,75057,2,0,L|299:166,1,33.7500012874604,8|0,0:0|0:0,0:0:0:0:
195,268,75215,2,0,L|213:232,1,33.7500012874604,8|0,0:0|0:0,0:0:0:0:
41,327,75373,53,0,3:2:0:0:
41,327,75452,1,0,3:2:0:0:
41,327,75531,2,0,B|69:278|120:292|120:292|129:313|145:322,1,116.999994644165,8|0,0:0|0:0,0:0:0:0:
191,382,75767,54,0,B|134:382|121:331|121:331|134:312|134:294,1,116.999994644165,8|0,0:0|0:0,0:0:0:0:
291,206,76004,22,0,B|306:210|327:205|327:205|435:305|435:305|455:297|475:305,1,215.999993408203,6|2,3:2|3:2,0:0:0:0:
301,284,76478,2,0,L|261:292,1,33.7500012874604,8|0,0:0|0:0,0:0:0:0:
460,221,76636,1,2,0:0:0:0:
297,128,76794,1,2,3:2:0:0:
466,46,76952,2,0,B|461:57|461:57|427:69|427:69|391:56,1,67.5000025749208,2|0,3:2|0:0,0:0:0:0:
343,9,77110,1,8,0:0:0:0:
485,28,77267,54,0,B|456:23|456:23|374:93|374:93|381:127,1,161.999995056153,2|0,3:2|0:0,0:0:0:0:
297,128,77583,2,0,L|288:88,1,33.7500012874604,0|0,3:2|0:0,0:0:0:0:
458,130,77741,1,8,0:0:0:0:
301,284,77899,1,2,0:3:0:0:
459,335,78057,2,0,L|468:288,1,33.7500012874604,2|0,3:2|0:0,0:0:0:0:
377,230,78215,2,0,L|386:276,1,33.7500012874604,2|0,3:2|0:0,0:0:0:0:
460,221,78373,1,8,0:0:0:0:
250,345,78531,54,0,B|226:329|221:304|221:304|53:269,1,215.999993408203,2|2,3:2|3:2,0:0:0:0:
160,373,79004,1,10,0:0:0:0:
301,284,79162,2,0,B|332:279|360:254|360:254|335:284|335:314,1,107.999996704102,2|0,0:0|3:2,0:0:0:0:
74,356,79478,1,2,3:2:0:0:
241,227,79636,1,10,0:0:0:0:
123,195,79794,22,0,L|146:305,1,90,2|0,3:2|0:0,0:0:0:0:
223,140,80110,1,2,3:2:0:0:
60,270,80267,2,0,L|50:223,1,45,8|0,0:0|0:0,0:0:0:0:
8,133,80425,1,0,3:2:0:0:
8,133,80504,1,0,3:2:0:0:
8,133,80583,2,0,B|52:142|52:142|87:124,1,67.5000025749208,8|0,0:0|0:0,0:0:0:0:
42,42,80741,1,0,3:2:0:0:
42,42,80820,1,0,3:2:0:0:
42,42,80899,2,0,L|2:33,1,33.7500012874604,8|0,0:0|0:0,0:0:0:0:
144,60,81057,37,6,3:2:0:0:
144,60,81373,5,0,3:2:0:0:
123,195,81531,1,8,0:0:0:0:
299,114,81688,1,0,3:2:0:0:
298,100,81767,1,0,3:2:0:0:
288,93,81846,1,0,3:2:0:0:
223,140,82004,1,0,3:2:0:0:
435,187,82162,1,8,0:0:0:0:
468,99,82320,54,0,B|440:90|440:90|372:105,1,90,2|0,0:3|3:2,0:0:0:0:
386,96,82557,1,2,0:3:0:0:
392,88,82636,1,0,3:2:0:0:
225,12,82794,1,8,0:0:0:0:
287,197,82952,1,0,3:2:0:0:
294,67,83110,2,0,L|308:113,1,33.7500012874604,0|0,3:2|0:0,0:0:0:0:
222,131,83267,2,0,L|208:85,1,33.7500012874604,0|0,3:2|0:0,0:0:0:0:
35,36,83425,6,0,B|27:58|27:58|43:99,1,67.5000025749208,8|0,0:0|0:0,0:0:0:0:
164,202,83583,1,0,0:0:0:0:
121,91,83741,54,0,B|131:115|131:115|80:188|80:188|93:226,1,135.000005149842,4|2,3:2|3:2,0:0:0:0:
227,265,84057,1,10,0:0:0:0:
3,214,84215,1,2,0:0:0:0:
3,214,84294,1,2,0:3:0:0:
3,214,84373,2,0,L|26:275,1,45,2|0,3:2|0:0,0:0:0:0:
149,326,84531,2,0,B|82:298|82:298|70:317|47:326,1,107.999996704102,2|8,3:2|0:0,0:0:0:0:
238,379,84846,2,0,L|284:369,1,45,6|0,0:0|0:0,0:0:0:0:
479,330,85004,5,8,0:0:0:0:
373,384,85162,1,2,3:2:0:0:
373,384,85241,1,0,3:2:0:0:
373,384,85320,2,0,L|356:310,1,67.5000025749208,8|0,0:0|0:0,0:0:0:0:
382,146,85478,1,0,3:2:0:0:
382,146,85557,1,0,3:2:0:0:
382,146,85636,2,0,B|416:150|416:150|458:196,1,90,8|0,0:0|0:0,0:0:0:0:
453,191,85794,54,0,B|425:193|425:193|392:157,1,67.5,8|0,0:0|0:0,0:0:0:0:
512,100,86110,22,0,B|434:112|434:112|380:203|380:203|288:220,1,270.000010299683,6|0,3:2|3:2,0:0:0:0:
55,289,86583,2,0,P|88:270|102:231,1,67.5000025749208,10|0,0:0|0:0,0:0:0:0:
52,83,86741,1,2,0:3:0:0:
55,289,86899,2,0,B|-3:224|43:163|43:163|90:164|112:127,1,202.500007724762,2|0,3:2|0:0,0:0:0:0:
99,64,87215,2,0,B|64:54|46:20|46:20|64:54|49:91,1,135.000005149842,10|0,0:0|0:0,0:0:0:0:
186,192,87531,37,2,3:2:0:0:
414,71,87688,2,0,B|409:37|376:25|376:25|399:46|400:70,1,107.999996704102,2|8,0:0|0:0,0:0:0:0:
296,218,88004,2,0,B|322:218|340:235|340:235|402:207|402:207|416:146|475:152,1,202.500007724762,2|0,0:0|0:0,0:0:0:0:
336,148,88320,2,0,B|303:126|303:126|285:134|263:137,1,67.5000025749208,2|0,3:2|0:0,0:0:0:0:
284,295,88478,1,8,0:0:0:0:
479,228,88636,6,0,B|425:241|425:241|291:148|291:148|221:173,1,270.000010299683,4|0,3:2|3:2,0:0:0:0:
18,299,89110,2,0,B|37:284|37:284|62:285|85:317,1,67.5000025749208,10|0,0:0|0:0,0:0:0:0:
220,357,89267,1,2,0:0:0:0:
51,378,89425,2,0,B|104:393|143:347|143:347|149:285|206:278,1,202.500007724762,2|0,3:2|0:0,0:0:0:0:
284,295,89741,2,0,B|290:249|257:224|257:224|283:251|281:290,1,135.000005149842,8|0,0:0|0:0,0:0:0:0:
373,374,90057,5,2,3:2:0:0:
183,205,90215,2,0,B|158:183|158:151|158:151|170:175|194:190,1,107.999996704102,2|8,0:0|0:0,0:0:0:0:
0,210,90531,38,0,B|-9:193|-9:193|6:152,1,62.9999980773926,2|0,0:0|0:0,0:0:0:0:
83,163,90688,2,0,L|73:189,1,22.5,2|0,3:2|0:0,0:0:0:0:
89,62,90846,2,0,B|105:22|105:22|96:5,1,62.9999980773926,2|0,3:2|0:0,0:0:0:0:
13,57,91004,1,8,0:0:0:0:
187,45,91162,2,0,L|257:30,1,67.5000025749208,4|0,3:2|0:0,0:0:0:0:
360,88,91320,6,0,L|229:117,1,135.000005149842,2|0,0:0|3:2,0:0:0:0:
464,230,91636,2,0,B|430:233|430:233|406:199,1,67.5000025749208,10|0,0:0|0:0,0:0:0:0:
469,140,91794,1,0,0:0:0:0:
512,315,91952,1,2,3:2:0:0:
321,265,92110,6,0,L|373:277,1,45,2|8,0:0|0:0,0:0:0:0:
233,304,92425,38,0,L|366:275,1,135.000005149842,2|0,0:0|3:2,0:0:0:0:
89,341,92741,2,0,B|137:330|137:330|146:316|158:304,1,76.5000014591217,2|0,0:0|0:0,0:0:0:0:
235,216,92899,1,8,0:0:0:0:
53,285,93057,2,0,B|153:306|153:306|151:338|179:363,1,153.000002918243,2|2,0:0|3:3,0:0:0:0:
77,182,93373,6,0,L|69:148,1,33.7500012874604,2|0,3:3|0:0,0:0:0:0:
150,63,93531,2,0,L|141:102,1,33.7500012874604,8|0,0:0|0:0,0:0:0:0:
229,55,93689,2,0,L|222:89,1,33.7500012874604,4|0,3:2|0:0,0:0:0:0:
338,192,93846,6,0,B|358:198|369:212|369:212|511:182,1,153.000002918243,2|0,3:2|3:2,0:0:0:0:
457,115,94083,1,0,0:0:0:0:
457,115,94162,2,0,L|402:126,1,53.9999983520508,8|0,0:0|0:0,0:0:0:0:
262,235,94320,2,0,B|276:263|265:297|265:297|284:266|325:258,1,116.999994644165,2|0,0:0|3:2,0:0:0:0:
322,103,94636,1,2,3:2:0:0:
402,354,94794,1,8,0:0:0:0:
187,265,94952,37,2,3:2:0:0:
187,265,95031,1,0,3:2:0:0:
187,265,95110,2,0,L|124:251,1,58.4999973220826,8|0,0:0|0:0,0:0:0:0:
47,171,95267,1,2,3:2:0:0:
52,183,95346,1,0,3:2:0:0:
57,195,95425,2,0,L|-5:208,1,58.4999973220826,8|0,0:0|0:0,0:0:0:0:
199,149,95583,6,0,P|166:151|137:173,1,58.4999973220826,2|0,3:2|3:2,0:0:0:0:
337,281,95741,2,0,P|304:278|275:256,1,58.4999973220826,8|0,0:0|0:0,0:0:0:0:
483,172,95899,1,2,3:2:0:0:
480,154,95978,1,0,3:2:0:0:
473,143,96057,2,0,P|440:145|411:167,1,58.4999973220826,10|0,0:0|0:0,0:0:0:0:
294,364,96215,6,0,L|356:81,1,270.000010299683,6|0,3:2|3:2,0:0:0:0:
177,36,96688,2,0,B|168:69|168:69|196:88,1,67.5000025749208,10|0,0:0|0:0,0:0:0:0:
264,38,96846,1,2,0:0:0:0:
66,81,97004,2,0,L|277:36,1,202.500007724762,2|0,3:2|0:0,0:0:0:0:
226,88,97320,2,0,B|191:87|191:87|140:35|140:35|98:40,1,135.000005149842,10|2,0:0|0:3,0:0:0:0:
343,22,97636,37,2,3:2:0:0:
477,98,97794,2,0,B|458:105|444:120|444:120|326:94,1,135.000005149842,2|8,0:0|0:0,0:0:0:0:
8,2,98110,2,0,B|-7:54|31:105|91:85|91:85|92:50|121:30,1,202.500007724762,2|0,0:0|0:0,0:0:0:0:
97,23,98425,2,0,P|73:52|65:92,1,67.5000025749208,2|0,3:2|0:0,0:0:0:0:
103,266,98583,2,0,B|184:135|184:135|168:109|167:82,1,202.500007724762,10|0,0:0|0:0,0:0:0:0:
21,181,98899,6,0,L|60:173,1,33.7500012874604,4|0,3:2|0:0,0:0:0:0:
56,156,99057,2,0,L|23:162,1,33.7500012874604
103,266,99215,2,0,P|136:262|169:239,1,67.5000025749208,10|0,0:0|0:0,0:0:0:0:
250,89,99373,1,0,0:0:0:0:
103,266,99531,2,0,B|118:181|199:157|199:157|222:177|257:172,1,202.500007724762,2|0,3:2|0:0,0:0:0:0:
322,135,99846,2,0,B|340:169|324:213|324:213|300:230|291:252,1,107.999996704102,8|0,0:0|0:0,0:0:0:0:
167,89,100162,5,2,3:2:0:0:
79,372,100320,2,0,B|39:358|30:313|30:313|54:343|81:347,1,135.000005149842,2|8,0:0|0:0,0:0:0:0:
308,313,100636,2,0,B|265:293|265:293|234:304,1,67.5000025749208,2|0,0:0|0:0,0:0:0:0:
103,266,100794,1,2,3:2:0:0:
194,363,100952,2,0,B|237:383|237:383|268:372,1,67.5000025749208,2|0,3:2|0:0,0:0:0:0:
349,312,101110,2,0,L|129:358,1,202.500007724762,10|0,0:0|0:0,0:0:0:0:
325,231,101425,38,0,B|347:205|386:205|413:246|412:248|410:252|419:285|448:315|489:304|506:270,1,202.500007724762,6|0,3:2|0:0,0:0:0:0:
490,289,101741,2,0,B|434:293|431:346|431:346|448:313|483:312,1,135.000005149842,10|0,0:0|0:0,0:0:0:0:
458,190,102057,2,0,P|432:162|376:151,1,67.5000025749208,2|0,3:2|0:0,0:0:0:0:
267,145,102215,2,0,P|319:120|332:60,1,107.999996704102,2|8,3:2|0:0,0:0:0:0:
404,38,102452,1,2,0:0:0:0:
404,38,102531,2,0,P|421:70|458:81,1,67.5000025749208,2|0,3:2|0:0,0:0:0:0:
475,0,102688,5,0,3:2:0:0:
405,152,102846,2,0,B|419:185|399:217|399:217|421:189|457:189,1,135.000005149842,2|8,0:0|0:0,0:0:0:0:
332,0,103162,1,2,0:0:0:0:
125,121,103320,1,0,3:2:0:0:
254,68,103478,2,0,L|191:54,1,53.9999983520508,0|0,3:2|0:0,0:0:0:0:
38,26,103636,1,8,0:0:0:0:
203,70,103794,2,0,L|265:56,1,53.9999983520508,4|0,3:2|0:0,0:0:0:0:
475,0,103952,5,2,0:0:0:0:
331,177,104110,1,2,3:2:0:0:
510,129,104267,2,0,L|498:74,1,53.9999983520508,8|0,0:0|0:0,0:0:0:0:
404,38,104425,2,0,L|435:186,1,135.000005149842,2|0,0:0|3:2,0:0:0:0:
474,381,104741,2,0,B|505:347|505:347|497:309,1,67.5000025749208,2|0,3:2|0:0,0:0:0:0:
383,240,104899,1,10,0:0:0:0:
301,375,105057,37,2,3:2:0:0:
310,377,105136,1,0,3:2:0:0:
318,379,105215,2,0,L|388:364,1,67.5000025749208,8|0,0:0|0:0,0:0:0:0:
220,228,105373,1,0,3:2:0:0:
229,233,105452,1,0,3:2:0:0:
238,237,105531,2,0,B|267:253|267:253|285:300,1,67.5000025749208,10|0,0:0|0:0,0:0:0:0:
197,377,105688,2,0,B|187:345|187:345|208:299,1,67.5000025749208,2|0,1:2|1:2,0:0:0:0:
322,195,105846,5,0,3:2:0:0:
363,145,105925,1,0,1:2:0:0:
343,87,106004,1,0,1:2:0:0:
290,68,106083,1,0,1:2:0:0:
246,66,106162,1,0,3:2:0:0:
231,43,106241,1,0,3:2:0:0:
235,29,106320,6,0,P|241:14|257:2,2,30,4|0|0,3:1|3:2|3:2,0:0:0:0:
112,96,106478,38,0,B|98:98|88:103|88:103|23:85|23:85|5:69|16:37|44:35,1,153.000002918243,6|2,3:2|0:0,0:0:0:0:
200,146,106794,2,0,B|207:162|207:162|197:211,1,67.5000025749208,10|0,0:0|0:0,0:0:0:0:
97,307,106952,2,0,L|125:173,1,135.000005149842,2|8,3:2|0:0,0:0:0:0:
0,320,107267,1,0,3:2:0:0:
26,219,107425,2,0,L|34:258,1,33.7500012874604,8|0,0:0|0:0,0:0:0:0:
52,127,107583,6,0,L|58:158,2,22.5000008583069,2|0|0,3:2|3:2|3:2,0:0:0:0:
35,36,107741,6,0,L|-4:27,1,33.7500012874604,10|0,0:0|0:0,0:0:0:0:
130,97,107899,2,0,L|121:57,1,33.7500012874604,0|0,3:2|0:0,0:0:0:0:
198,18,108057,2,0,L|232:26,1,33.7500012874604,10|0,0:0|0:0,0:0:0:0:
313,122,108215,2,0,L|203:98,1,107.999996704102,0|8,3:2|0:0,0:0:0:0:
372,16,108531,2,0,B|325:25|325:25|308:50,1,67.5000025749208,2|0,3:1|0:0,0:0:0:0:
258,197,108688,1,8,0:0:0:0:
389,120,108846,38,0,L|384:96,2,22.5000008583069,0|0|0,3:2|3:2|3:2,0:0:0:0:
462,110,109004,6,0,B|476:152|476:152|386:225|386:225|399:270,1,202.500007724762,10|0,3:1|0:0,0:0:0:0:
472,254,109320,2,0,L|487:308,1,53.9999983520508,8|0,0:0|0:0,0:0:0:0:
361,211,109478,2,0,L|397:329,1,107.999996704102,2|8,3:2|0:0,0:0:0:0:
265,204,109794,1,2,3:2:0:0:
265,204,109873,1,0,0:0:0:0:
265,204,109952,2,0,L|276:149,1,53.9999983520508,10|0,0:0|0:0,0:0:0:0:
207,98,110110,2,0,L|195:152,1,53.9999983520508,2|0,3:2|0:0,0:0:0:0:
145,366,110267,5,8,3:2:0:0:
71,342,110346,1,8,1:0:0:0:
57,289,110425,1,10,0:0:0:0:
81,252,110504,1,8,1:2:0:0:
115,242,110583,1,8,3:2:0:0:
134,248,110662,1,0,1:2:0:0:
140,261,110741,1,0,1:2:0:0:
139,272,110820,1,0,1:2:0:0:
134,282,110899,38,0,P|119:256|122:216,1,53.9999983520508,0|0,3:2|1:2,0:0:0:0:
195,150,111057,2,0,P|210:124|207:84,1,53.9999983520508,8|0,0:0|1:2,0:0:0:0:
107,13,111215,1,2,3:1:0:0:
105,31,111294,1,0,3:2:0:0:
111,43,111373,1,0,3:2:0:0:
123,49,111452,1,0,3:2:0:0:
131,49,111531,6,0,B|47:66|47:66|42:90|23:111,1,107.999996704102,4|2,3:2|0:0,0:0:0:0:
215,12,111846,1,10,0:0:0:0:
117,232,112004,2,0,B|80:207|87:166|87:166|110:146|118:121,2,107.999996704102,2|0|0,0:0|3:2|0:0,0:0:0:0:
195,150,112478,1,10,0:0:0:0:
22,264,112636,1,2,0:0:0:0:
212,277,112794,5,2,3:2:0:0:
117,232,112952,1,2,0:0:0:0:
244,364,113110,1,8,0:0:0:0:
339,319,113267,2,0,L|316:211,1,107.999996704102,2|0,0:0|3:2,0:0:0:0:
420,333,113583,2,0,B|419:367|419:367|384:389,1,67.5000025749208,2|0,0:1|0:0,0:0:0:0:
212,277,113741,1,8,0:0:0:0:
398,207,113899,2,0,L|407:251,1,45,2|0,0:1|0:0,0:0:0:0:
319,342,114057,38,0,B|311:306|311:306|376:235|376:235|369:191,1,161.999995056153,2|0,3:1|0:0,0:0:0:0:
354,134,114373,1,8,0:0:0:0:
160,342,114531,2,0,B|149:330|138:310|138:310|60:293,1,107.999996704102,2|0,0:0|3:2,0:0:0:0:
212,277,114846,2,0,L|266:265,1,53.9999983520508,2|0,0:0|3:2,0:0:0:0:
83,379,115004,1,10,0:0:0:0:
117,225,115162,2,0,L|62:213,1,53.9999983520508,2|0,0:0|3:2,0:0:0:0:
244,364,115320,1,8,3:2:0:0:
304,196,115478,5,2,3:2:0:0:
288,188,115557,1,0,3:2:0:0:
274,182,115636,2,0,L|198:196,1,76.5000014591217,8|0,0:0|0:0,0:0:0:0:
456,269,115794,1,0,3:2:0:0:
440,277,115873,1,0,3:2:0:0:
426,283,115952,2,0,L|350:269,1,76.5000014591217,8|0,0:2|0:0,0:0:0:0:
117,225,116110,6,0,L|62:213,1,53.9999983520508,2|0,3:2|0:0,0:0:0:0:
134,142,116267,1,0,0:0:0:0:
273,219,116425,38,0,B|226:209|226:209|114:258|114:258|62:247,1,215.999993408203,6|0,3:2|3:2,0:0:0:0:
244,364,116899,5,10,3:2:0:0:
244,364,117215,1,2,3:2:0:0:
244,364,117531,1,10,3:2:0:0:
244,364,117846,1,2,3:2:0:0:
244,364,118162,1,10,3:2:0:0:
244,364,118478,1,2,3:2:0:0:
324,350,118636,54,0,B|331:328|331:328|291:278,1,67.5000025749208,2|0,1:2|0:0,0:0:0:0:
226,208,118794,1,0,3:2:0:0:
244,364,118952,2,0,B|230:319|230:319|316:243|316:243|302:177,1,215.999993408203,6|2,3:2|3:2,0:0:0:0:
272,19,119425,5,10,3:2:0:0:
467,134,119741,1,2,3:2:0:0:
272,19,120057,1,10,3:2:0:0:
467,134,120373,1,2,3:2:0:0:
272,19,120688,1,10,3:2:0:0:
467,134,121004,1,2,3:2:0:0:
401,89,121162,54,0,B|418:62|418:62|467:52,1,67.5000025749208,2|0,1:2|0:0,0:0:0:0:
512,204,121320,1,8,0:0:0:0:
348,180,121478,2,0,B|449:161|449:161|466:134,1,135.000005149842,4|0,3:2|0:0,0:0:0:0:
324,107,121715,1,0,1:2:0:0:
324,107,121794,2,0,L|269:95,1,45,8|0,0:0|0:0,0:0:0:0:
96,60,121952,6,0,L|104:20,1,22.5,0|0,1:0|0:0,0:0:0:0:
172,74,122110,2,0,L|180:34,1,22.5,8|0,0:3|0:0,0:0:0:0:
21,132,122267,1,4,0:3:0:0:
118,207,122425,1,2,0:0:0:0:
118,207,122504,1,0,1:0:0:0:
118,207,122583,2,0,B|80:189|80:189|67:202|51:206,1,67.5000025749208,8|0,0:0|0:0,0:0:0:0:
21,132,122741,54,0,B|3:112|3:112|23:18,1,107.999996704102,2|0,3:2|0:0,0:0:0:0:
100,37,122978,1,0,1:1:0:0:
100,37,123057,2,0,L|96:60,1,22.5,8|0,0:0|0:0,0:0:0:0:
50,281,123215,6,0,L|29:392,1,90,8|0,0:3|0:0,0:0:0:0:
95,332,123452,1,8,0:0:0:0:
167,321,123531,53,8,0:0:0:0:
223,352,123610,1,8,0:0:0:0:
265,381,123688,1,8,0:0:0:0:
308,379,123767,1,8,0:0:0:0:
335,352,123846,1,8,0:3:0:0:
337,324,123925,1,4,0:3:0:0:
321,312,124004,1,8,3:3:0:0:
306,315,124083,1,4,3:3:0:0:
301,327,124162,1,6,3:2:0:0:
301,327,124478,6,0,P|331:320|361:320,2,53.9999983520508,4|0|4,0:0|0:0|0:0,0:0:0:0:
118,207,125425,54,0,B|80:189|80:189|67:202|51:206,1,67.5000025749208,8|0,0:0|0:0,0:0:0:0:
220,254,125583,1,0,3:2:0:0:
224,266,125662,1,0,3:2:0:0:
228,277,125741,2,0,B|193:300|193:300|178:289|161:288,1,67.5000025749208,8|0,0:0|0:0,0:0:0:0:
313,192,125899,1,0,3:2:0:0:
325,177,125978,1,0,3:2:0:0:
335,162,126057,2,0,B|301:136|301:136|286:146|269:147,1,67.5000025749208,8|0,0:0|0:0,0:0:0:0:
413,274,126215,6,0,B|454:268|454:268|458:250|469:238,1,67.5,8|0,1:0|0:0,0:0:0:0:
429,170,126531,54,0,B|405:214|405:214|497:289|497:289|473:342,1,215.999993408203,4|0,3:2|3:2,0:0:0:0:
298,376,127004,2,0,P|342:360|391:352,1,90,10|2,0:0|0:0,0:0:0:0:
228,277,127320,1,2,3:2:0:0:
334,283,127478,2,0,B|334:247|301:235|301:235|312:251|311:268,1,90,2|8,0:0|0:0,0:0:0:0:
124,384,127794,6,0,P|168:368|217:360,1,90,2|0,0:0|3:2,0:0:0:0:
41,313,128110,1,2,3:2:0:0:
140,179,128267,2,0,B|170:190|171:220|171:220|147:244|147:274,1,90,8|2,0:0|0:0,0:0:0:0:
282,314,128583,1,0,3:2:0:0:
228,277,128741,2,0,P|259:292|285:318,1,67.5000025749208,0|8,3:2|0:0,0:0:0:0:
466,368,129057,2,0,B|492:362|492:362|489:346,1,33.7500012874604,6|0,3:2|0:0,0:0:0:0:
487,318,129215,6,0,L|377:341,1,90,0|2,0:0|3:2,0:0:0:0:
343,221,129531,2,0,L|389:230,1,45,8|0,0:0|0:0,0:0:0:0:
479,244,129688,1,0,0:0:0:0:
384,219,129846,2,0,L|337:228,1,45,2|0,3:2|0:0,0:0:0:0:
228,277,130004,2,0,B|234:262|249:254|249:254|258:219|220:203,1,90,2|8,3:2|0:0,0:0:0:0:
189,145,130241,37,2,0:0:0:0:
189,145,130320,2,0,L|314:171,1,90,2|0,0:0|3:2,0:0:0:0:
80,248,130636,2,0,B|24:257|24:257|15:278|-2:293,1,90,2|8,0:0|0:0,0:0:0:0:
158,239,130952,1,2,0:0:0:0:
38,357,131110,2,0,P|56:344|70:326,1,45,2|0,3:2|0:0,0:0:0:0:
22,181,131267,1,2,3:2:0:0:
70,355,131425,2,0,P|56:337|38:325,1,45,8|0,0:0|0:0,0:0:0:0:
202,384,131583,6,0,B|219:364|225:344|225:344|371:313,1,180,6|0,3:2|3:2,0:0:0:0:
149,327,132057,1,8,0:0:0:0:
452,365,132373,6,0,L|506:376,1,45,2|0,3:2|0:0,0:0:0:0:
443,264,132531,1,2,3:2:0:0:
355,316,132689,2,0,L|366:370,1,45,8|0,0:0|0:0,0:0:0:0:
254,317,132846,38,0,B|242:258|294:229|294:229|350:238|367:193,1,180,6|0,3:2|3:2,0:0:0:0:
245,37,133320,1,8,0:0:0:0:
304,155,133478,2,0,B|303:125|272:110|272:110|249:117|230:109,1,90,2|0,0:0|3:2,0:0:0:0:
383,131,133794,2,0,P|401:115|432:107,1,45,2|0,3:2|0:0,0:0:0:0:
511,126,133952,1,8,0:0:0:0:
383,22,134110,6,0,P|426:98|521:125,1,180,6|0,3:2|3:2,0:0:0:0:
245,37,134583,2,0,B|211:-1|151:12|151:12|154:37|143:52,1,135,8|0,0:0|0:0,0:0:0:0:
240,112,134899,2,0,P|260:114|289:99,1,33.7500012874604,2|0,3:2|0:0,0:0:0:0:
144,153,135057,2,0,P|152:171|179:188,1,33.7500012874604,2|0,3:2|0:0,0:0:0:0:
77,25,135215,1,8,0:0:0:0:
35,182,135373,6,0,B|28:124|77:107|77:107|57:135|66:175,1,161.999995056153,2|0,0:0|0:0,0:0:0:0:
144,153,135688,1,2,0:0:0:0:
12,291,135846,1,10,0:0:0:0:
144,273,136004,1,2,3:2:0:0:
144,260,136083,1,0,3:2:0:0:
138,251,136162,2,0,B|107:232|107:232|92:243|75:246,1,53.9999983520508,10|0,0:0|0:0,0:0:0:0:
24,374,136320,1,2,3:2:0:0:
35,380,136399,1,0,3:2:0:0:
46,379,136478,2,0,B|77:361|77:361|75:343|81:326,1,53.9999983520508,10|0,0:0|0:0,0:0:0:0:
219,235,136636,38,0,B|361:265|361:265|364:289|394:310,1,180,4|0,3:2|0:0,0:0:0:0:
275,358,137110,2,0,L|271:336,1,22.5,0|0,3:2|0:0,0:0:0:0:
192,311,137267,2,0,L|196:333,1,22.5,0|0,3:2|0:0,0:0:0:0:
347,365,137425,6,2,B|366:235|509:201|509:201|449:218|427:270,1,337.500012874604,8|0,0:0|0:0,0:1:0:0:
443,327,137899,6,0,B|440:250|363:230|363:230|405:258|408:292,1,202.500007724762,4|0,3:2|0:0,0:0:0:0:
493,384,138215,2,0,P|505:371|512:357,2,26.9999991760254,0|0|0,0:0|3:2|3:2,0:0:0:0:
347,365,138688,2,0,P|321:361|296:347,1,45,8|0,0:0|0:0,0:0:0:0:
192,311,138846,38,0,B|200:272|200:272|324:218|324:218|330:188,1,202.500007724762,8|0,0:0|0:0,0:0:0:0:
270,123,139162,6,0,L|231:302,1,180,4|0,3:2|0:0,0:0:0:0:
358,111,139636,1,0,0:0:0:0:
177,189,139794,2,0,L|185:156,1,33.7500012874604,0|0,3:2|0:0,0:0:0:0:
67,91,139952,6,2,B|32:81|11:34|11:34|0:108|54:137|112:131|112:131|122:98|151:77|193:82,1,337.500012874604,8|0,0:0|0:0,0:1:0:0:
270,123,140425,38,0,B|243:156|253:197|253:197|233:160|171:154,1,161.999995056153,4|0,3:2|0:0,0:0:0:0:
198,9,140741,2,0,P|226:20|244:46,1,53.9999983520508,0|0,1:2|0:0,0:0:0:0:
317,14,140899,2,0,P|321:43|307:72,1,45,0|0,3:2|0:0,0:0:0:0:
377,107,141057,2,0,P|353:125|321:128,1,33.7500012874604,0|0,3:2|0:0,0:0:0:0:
231,298,141215,6,0,B|273:321|309:281|309:281|307:258|317:239,1,116.999994644165,8|0,0:0|0:0,0:0:0:0:
384,357,141452,2,0,B|426:332|409:281|409:281|388:271|376:253,1,116.999994644165,8|0,0:0|0:0,0:0:0:0:
357,197,141688,53,6,3:2:0:0:
357,197,142004,5,0,3:2:0:0:
384,357,142162,1,8,0:0:0:0:
231,298,142320,1,0,3:2:0:0:
237,285,142399,1,0,3:2:0:0:
247,277,142478,1,0,3:2:0:0:
304,334,142636,1,0,3:2:0:0:
82,384,142794,1,8,0:0:0:0:
165,384,142952,54,0,L|141:281,1,90,2|0,0:3|3:2,0:0:0:0:
150,303,143188,1,2,0:3:0:0:
155,310,143267,1,0,3:2:0:0:
0,228,143425,1,8,0:0:0:0:
215,168,143583,1,0,3:2:0:0:
79,223,143741,2,0,L|113:231,1,33.7500012874604,0|0,3:2|0:0,0:0:0:0:
132,150,143899,2,0,L|99:143,1,33.7500012874604,0|0,3:2|0:0,0:0:0:0:
249,0,144057,6,0,B|275:-5|275:-5|316:21,1,67.5000025749208,8|0,0:0|0:0,0:0:0:0:
186,92,144215,1,0,0:0:0:0:
393,47,144373,54,0,L|244:78,1,135.000005149842,4|2,3:2|3:2,0:0:0:0:
481,0,144688,1,10,0:0:0:0:
490,137,144846,1,2,0:0:0:0:
490,137,144925,1,0,0:0:0:0:
490,137,145004,2,0,L|480:90,1,45,2|0,3:2|0:0,0:0:0:0:
311,143,145162,2,0,B|326:154|335:169|335:169|434:148,1,107.999996704102,2|8,3:2|0:0,0:0:0:0:
261,206,145478,2,0,P|239:222|226:240,1,45,6|0,0:0|0:0,0:0:0:0:
194,372,145636,5,8,0:0:0:0:
444,282,145794,1,2,3:2:0:0:
449,274,145873,1,0,3:2:0:0:
454,266,145952,1,8,0:0:0:0:
413,226,146031,1,0,0:0:0:0:
351,245,146110,1,0,3:2:0:0:
337,309,146188,1,0,3:2:0:0:
390,352,146267,54,0,B|459:337|459:337|489:358,1,90,8|0,0:0|0:0,0:0:0:0:
474,347,146425,6,0,L|395:363,1,67.5,8|0,0:0|0:0,0:0:0:0:
293,384,146741,6,0,B|245:269|113:272|113:272|102:323|48:354,1,306.000005836487,6|0,3:2|3:2,0:0:0:0:
224,107,147215,2,0,B|215:132|191:140|191:140|205:124|208:113,1,76.5000014591217,10|0,0:0|0:0,0:0:0:0:
391,16,147373,1,2,0:3:0:0:
136,89,147531,2,0,B|317:50|317:50|331:72|351:82,1,229.500004377365,2|0,3:2|0:0,0:0:0:0:
403,142,147846,2,0,B|426:124|424:87|424:87|424:116|393:139,1,107.999996704102,10|0,0:0|0:0,0:0:0:0:
509,236,148162,37,2,3:2:0:0:
319,160,148320,2,0,B|323:189|306:209|306:209|330:199|366:220,1,107.999996704102,2|8,0:0|0:0,0:0:0:0:
337,356,148636,2,0,B|345:269|441:276|441:276|455:304|484:311,1,202.500007724762,2|0,0:0|0:0,0:0:0:0:
451,382,148952,2,0,P|428:374|402:334,1,45,2|0,3:2|0:0,0:0:0:0:
403,142,149110,1,8,0:0:0:0:
479,309,149267,6,0,L|212:365,1,270.000010299683,4|0,3:2|3:2,0:0:0:0:
37,273,149741,2,0,B|86:262|86:262|102:233|102:233,1,67.5000025749208,10|0,0:0|0:0,0:0:0:0:
116,110,149899,1,2,0:0:0:0:
199,243,150057,2,0,B|154:255|154:255|59:189|59:189|-7:206,1,202.500007724762,2|0,3:2|0:0,0:0:0:0:
169,171,150373,2,0,B|231:159|231:159|248:187|281:192,1,107.999996704102,8|0,0:0|0:0,0:0:0:0:
214,364,150688,5,2,3:2:0:0:
403,142,150846,2,0,L|277:115,1,107.999996704102,2|8,0:0|0:0,0:0:0:0:
424,248,151162,2,0,B|443:261|443:261|504:248,1,67.5000025749208,2|0,0:0|0:0,0:0:0:0:
495,175,151320,2,0,L|463:181,1,22.5,2|0,3:2|0:0,0:0:0:0:
286,213,151478,2,0,B|329:203|329:203|348:216,1,67.5000025749208,2|0,3:2|0:0,0:0:0:0:
316,293,151636,1,8,0:0:0:0:
74,244,151794,2,0,L|11:230,1,62.9999980773926,4|0,3:2|0:0,0:0:0:0:
0,144,151952,38,0,L|154:176,1,135.000005149842,2|0,0:0|3:2,0:0:0:0:
390,330,152267,2,0,B|405:302|405:302|440:299,1,67.5000025749208,10|0,0:0|0:0,0:0:0:0:
456,384,152425,1,0,0:0:0:0:
495,175,152583,1,2,3:2:0:0:
316,293,152741,2,0,L|253:279,1,45,2|0,0:0|0:0,0:0:0:0:
74,244,152899,1,8,0:0:0:0:
348,216,153057,5,2,0:0:0:0:
348,216,153136,1,2,0:0:0:0:
348,216,153215,2,0,L|394:206,1,45,0|0,3:2|0:2,0:0:0:0:
261,130,153373,2,0,B|213:119|213:119|189:131,1,67.5000025749208,2|0,0:0|0:0,0:0:0:0:
74,244,153531,1,8,0:0:0:0:
271,155,153688,2,0,B|237:150|237:150|167:193|167:193|130:188,1,135.000005149842,2|0,0:0|3:2,0:0:0:0:
364,6,154004,6,0,L|330:13,1,33.7500012874604,2|0,3:3|0:0,0:0:0:0:
214,42,154162,2,0,L|247:34,1,33.7500012874604,8|0,0:0|0:0,0:0:0:0:
107,14,154320,2,0,L|140:6,1,33.7500012874604,4|0,3:2|0:0,0:0:0:0:
0,149,154478,38,0,B|-10:90|48:69|48:69|70:93|106:92,1,153.000002918243,2|0,3:2|3:2,0:0:0:0:
56,211,154715,1,0,0:0:0:0:
56,211,154794,2,0,P|40:223|12:231,1,45,8|0,0:0|0:0,0:0:0:0:
174,176,154952,2,0,P|231:202|255:235,1,90,2|0,0:0|3:2,0:0:0:0:
351,383,155267,1,2,3:2:0:0:
463,267,155425,1,8,0:0:0:0:
178,327,155583,5,2,3:2:0:0:
178,327,155662,1,0,3:2:0:0:
178,327,155741,2,0,L|191:389,1,58.4999973220826,8|0,0:0|0:0,0:0:0:0:
317,238,155899,1,2,3:2:0:0:
325,247,155978,1,0,3:2:0:0:
332,255,156057,2,0,L|319:317,1,58.4999973220826,8|0,0:0|0:0,0:0:0:0:
174,176,156215,6,0,L|187:238,1,58.4999973220826,2|0,3:2|3:2,0:0:0:0:
366,101,156373,2,0,L|353:163,1,58.4999973220826,8|0,0:0|0:0,0:0:0:0:
166,7,156531,1,2,3:2:0:0:
149,17,156610,1,0,3:2:0:0:
136,25,156688,2,0,L|149:87,1,58.4999973220826,10|0,0:0|0:0,0:0:0:0:
427,0,156846,38,0,L|360:313,1,306.000005836487,6|0,3:2|3:2,0:0:0:0:
75,361,157320,2,0,P|95:334|140:325,1,67.5000025749208,10|0,0:0|0:0,0:0:0:0:
258,324,157478,1,2,0:0:0:0:
75,361,157636,2,0,B|143:300|103:229|103:229|60:222|47:182,1,202.500007724762,2|0,3:2|0:0,0:0:0:0:
130,120,157952,2,0,B|149:117|169:94|169:94|160:148|100:152,1,135.000005149842,10|2,0:0|0:3,0:0:0:0:
34,53,158267,5,2,3:2:0:0:
241,75,158425,2,0,L|68:38,1,135.000005149842,2|8,0:0|0:0,0:0:0:0:
314,2,158741,2,0,B|182:31|182:31|192:72|159:103,1,202.500007724762,2|0,0:0|0:0,0:0:0:0:
34,53,159057,2,0,B|90:41|90:41|119:49,1,76.5000014591217,2|0,3:2|0:0,0:0:0:0:
275,194,159215,2,0,B|431:160|431:160|422:98,1,202.500007724762,10|0,0:0|0:0,0:0:0:0:
487,33,159531,6,0,L|496:79,1,33.7500012874604,4|0,3:2|0:0,0:0:0:0:
512,75,159688,2,0,L|502:28,1,33.7500012874604
397,44,159846,2,0,P|364:63|349:109,1,67.5000025749208,10|0,0:0|0:0,0:0:0:0:
325,271,160004,1,0,0:0:0:0:
397,44,160162,2,0,B|341:99|265:82|265:82|251:40|216:28,1,202.500007724762,2|0,3:2|0:0,0:0:0:0:
145,72,160478,2,0,B|152:96|140:124|140:124|157:99|195:92,1,107.999996704102,8|0,0:0|0:0,0:0:0:0:
424,117,160794,37,2,3:2:0:0:
228,274,160952,2,0,B|201:256|201:218|201:218|212:247|237:255,1,107.999996704102,2|8,0:0|0:0,0:0:0:0:
204,362,161267,2,0,B|165:389|165:389|145:384,1,67.5000025749208,2|0,0:0|0:0,0:0:0:0:
71,230,161425,1,2,3:2:0:0:
84,329,161583,2,0,B|122:301|122:301|141:305,1,67.5000025749208,2|0,3:2|0:0,0:0:0:0:
245,359,161741,2,0,L|47:318,1,202.500007724762,10|0,0:0|0:0,0:0:0:0:
228,274,162057,6,0,B|276:266|304:210|304:210|276:266|310:327,1,202.500007724762,6|0,3:2|0:0,0:0:0:0:
345,363,162373,2,0,B|385:394|426:363|426:363|392:373|373:361,1,135.000005149842,10|0,0:0|0:0,0:0:0:0:
218,196,162688,2,0,B|201:184|201:184|165:191|157:223,1,67.5000025749208,2|0,3:2|0:0,0:0:0:0:
84,329,162846,2,0,L|68:203,1,99.0000030212403,2|8,3:2|0:0,0:0:0:0:
66,35,163162,6,0,B|59:66|59:66|107:114|107:114|99:150,1,135.000005149842,2|0,3:2|3:2,0:0:0:0:
142,43,163478,2,0,L|151:-3,1,33.7500012874604,2|0,0:0|0:0,0:0:0:0:
15,163,163636,1,8,0:0:0:0:
193,113,163794,1,2,0:0:0:0:
193,113,163873,1,2,0:0:0:0:
193,113,163952,1,0,3:2:0:0:
69,283,164110,2,0,L|86:230,1,53.9999983520508,0|0,3:2|0:0,0:0:0:0:
142,43,164267,1,8,0:0:0:0:
71,230,164425,2,0,L|87:281,1,53.9999983520508,4|0,3:2|0:0,0:0:0:0:
236,384,164583,37,2,0:0:0:0:
0,319,164741,1,2,3:2:0:0:
225,186,164899,2,0,L|208:237,1,53.9999983520508,8|0,0:0|0:0,0:0:0:0:
167,345,165057,2,0,B|192:315|192:315|306:290,1,135.000005149842,2|0,0:0|3:2,0:0:0:0:
476,346,165373,1,2,3:2:0:0:
476,358,165452,1,0,3:2:0:0:
476,370,165531,2,0,B|455:377|455:377|404:365,1,67.5000025749208,10|0,0:0|0:0,0:0:0:0:
368,238,165688,5,2,3:2:0:0:
368,226,165767,1,0,3:2:0:0:
368,214,165846,2,0,B|347:207|347:207|296:219,1,67.5000025749208,8|0,0:0|0:0,0:0:0:0:
167,321,166004,1,0,3:2:0:0:
167,333,166083,1,0,3:2:0:0:
167,345,166162,2,0,B|188:352|188:352|239:340,1,67.5000025749208,10|0,0:0|0:0,0:0:0:0:
225,186,166320,2,0,B|204:179|204:179|153:191,1,67.5000025749208,2|0,1:2|0:0,0:0:0:0:
13,240,166478,5,8,0:2:0:0:
70,261,166557,1,8,0:2:0:0:
127,241,166636,1,8,0:2:0:0:
159,189,166715,1,8,0:2:0:0:
149,129,166794,1,8,0:2:0:0:
103,89,166873,1,8,0:2:0:0:
43,88,166952,38,0,B|36:112|13:131|13:131|192:93,1,229.500004377365,12|0,0:1|0:0,0:0:0:0:
222,29,167267,2,0,P|247:48|263:78,1,45,0|0,3:2|0:0,0:0:0:0:
368,214,167425,2,0,P|386:161|431:129,1,107.999996704102,12|0,0:0|0:0,0:0:0:0:
417,127,167662,1,0,1:2:0:0:
409,124,167741,1,0,3:2:0:0:
284,221,167899,1,2,0:0:0:0:
280,251,167978,1,0,1:2:0:0:
292,294,168057,1,0,1:2:0:0:
342,327,168136,1,0,1:2:0:0:
398,328,168215,6,0,B|345:269|269:297|269:297|257:330|229:340,1,202.500007724762,6|0,3:2|0:0,0:0:0:0:
197,270,168531,2,0,P|180:255|158:249,1,45,0|0,3:2|0:0,0:0:0:0:
40,348,168688,2,0,B|88:337|88:337|100:342|100:342|165:328,1,107.999996704102,0|0,1:2|0:0,0:0:0:0:
150,341,168925,1,0,1:0:0:0:
156,350,169004,1,0,3:2:0:0:
87,213,169162,1,8,0:3:0:0:
58,181,169241,1,8,0:3:0:0:
61,149,169320,1,4,0:3:0:0:
74,132,169399,1,4,0:3:0:0:
91,127,169478,6,0,B|111:162|91:206|54:210|51:207|49:205|6:207|-13:241|4:282,1,202.500007724762,4|0,3:2|0:0,0:0:0:0:
40,348,169794,2,0,B|48:345|65:349|65:349|93:333|102:305,1,67.5000025749208,0|0,3:2|0:0,0:0:0:0:
253,209,169952,2,0,B|266:198|275:180|275:180|323:153|369:205,1,135.000005149842,8|0,0:0|0:0,0:0:0:0:
201,148,170267,1,0,3:2:0:0:
326,310,170425,1,4,3:3:0:0:
350,331,170503,1,4,3:3:0:0:
383,331,170582,1,4,3:3:0:0:
408,311,170661,1,4,3:3:0:0:
415,278,170741,2,0,L|426:332,1,45,4|0,3:2|0:0,0:0:0:0:
512,355,170899,38,0,L|478:198,1,135.000005149842,0|0,0:0|3:2,0:0:0:0:
390,118,171215,2,0,L|400:71,1,45,8|0,0:0|0:0,0:0:0:0:
466,30,171373,1,0,3:2:0:0:
476,44,171452,1,0,3:2:0:0:
486,56,171531,2,0,L|476:102,1,45,8|0,0:0|0:0,0:0:0:0:
319,178,171688,1,0,3:2:0:0:
309,164,171767,1,0,3:2:0:0:
299,152,171846,2,0,L|322:42,1,101.250003862381,8|0,0:0|0:0,0:0:0:0:
264,1,172162,6,0,P|225:23|196:26,2,67.5000025749208,6|2|2,3:2|0:0|3:2,0:0:0:0:
115,105,172636,2,0,P|96:91|75:83,5,45,2|0|0|0|0|0,0:0|3:2|0:0|3:2|0:0|3:2,0:0:0:0:
209,205,173583,2,0,L|225:126,1,67.5000025749208,2|2,0:0|3:2,0:0:0:0:
209,205,173899,1,2,0:0:0:0:
112,249,174057,2,0,L|128:170,1,67.5000025749208,2|0,3:2|0:0,0:0:0:0:
204,361,174373,2,0,L|188:282,1,67.5000025749208,2|0,3:2|0:0,0:0:0:0:
90,380,174688,54,0,P|61:358|27:355,2,67.5000025749208,2|2|2,3:2|0:0|3:2,0:0:0:0:
296,384,175162,2,0,L|286:339,4,45,2|0|0|0|0,0:0|3:2|0:0|3:2|0:0,0:0:0:0:
378,325,175952,6,0,P|386:314|401:308,1,22.5,2|0,3:3|0:0,0:0:0:0:
390,288,176110,2,0,P|394:300|393:316,1,22.5,2|0,0:3|0:0,0:0:0:0:
415,316,176267,2,0,P|401:313|388:304,1,22.5,2|0,3:3|0:0,0:0:0:0:
317,239,176425,54,0,P|331:221|350:210,1,45,2|0,0:0|3:2,0:0:0:0:
245,268,176741,2,0,P|272:273|306:300,1,67.5000025749208,2|0,0:0|3:2,0:0:0:0:
184,221,177057,2,0,P|194:245|195:269,1,45,2|0,0:0|0:0,0:0:0:0:
194,144,177215,5,6,3:2:0:0:
14,142,177373,1,2,0:0:0:0:
171,58,177531,1,2,3:2:0:0:
104,177,177688,2,0,L|92:122,5,45,2|0|0|0|0|0,0:0|3:2|0:0|3:2|0:0|3:2,0:0:0:0:
7,46,178636,54,0,L|100:26,1,67.5000025749208,2|2,0:0|3:2,0:0:0:0:
7,46,178952,1,2,0:0:0:0:
237,72,179110,2,0,L|143:52,1,67.5000025749208,2|0,3:2|0:0,0:0:0:0:
385,22,179425,2,0,L|291:41,1,67.5000025749208,2|0,3:2|0:0,0:0:0:0:
423,193,179741,5,2,3:2:0:0:
465,3,179899,1,2,0:0:0:0:
316,128,180057,1,2,3:2:0:0:
491,90,180215,2,0,L|444:80,4,45,2|0|0|0|0,0:0|3:2|0:0|3:2|0:0,0:0:0:0:
436,302,181004,53,10,3:2:0:0:
375,261,181083,1,10,0:0:0:0:
377,212,181162,1,2,3:2:0:0:
404,192,181241,1,2,3:2:0:0:
423,193,181320,6,0,B|412:251|361:256|361:256|321:247|300:283,1,153.000002918243,14|0,0:0|3:2,0:0:0:0:
235,222,181557,1,2,1:2:0:0:
235,222,181636,2,0,P|219:261|228:304,1,76.5000014591217,0|0,3:2|0:0,0:0:0:0:
145,329,181794,2,0,P|163:356|192:373,1,67.5000025749208,8|0,3:3|0:0,0:0:0:0:
342,339,181952,2,0,B|296:348|296:348|271:373,1,67.5000025749208,4|0,3:3|0:0,0:0:0:0:
284,378,182110,2,0,B|330:369|330:369|355:344,1,67.5000025749208,0|0,3:2|0:0,0:0:0:0:
423,193,182267,54,0,L|411:138,1,45,4|0,3:2|0:0,0:0:0:0:
417,42,182425,1,2,0:0:0:0:
428,50,182504,1,2,0:0:0:0:
438,56,182583,2,0,B|443:83|443:83|389:145|389:145|396:177,1,135.000005149842,2|0,0:0|3:2,0:0:0:0:
478,352,182899,2,0,B|442:266|364:262|364:262|409:278|418:310,1,215.999993408203,8|0,0:0|0:0,0:0:0:0:
467,207,183373,70,0,B|482:246|461:282|419:293|416:288|414:285|361:269|328:309|341:339,1,215.999993408203,0|0,3:2|0:0,0:0:0:0:
394,169,183846,1,0,3:2:0:0:
287,230,184004,2,0,L|326:221,1,33.7500012874604,2|0,3:2|0:0,0:0:0:0:
296,148,184162,2,0,B|240:159|240:159|218:187,1,76.5000014591217,8|0,0:0|0:0,0:0:0:0:
132,272,184320,2,0,B|110:277|110:277|54:247|54:247|32:251,2,107.999996704102,2|0|0,3:2|3:2|1:2,0:0:0:0:
5,328,184715,21,0,1:2:0:0:
5,328,184794,2,0,B|49:317|49:317|123:207|123:207|160:198,1,215.999993408203,6|0,3:2|0:0,0:0:0:0:
375,170,185267,37,2,3:2:0:0:
388,176,185346,1,2,3:2:0:0:
401,176,185425,2,0,B|457:131|429:71|391:57|391:57|356:73|351:103|367:123,1,215.999993408203,10|0,0:0|0:0,0:0:0:0:
407,296,185899,70,0,P|438:335|487:356,1,101.250003862381,0|0,3:2|0:0,0:0:0:0:
448,282,186215,2,0,P|422:286|392:316,1,45,8|0,0:0|0:0,0:0:0:0:
341,364,186373,21,0,3:2:0:0:
307,284,186478,38,0,P|310:267|322:247,2,30,0|2|0,3:2|3:2|3:2,0:0:0:0:
219,370,186688,70,0,B|132:352|132:352|117:366|100:371,1,125.999996154785,10|0,0:0|0:0,0:0:0:0:
81,300,186925,2,0,L|214:328,1,125.999996154785,2|0,0:0|0:0,0:0:0:0:
19,355,187162,2,0,P|3:330|0:298,1,45,0|0,3:2|0:0,0:0:0:0:
9,184,187320,22,0,B|44:235|115:228|148:176|148:176|116:157|119:117,1,215.999993408203,4|0,3:2|0:0,0:0:0:0:
54,29,187794,2,0,B|48:14|48:14|17:1|17:1|-2:6,1,67.5000025749208,2|0,3:2|0:0,0:0:0:0:
192,108,187952,2,0,B|232:33|332:43|332:43|344:76|381:89,1,215.999993408203,10|0,0:0|0:0,0:0:0:0:
131,60,188425,1,0,3:2:0:0:
131,60,188899,38,0,L|139:20,1,33.7500012874604,0|0,3:2|0:0,0:0:0:0:
46,62,189057,2,0,L|54:22,1,33.7500012874604,0|0,3:2|0:0,0:0:0:0:
119,136,189215,2,0,B|124:163|124:163|70:225|70:225|77:257,1,135.000005149842,8|0,0:0|0:0,0:0:0:0:
122,381,189531,1,0,1:2:0:0:
125,355,189610,1,0,1:2:0:0:
100,319,189688,1,0,1:2:0:0:
39,320,189767,1,0,1:2:0:0:
4,373,189846,70,0,B|104:351|104:351|110:335|124:319,1,135.000005149842,6|0,3:2|0:0,0:0:0:0:
188,372,190083,1,2,0:0:0:0:
188,372,190162,2,0,L|242:383,1,45,2|0,0:3|0:0,0:0:0:0:
354,345,190320,1,0,3:2:0:0:
354,345,190399,1,0,3:2:0:0:
354,345,190478,2,0,B|348:302|367:258|367:258|347:302|284:313,1,175.499991966248,14|0,0:0|0:0,0:0:0:0:
188,284,190794,2,0,L|242:295,1,45,2|0,3:2|0:0,0:0:0:0:
472,363,190952,21,0,3:2:0:0:
472,363,191031,1,0,3:2:0:0:
472,363,191110,2,0,B|462:313|462:313|439:304,1,67.5000025749208,8|0,0:0|0:0,0:0:0:0:
292,230,191267,1,0,3:2:0:0:
394,384,191425,2,0,B|386:348|386:348|460:239|460:239|449:190,1,202.500007724762,8|0,0:0|0:0,0:0:0:0:
380,223,191741,37,8,0:0:0:0:
351,173,191820,1,8,0:0:0:0:
366,113,191899,1,8,0:0:0:0:
416,85,191978,1,8,0:0:0:0:
476,91,192057,1,8,0:0:0:0:
498,82,192136,1,8,0:0:0:0:
500,63,192215,1,8,0:0:0:0:
490,49,192294,1,8,0:0:0:0:
473,41,192373,37,6,3:2:0:0:
434,52,192452,1,2,0:0:0:0:
416,85,192531,1,2,0:0:0:0:
422,127,192610,1,2,0:0:0:0:
456,152,192688,1,10,0:0:0:0:
483,169,192767,1,2,0:0:0:0:
489,190,192847,5,2,0:0:0:0:
448,187,192926,1,2,0:0:0:0:
424,158,193005,1,2,3:2:0:0:
421,116,193084,1,2,0:0:0:0:
449,84,193162,1,2,0:0:0:0:
472,62,193241,1,2,0:0:0:0:
473,40,193320,53,10,0:0:0:0:
459,48,193399,1,2,0:0:0:0:
434,52,193478,1,2,0:0:0:0:
401,48,193557,1,2,0:0:0:0:
363,23,193636,1,2,3:2:0:0:
312,3,193715,1,2,0:0:0:0:
254,26,193794,1,2,0:0:0:0:
240,85,193873,1,2,0:0:0:0:
281,136,193952,6,0,B|290:109|290:109|281:85|234:85,1,67.5000025749208,10|0,0:0|0:0,0:0:0:0:
96,121,194110,1,2,0:0:0:0:
106,111,194188,1,2,0:0:0:0:
113,104,194267,53,2,3:2:0:0:
90,82,194346,1,2,0:0:0:0:
38,98,194425,1,2,0:0:0:0:
30,164,194504,1,2,0:0:0:0:
86,207,194583,1,10,0:0:0:0:
126,227,194662,1,2,0:0:0:0:
145,258,194741,1,2,0:0:0:0:
139,283,194820,1,2,0:0:0:0:
124,297,194899,6,0,P|133:272|182:253,1,67.5000025749208,2|0,3:2|0:0,0:0:0:0:
268,326,195057,1,2,0:0:0:0:
258,332,195136,1,2,0:0:0:0:
249,337,195215,2,0,L|194:325,1,45,10|0,0:0|0:0,0:0:0:0:
177,169,195373,2,0,P|212:175|239:216,1,67.5000025749208,2|0,0:0|0:0,0:0:0:0:
351,362,195531,53,2,3:2:0:0:
380,383,195610,1,2,0:0:0:0:
428,382,195688,1,2,0:0:0:0:
471,348,195767,1,2,0:0:0:0:
471,280,195846,6,0,L|416:291,1,53.9999983520508,10|0,0:0|0:0,0:0:0:0:
296,255,196004,1,2,0:0:0:0:
302,244,196083,1,2,0:0:0:0:
308,233,196162,53,2,3:2:0:0:
347,224,196240,1,2,0:0:0:0:
387,216,196319,1,2,0:0:0:0:
426,207,196398,1,2,0:0:0:0:
466,199,196478,2,0,B|456:151|456:151|432:138,1,67.5000025749208,10|0,0:0|0:0,0:0:0:0:
315,108,196636,2,0,B|304:60|304:60|321:38,1,67.5000025749208,2|0,0:0|0:0,0:0:0:0:
436,15,196794,5,2,3:2:0:0:
436,15,196899,2,0,L|493:34,1,45.0000017166138,2|2,0:0|0:0,0:0:0:0:
433,94,197110,2,0,L|388:80,1,45.0000017166138,10|2,0:0|0:0,0:0:0:0:
315,108,197267,54,0,L|279:96,1,22.5000008583069,2|0,0:0|0:0,0:0:0:0:
239,33,197425,6,0,L|203:21,2,33.7500012874604,2|2|2,3:2|0:0|0:0,0:0:0:0:
243,160,197662,1,2,0:0:0:0:
243,160,197741,2,0,B|211:149|173:167|173:167|206:146|213:103,1,135.000005149842,10|0,0:0|0:0,0:0:0:0:
439,142,198057,53,2,3:2:0:0:
462,174,198136,1,2,0:0:0:0:
464,216,198215,1,2,0:0:0:0:
429,242,198294,1,2,0:0:0:0:
377,241,198373,1,10,0:0:0:0:
331,280,198452,1,2,0:0:0:0:
334,342,198531,1,2,0:0:0:0:
388,381,198610,1,2,0:0:0:0:
449,342,198688,6,0,B|402:269|328:294|328:294|312:331|269:343,1,202.500007724762,2|0,3:2|0:0,0:0:0:0:
196,243,199004,2,0,B|226:234|250:253|250:253|257:279,1,67.5000025749208,10|0,0:0|0:0,0:0:0:0:
181,384,199162,2,2,B|187:192|392:132|392:132|320:156|308:224,1,450,2|0,0:0|0:0,0:1:0:0:
196,243,199636,2,0,B|146:268|117:230|122:228|127:225|103:168|33:206,1,161.999995056153,8|0,0:0|0:0,0:0:0:0:
56,196,199952,53,0,3:2:0:0:
208,96,200110,2,0,B|231:74|231:38|231:38|223:71|204:84,1,107.999996704102,2|8,0:1|0:0,0:0:0:0:
60,43,200425,2,0,B|17:52|17:52|21:76,1,53.9999983520508,2|0,0:1|0:0,0:0:0:0:
20,64,200583,2,0,B|81:50|81:50|84:47|84:47|159:31,1,135.000005149842,2|0,3:1|0:0,0:0:0:0:
303,1,200820,1,2,0:1:0:0:
303,1,200899,2,0,B|391:19|391:19|393:48|419:67,1,135.000005149842,10|2,0:2|0:1,0:0:0:0:
470,12,201136,5,2,1:1:0:0:
470,12,201215,2,0,L|509:3,2,33.7500012874604,0|0|0,3:2|1:0|1:0,0:0:0:0:
352,117,201452,1,8,1:0:0:0:
352,117,201531,2,0,L|485:88,1,135.000005149842,4|0,3:2|0:0,0:0:0:0:
490,99,201767,1,8,0:0:0:0:
508,172,201846,53,8,3:2:0:0:
465,226,201925,1,8,0:3:0:0:
411,248,202004,1,8,0:3:0:0:
385,277,202083,1,8,0:3:0:0:
386,310,202162,1,4,3:3:0:0:
401,324,202241,1,4,0:3:0:0:
417,324,202320,1,4,3:2:0:0:
417,324,202636,22,0,L|471:312,2,45,0|0|0,3:2|3:2|0:0,0:0:0:0:
203,368,203110,6,2,B|161:385|110:352|113:323|115:322|117:322|123:258|48:226|-17:266|-17:266|-23:311|4:338|54:330,1,382.500007295609,8|0,0:0|0:0,0:1:0:0:
188,291,203583,6,0,B|225:226|296:238|296:238|311:270|340:276,1,180,4|0,3:2|0:0,0:0:0:0:
207,372,204057,1,0,3:2:0:0:
207,372,204215,1,0,3:2:0:0:
408,236,204373,2,0,B|410:195|428:162|428:162|410:196|363:211,1,153.000002918243,8|8,0:0|0:3,0:0:0:0:
366,201,204610,1,8,0:3:0:0:
362,194,204688,1,0,3:2:0:0:
494,281,204846,38,0,B|448:271|448:271|402:196|402:196|347:184,1,180,4|0,3:2|0:0,0:0:0:0:
501,203,205320,1,0,3:2:0:0:
501,203,205478,1,0,3:2:0:0:
335,46,205636,6,2,B|339:89|300:125|300:125|377:25|485:41|485:41|483:97|448:111,1,382.500007295609,8|0,0:0|0:0,0:1:0:0:
211,115,206110,6,0,P|182:45|257:51,1,180,6|8,3:2|0:0,0:0:0:0:
245,189,206583,1,0,3:2:0:0:
30,253,206741,1,0,3:2:0:0:
121,293,206899,2,0,L|111:246,1,45,8|0,0:0|0:0,0:0:0:0:
88,166,207057,1,0,3:2:0:0:
90,154,207135,1,0,1:0:0:0:
92,143,207214,1,0,3:2:0:0:
95,132,207293,1,0,3:2:0:0:
97,121,207373,38,0,B|105:162|105:162|21:215|21:215|32:267,1,180,4|0,3:2|0:0,0:0:0:0:
15,121,207846,1,0,3:2:0:0:
15,121,208004,1,0,3:2:0:0:
266,307,208162,6,2,B|299:327|343:315|355:281|355:281|318:209|238:201|180:267|180:267|196:307|169:342,1,382.500007295609,8|0,0:0|0:0,0:1:0:0:
61,331,208636,6,0,B|63:289|29:252|29:252|64:288|110:292,1,180,6|0,3:2|0:0,0:0:0:0:
240,384,209110,1,0,3:2:0:0:
240,384,209267,1,0,3:2:0:0:
150,197,209425,2,0,L|183:353,1,135.000005149842,8|0,3:2|0:0,0:0:0:0:
182,320,209662,1,0,1:0:0:0:
187,310,209741,1,8,3:2:0:0:
279,154,209899,38,0,B|323:124|369:162|369:162|385:212|430:211,1,180,4|0,3:2|1:0,0:0:0:0:
313,231,210373,1,0,3:2:0:0:
313,231,210531,1,0,3:2:0:0:
473,154,210688,6,2,B|483:111|524:91|524:91|429:104|381:214|420:298,1,337.500012874604,8|0,0:0|0:0,0:1:0:0:
445,373,211162,2,0,B|487:356|492:310|492:310|475:349|445:357,1,135,6|0,3:2|0:0,0:0:0:0:
337,357,211478,2,0,L|383:347,1,33.7500012874604,8|0,0:0|0:0,0:0:0:0:
229,371,211636,2,0,L|273:389,1,33.7500012874604,8|0,0:0|0:0,0:0:0:0:
110,311,211794,5,0,3:2:0:0:
110,311,211873,1,0,3:2:0:0:
110,311,211952,2,0,B|109:265|154:245|154:245|188:252|216:247,1,116.999994644165,8|0,0:0|0:0,0:0:0:0:
277,283,212188,38,0,B|237:306|197:277|197:277|186:244|168:223,1,116.999994644165,8|0,0:0|0:0,0:0:0:0:
61,199,212425,6,0,B|27:162|43:118|78:103|78:103|126:114|163:86|160:46,1,215.999993408203,6|2,3:2|3:2,0:0:0:0:
241,167,212899,2,0,B|250:181|272:178|272:178|253:174|245:164,1,53.9999983520508,8|0,0:0|0:0,0:0:0:0:
92,29,213057,1,2,0:0:0:0:
143,177,213215,1,2,3:2:0:0:
279,32,213373,2,0,B|298:23|298:23|331:36|331:36|338:60,1,67.5000025749208,2|0,3:2|0:0,0:0:0:0:
349,169,213531,1,8,0:0:0:0:
243,84,213688,6,0,L|415:47,1,161.999995056153,2|0,3:2|0:0,0:0:0:0:
470,5,214004,2,0,L|509:13,1,33.7500012874604,0|0,3:2|0:0,0:0:0:0:
437,150,214162,1,8,0:0:0:0:
279,32,214320,1,2,0:3:0:0:
143,177,214478,2,0,L|189:167,1,33.7500012874604,2|0,3:2|0:0,0:0:0:0:
245,255,214636,2,0,L|198:245,1,33.7500012874604,2|0,3:2|0:0,0:0:0:0:
269,162,214794,1,8,0:0:0:0:
308,331,214952,38,0,B|289:342|275:360|275:360|157:335,1,161.999995056153,2|0,3:2|0:0,0:0:0:0:
265,332,215267,2,0,B|228:340|228:340|208:367|208:367|155:378,1,107.999996704102,2|10,3:2|0:0,0:0:0:0:
342,239,215583,1,2,0:0:0:0:
417,384,215741,2,0,L|487:369,1,53.9999983520508,2|0,3:2|0:0,0:0:0:0:
493,280,215899,2,0,L|422:294,1,53.9999983520508,2|0,3:2|0:0,0:0:0:0:
265,332,216057,5,10,0:0:0:0:
265,332,216136,1,2,0:0:0:0:
265,332,216215,2,0,B|228:340|228:340|208:367|208:367|155:378,1,107.999996704102,2|0,3:2|0:0,0:0:0:0:
331,384,216531,1,2,3:2:0:0:
161,297,216688,2,0,B|152:283|144:267|144:267|58:249,1,107.999996704102,8|0,0:0|3:2,0:0:0:0:
94,370,217004,2,0,L|85:330,1,33.7500012874604,8|0,0:0|0:0,0:0:0:0:
4,334,217162,2,0,L|11:367,1,33.7500012874604,0|0,3:2|3:2,0:0:0:0:
221,244,217320,1,8,0:0:0:0:
11,202,217478,53,6,3:2:0:0:
11,202,217794,5,0,3:2:0:0:
214,115,217952,1,8,0:0:0:0:
56,46,218110,1,0,3:2:0:0:
57,60,218188,1,0,3:2:0:0:
72,70,218267,1,0,3:2:0:0:
149,15,218425,1,0,3:2:0:0:
72,251,218583,1,8,0:0:0:0:
256,217,218741,54,0,L|138:192,1,107.999996704102,2|0,0:3|3:2,0:0:0:0:
160,190,218978,1,2,0:3:0:0:
173,185,219057,1,0,3:2:0:0:
274,358,219215,1,8,0:0:0:0:
383,301,219373,1,2,3:3:0:0:
383,301,219452,1,2,0:3:0:0:
383,301,219531,2,0,L|336:291,1,33.7500012874604,0|0,3:2|0:0,0:0:0:0:
432,226,219688,2,0,L|385:216,1,33.7500012874604,0|0,3:2|0:0,0:0:0:0:
432,369,219846,2,0,B|455:360|455:360|468:298,1,67.5000025749208,8|0,0:0|0:0,0:0:0:0:
319,219,220004,1,0,0:0:0:0:
207,372,220162,6,0,L|285:355,1,67.5000025749208,4|0,3:2|3:2,0:0:0:0:
236,273,220320,53,10,0:0:0:0:
178,238,220399,1,0,3:2:0:0:
133,247,220478,1,2,3:2:0:0:
114,268,220557,1,0,3:2:0:0:
109,291,220636,5,10,0:0:0:0:
132,260,220715,1,0,3:2:0:0:
108,196,220794,1,10,0:0:0:0:
62,180,220873,1,0,3:2:0:0:
26,178,220952,1,2,3:2:0:0:
12,158,221031,1,0,3:2:0:0:
17,137,221110,53,8,0:0:0:0:
70,136,221188,1,0,3:2:0:0:
122,93,221267,1,10,0:0:0:0:
122,44,221346,1,0,3:2:0:0:
96,17,221425,1,0,3:2:0:0:
60,14,221504,1,0,3:2:0:0:
47,26,221583,2,0,P|57:46|87:60,1,45,8|0,3:2|1:2,0:0:0:0:
193,125,221741,5,8,3:2:0:0:
201,129,221820,1,0,3:2:0:0:
209,133,221899,1,0,3:2:0:0:
217,137,221978,1,0,3:2:0:0:
225,141,222057,2,0,L|279:129,1,45,8|8,3:2|0:3,0:0:0:0:
318,54,222215,53,4,3:3:0:0:
310,50,222294,1,4,3:3:0:0:
302,46,222373,1,0,3:2:0:0:
294,42,222452,1,0,3:2:0:0:
286,38,222531,2,0,L|232:50,1,45,8|0,0:0|1:0,0:0:0:0:
126,177,222688,6,0,B|101:182|101:182|46:171,1,67.5000025749208,8|4,3:3|3:3,0:0:0:0:
0,89,222846,1,8,3:2:0:0:
9,80,222925,1,0,3:2:0:0:
18,73,223004,2,0,B|42:67|42:67|97:78,1,67.5000025749208,8|0,3:2|0:0,0:0:0:0:
204,235,223162,53,0,3:2:0:0:
210,245,223241,1,0,3:2:0:0:
217,255,223320,2,0,B|203:317|203:317|172:338,1,90,8|0,0:0|0:0,0:0:0:0:
175,329,223478,6,0,L|241:343,1,67.5,8|0,0:0|0:0,0:0:0:0:
344,371,223794,6,0,B|394:341|406:272|358:216|358:216|301:217|271:178|284:134,1,306.000005836487,6|0,3:2|3:2,0:0:0:0:
73,72,224267,2,0,B|121:39|121:39|160:47,1,76.5000014591217,10|0,0:0|0:0,0:0:0:0:
203,188,224425,1,2,0:3:0:0:
0,58,224583,2,0,L|198:101,1,202.500007724762,2|0,3:2|0:0,0:0:0:0:
357,140,224899,2,0,B|367:103|412:96|412:96|388:120|384:140,1,107.999996704102,10|0,0:0|0:0,0:0:0:0:
277,40,225215,37,2,3:2:0:0:
436,268,225373,2,0,L|459:163,1,107.999996704102,2|8,0:0|0:0,0:0:0:0:
360,313,225688,2,0,B|253:290|253:290|217:308|218:361|275:372,1,202.500007724762,2|0,0:0|0:0,0:0:0:0:
405,380,226004,2,0,B|443:371|443:371|449:356|437:341|420:342,1,67.5000025749208,2|0,3:2|0:0,0:0:0:0:
357,140,226162,1,8,0:0:0:0:
197,287,226320,6,0,B|272:298|272:298|314:243|314:243|458:272,1,270.000010299683,4|0,3:2|3:2,0:0:0:0:
66,344,226794,2,0,P|41:314|39:273,1,67.5000025749208,10|0,0:0|0:0,0:0:0:0:
114,143,226952,1,2,0:0:0:0:
66,344,227110,2,0,B|134:289|106:221|106:221|58:212|47:172,1,202.500007724762,2|0,3:2|0:0,0:0:0:0:
114,143,227425,2,0,B|157:129|165:83|165:83|143:119|114:127,1,135.000005149842,8|0,0:0|0:0,0:0:0:0:
240,213,227741,5,2,3:2:0:0:
95,53,227899,2,0,B|64:44|40:13|40:13|60:46|53:81,1,135.000005149842,2|8,0:0|0:0,0:0:0:0:
249,118,228215,2,0,L|327:101,1,67.5000025749208,2|0,0:0|0:0,0:0:0:0:
396,127,228373,2,0,L|389:158,1,22.5,2|0,3:2|0:0,0:0:0:0:
433,49,228531,2,0,L|499:63,1,67.5000025749208,2|0,3:2|0:0,0:0:0:0:
349,19,228688,1,8,0:0:0:0:
444,213,228846,2,0,B|462:197|462:197|472:152,1,67.5000025749208,4|0,3:2|0:0,0:0:0:0:
396,127,229004,38,0,B|388:163|388:163|439:219|439:219|429:262,1,153.000002918243,2|0,0:0|3:2,0:0:0:0:
219,262,229320,2,0,B|207:230|207:230|154:222,1,67.5000025749208,10|0,0:0|0:0,0:0:0:0:
53,348,229478,1,0,0:0:0:0:
43,358,229557,1,0,0:0:0:0:
36,367,229636,2,0,L|98:353,1,53.9999983520508,2|0,3:2|0:0,0:0:0:0:
196,340,229794,6,0,L|227:333,1,26.9999991760254,2|8,0:0|0:0,0:0:0:0:
196,340,230110,6,0,B|166:333|166:333|116:278|116:278|82:270,1,135.000005149842,2|0,0:0|3:2,0:0:0:0:
308,299,230425,2,0,B|349:283|349:283|383:296,1,67.5000025749208,2|0,0:0|0:0,0:0:0:0:
460,373,230583,1,8,0:0:0:0:
197,286,230741,2,0,B|167:293|167:293|117:348|117:348|83:356,1,135.000005149842,2|2,0:0|3:3,0:0:0:0:
321,376,231057,38,0,L|360:364,1,33.7500012874604,2|0,3:3|0:0,0:0:0:0:
458,286,231215,2,0,L|491:296,1,33.7500012874604,8|0,0:0|0:0,0:0:0:0:
460,205,231373,2,0,L|499:217,1,33.7500012874604,4|0,3:2|0:0,0:0:0:0:
354,203,231531,6,0,B|363:136|423:127|423:127|390:145|378:177,1,153.000002918243,2|0,3:2|3:2,0:0:0:0:
269,227,231767,1,2,0:3:0:0:
269,227,231846,2,0,P|241:206|225:171,1,53.9999983520508,8|0,0:0|0:0,0:0:0:0:
183,84,232004,2,0,B|170:129|119:141|119:141|97:120|67:122,1,135.000005149842,2|0,0:0|3:2,0:0:0:0:
293,99,232320,1,2,3:2:0:0:
62,201,232478,1,8,0:0:0:0:
197,316,232636,5,2,3:2:0:0:
197,316,232715,1,0,3:2:0:0:
197,316,232794,2,0,L|182:245,1,58.4999973220826,8|0,0:0|0:0,0:0:0:0:
28,309,232953,1,2,3:2:0:0:
17,350,233031,1,0,3:2:0:0:
43,383,233110,1,8,0:0:0:0:
85,384,233189,1,0,0:0:0:0:
112,351,233267,38,0,L|97:280,1,58.4999973220826,2|0,3:2|3:2,0:0:0:0:
79,122,233425,2,0,P|114:138|146:173,1,58.4999973220826,8|0,0:0|0:0,0:0:0:0:
294,307,233583,5,2,3:2:0:0:
362,296,233662,1,0,3:2:0:0:
412,286,233741,1,10,0:0:0:0:
447,279,233820,1,0,3:2:0:0:
468,276,233899,6,0,B|435:266|421:236|421:236|334:272|334:272|328:341|268:355,1,270.000010299683,6|0,3:2|3:2,0:0:0:0:
313,174,234373,2,0,P|310:139|274:108,1,67.5000025749208,10|0,0:0|0:0,0:0:0:0:
224,72,234531,1,2,0:0:0:0:
254,276,234688,2,0,B|198:225|238:152|238:152|282:143|299:98,1,202.500007724762,2|0,3:2|0:0,0:0:0:0:
267,41,235004,2,0,B|234:45|197:20|197:20|232:47|221:93,1,135.000005149842,10|2,0:0|0:3,0:0:0:0:
431,1,235320,37,2,3:2:0:0:
169,127,235478,2,0,B|69:105|69:105|56:122|32:132,1,135.000005149842,2|8,0:0|0:0,0:0:0:0:
347,214,235794,2,0,B|501:181|501:181|491:132,1,202.500007724762,2|0,0:0|0:0,0:0:0:0:
420,117,236110,2,0,L|341:133,1,53.9999983520508,2|0,3:2|0:0,0:0:0:0:
63,268,236267,2,0,B|-13:264|-14:184|-14:184|20:212|66:204,1,202.500007724762,10|0,0:0|0:0,0:0:0:0:
155,214,236583,6,0,L|163:253,1,33.7500012874604,4|0,3:2|0:0,0:0:0:0:
176,335,236741,2,0,L|185:375,1,33.7500012874604
406,211,236899,2,0,B|364:198|364:198|330:229,1,67.5000025749208,10|0,0:0|0:0,0:0:0:0:
292,341,237057,1,0,0:0:0:0:
448,275,237215,2,0,B|414:293|414:293|284:252|284:252|249:278,1,202.500007724762,2|0,3:2|0:0,0:0:0:0:
292,341,237531,2,0,B|365:320|365:320|376:287,1,107.999996704102,8|0,0:0|0:0,0:0:0:0:
428,125,237846,5,2,3:2:0:0:
428,125,237925,1,2,0:0:0:0:
428,125,238004,2,0,L|415:66,1,53.9999983520508,2|0,0:0|0:0,0:0:0:0:
489,20,238162,2,0,L|495:51,1,29.2499986610413,8|0,0:0|0:0,0:0:0:0:
322,76,238320,2,0,B|322:28|367:10|367:10|336:33|340:75,1,135.000005149842,2|2,0:0|3:2,0:0:0:0:
275,162,238557,1,0,0:0:0:0:
275,162,238636,2,0,P|253:149|233:116,1,53.9999983520508,2|0,3:2|0:0,0:0:0:0:
146,11,238794,2,0,B|170:42|146:88|105:83|104:79|102:76|60:88|32:123|68:158,1,188.999994232178,10|0,0:0|0:0,0:0:0:0:
154,161,239110,38,0,B|180:127|154:78|111:84|110:88|108:92|62:78|33:41|71:4,1,202.500007724762,6|0,3:2|0:0,0:0:0:0:
57,143,239425,2,0,B|25:147|5:170|5:170|20:144|16:109,1,116.999994644165,10|0,0:0|0:0,0:0:0:0:
146,11,239741,2,0,P|178:22|206:44,1,58.4999973220826,2|0,3:2|0:0,0:0:0:0:
376,150,239899,2,0,P|408:139|436:117,1,58.4999973220826,2|0,3:2|0:0,0:0:0:0:
490,13,240057,1,8,0:0:0:0:
429,152,240215,2,0,P|404:135|376:126,1,58.4999973220826,2|0,3:2|0:0,0:0:0:0:
154,161,240373,5,0,3:2:0:0:
251,189,240531,2,0,B|244:160|244:160|239:152|239:152|232:119,1,67.5000025749208,2|0,0:0|0:0,0:0:0:0:
373,343,240688,1,8,0:0:0:0:
276,371,240846,2,0,B|282:342|282:342|287:334|287:334|294:301,1,67.5000025749208,2|0,0:0|0:0,0:0:0:0:
170,237,241004,2,0,B|176:266|176:266|181:274|181:274|188:307,1,67.5000025749208,0|0,3:2|0:0,0:0:0:0:
366,261,241162,2,0,B|354:230|354:230|319:225,1,67.5000025749208,0|0,3:2|0:0,0:0:0:0:
116,336,241320,1,8,0:0:0:0:
373,343,241478,2,0,B|404:348|404:348|427:320,1,67.5000025749208,4|0,3:2|0:0,0:0:0:0:
507,194,241636,5,2,0:0:0:0:
295,102,241794,1,2,3:2:0:0:
512,34,241952,2,0,L|498:96,1,53.9999983520508,8|0,0:0|0:0,0:0:0:0:
398,176,242110,2,0,L|427:35,1,135.000005149842,2|0,0:0|3:2,0:0:0:0:
258,178,242425,1,2,3:2:0:0:
241,183,242504,1,0,3:2:0:0:
227,183,242583,2,0,P|197:171|167:125,1,67.5000025749208,10|0,0:0|0:0,0:0:0:0:
181,17,242741,1,2,3:2:0:0:
15,107,242899,38,0,P|39:86|94:84,1,67.5000025749208,8|0,0:0|0:0,0:0:0:0:
284,53,243057,1,0,3:2:0:0:
276,46,243136,1,0,3:2:0:0:
266,39,243215,2,0,B|248:51|248:51|238:106,1,67.5000025749208,10|0,0:0|0:0,0:0:0:0:
363,301,243373,5,2,1:2:0:0:
312,359,243452,1,0,0:0:0:0:
255,354,243531,1,8,0:2:0:0:
220,317,243610,1,8,0:2:0:0:
218,275,243688,1,8,0:2:0:0:
235,243,243767,1,8,0:2:0:0:
258,233,243846,1,8,0:2:0:0:
275,233,243925,1,8,0:2:0:0:
286,241,244004,6,0,L|12:299,1,270.000010299683,12|0,0:1|3:2,0:0:0:0:
33,285,244399,1,0,3:2:0:0:
45,271,244478,2,0,B|76:277|76:277|122:328|122:328|161:336,1,135.000005149842,12|0,0:0|0:0,0:0:0:0:
151,322,244715,1,0,1:2:0:0:
143,308,244794,2,0,B|115:314|115:314|89:353,1,67.5000025749208,0|0,3:2|0:0,0:0:0:0:
255,370,244952,1,2,1:2:0:0:
309,324,245031,1,0,1:2:0:0:
312,278,245110,1,0,1:2:0:0:
300,254,245188,1,0,1:2:0:0:
286,241,245267,38,0,B|316:325|411:305|411:305|422:275|470:261,1,202.500007724762,6|0,3:2|0:0,0:0:0:0:
417,198,245583,2,0,P|392:208|372:225,1,53.9999983520508,0|0,3:2|3:2,0:0:0:0:
230,297,245741,2,0,B|166:283|166:283|160:276|160:276|75:259,1,135.000005149842,0|0,1:2|0:0,0:0:0:0:
31,245,245978,1,8,1:0:0:0:
10,194,246057,1,8,3:2:0:0:
27,151,246136,1,8,0:0:0:0:
67,129,246215,1,8,0:3:0:0:
105,130,246294,1,8,0:3:0:0:
128,147,246373,1,4,0:3:0:0:
136,166,246452,1,4,0:3:0:0:
132,183,246531,6,0,B|139:112|231:93|231:93|245:127|290:138,1,202.500007724762,4|0,3:2|3:2,0:0:0:0:
303,63,246846,1,0,0:0:0:0:
303,63,246925,2,0,L|270:213,1,135.000005149842,12|0,3:2|0:0,0:0:0:0:
266,271,247162,1,8,0:0:0:0:
318,324,247241,1,0,1:2:0:0:
375,318,247320,1,0,1:2:0:0:
406,301,247399,1,0,1:2:0:0:
435,306,247478,1,8,0:3:0:0:
452,327,247557,1,8,0:3:0:0:
454,346,247636,1,4,0:3:0:0:
448,361,247715,1,4,0:3:0:0:
438,368,247794,6,0,B|406:324|450:274|450:274|484:276|506:246,1,153.000002918243,4|0,3:2|3:2,0:0:0:0:
465,121,248110,1,0,3:2:0:0:
453,130,248188,1,0,3:2:0:0:
441,141,248267,2,0,L|452:195,1,53.9999983520508,8|0,0:0|0:0,0:0:0:0:
247,202,248425,37,0,3:2:0:0:
260,198,248504,1,0,3:2:0:0:
273,194,248583,2,0,B|335:180|335:180|364:199,1,90,8|0,0:0|0:0,0:0:0:0:
325,266,248741,6,0,L|285:274,1,40.4999987640381,8|0,0:0|0:0,0:0:0:0:
180,206,249057,6,0,L|414:255,1,229.500004377365,4|0,3:2|0:0,0:0:0:0:
481,265,249373,1,2,0:0:0:0:
230,332,249531,1,10,0:0:0:0:
357,194,249688,1,2,3:2:0:0:
347,191,249767,1,0,0:0:0:0:
339,189,249846,1,8,0:0:0:0:
416,379,250004,2,0,L|427:324,1,53.9999983520508,0|0,3:2|0:0,0:0:0:0:
505,366,250162,1,8,0:0:0:0:
325,266,250320,2,0,L|336:318,1,53.9999983520508,2|0,3:2|0:0,0:0:0:0:
230,332,250478,37,10,0:0:0:0:
451,188,250636,6,0,L|482:181,2,22.5000008583069,0|0|0,3:2|0:0|0:0,0:0:0:0:
437,112,250794,2,0,B|486:101|486:101|517:119,1,67.5000025749208,10|0,0:0|0:0,0:0:0:0:
357,194,250952,2,0,L|223:165,1,135.000005149842,0|8,3:2|0:0,0:0:0:0:
101,263,251267,2,0,B|143:233|143:233|147:219,1,67.5000025749208,2|0,3:1|0:0,0:0:0:0:
209,67,251425,1,8,0:0:0:0:
14,56,251583,6,0,L|22:86,2,22.5000008583069,0|0|0,3:2|3:2|3:2,0:0:0:0:
82,0,251741,38,0,B|113:148|113:148|81:168|73:199,1,202.500007724762,10|0,3:1|0:0,0:0:0:0:
12,240,252057,2,0,L|2:193,1,45,8|0,0:0|0:0,0:0:0:0:
147,217,252215,2,0,L|115:365,1,135.000005149842,2|8,3:2|0:0,0:0:0:0:
293,298,252531,1,2,3:2:0:0:
293,298,252610,1,0,0:0:0:0:
293,298,252688,2,0,B|246:288|246:288|223:305,1,67.5000025749208,10|0,0:0|0:0,0:0:0:0:
52,363,252846,2,0,L|122:348,1,67.5000025749208,2|0,3:2|0:0,0:0:0:0:
312,380,253004,5,0,3:2:0:0:
312,380,253083,2,0,L|257:368,1,53.9999983520508,0|2,1:0|0:0,0:0:0:0:
430,335,253241,1,0,1:2:0:0:
430,335,253320,2,0,L|375:323,1,53.9999983520508,8|0,3:2|0:0,0:0:0:0:
368,127,253478,1,0,1:2:0:0:
380,124,253557,1,0,1:2:0:0:
391,127,253636,2,0,P|420:145|432:185,1,62.9999980773926,0|0,3:2|1:2,0:0:0:0:
359,245,253794,2,0,P|330:227|318:187,1,62.9999980773926,8|0,0:0|1:2,0:0:0:0:
291,40,253952,1,2,3:1:0:0:
228,47,254031,1,0,3:2:0:0:
205,78,254110,1,0,3:2:0:0:
202,103,254188,1,0,3:2:0:0:
206,120,254267,6,0,B|182:73|141:69|141:69|119:88|92:91,1,125.999996154785,4|2,3:2|0:0,0:0:0:0:
289,123,254583,1,10,0:0:0:0:
115,247,254741,2,0,B|91:294|50:298|50:298|28:279|1:276,2,125.999996154785,2|0|0,0:0|3:2|0:0,0:0:0:0:
84,16,255215,1,10,0:0:0:0:
246,195,255373,1,2,0:0:0:0:
24,121,255531,37,2,3:2:0:0:
189,55,255688,1,2,0:0:0:0:
236,289,255846,1,8,0:0:0:0:
115,247,256004,2,0,L|138:137,1,107.999996704102,2|0,0:0|3:2,0:0:0:0:
4,307,256320,2,0,B|24:317|24:317|93:303,1,67.5000025749208,2|0,0:1|0:0,0:0:0:0:
246,195,256478,1,8,0:0:0:0:
40,230,256636,2,0,L|94:218,1,53.9999983520508,2|0,0:1|0:0,0:0:0:0:
189,360,256794,6,0,B|156:366|156:366|74:324|74:324|21:336,1,161.999995056153,2|0,3:1|0:0,0:0:0:0:
162,384,257110,2,0,L|212:371,1,33.7500012874604,8|0,0:0|0:0,0:0:0:0:
366,351,257267,2,0,B|306:330|306:330|291:353|272:360,1,107.999996704102,2|0,0:0|3:2,0:0:0:0:
406,214,257583,1,2,0:0:0:0:
236,289,257741,1,10,0:0:0:0:
443,364,257899,1,2,0:0:0:0:
305,216,258057,6,0,L|314:262,1,33.7500012874604,2|0,3:2|0:0,0:0:0:0:
372,114,258215,2,0,L|362:160,1,33.7500012874604,2|0,3:2|0:0,0:0:0:0:
316,30,258373,1,8,0:0:0:0:
116,195,258531,37,2,3:2:0:0:
101,202,258610,1,2,0:0:0:0:
86,199,258688,1,10,0:0:0:0:
78,187,258767,1,2,1:2:0:0:
80,171,258846,1,2,1:2:0:0:
102,155,258925,1,2,1:2:0:0:
148,142,259004,1,10,3:2:0:0:
177,98,259083,1,10,0:0:0:0:
152,35,259162,1,10,0:0:0:0:
80,22,259241,1,10,0:0:0:0:
29,77,259320,6,0,B|12:117|33:146|71:154|71:154|165:122|165:122|172:106|180:92,1,229.500004377365,6|0,3:2|0:0,0:0:0:0:
288,140,259636,2,0,L|233:128,1,45,8|0,0:0|0:0,0:0:0:0:
316,30,259794,2,0,B|409:49|409:49|416:72|433:86,1,135.000005149842,2|0,0:0|3:2,0:0:0:0:
508,231,260110,1,0,0:0:0:0:
484,28,260267,1,10,0:0:0:0:
288,140,260425,1,2,0:0:0:0:
416,235,260583,5,2,3:2:0:0:
454,153,260741,1,2,0:0:0:0:
277,273,260899,1,10,0:0:0:0:
317,376,261057,2,0,B|353:372|367:339|367:339|343:363|316:365,1,107.999996704102,2|0,0:0|3:2,0:0:0:0:
495,381,261373,2,0,P|471:357|428:346,1,67.5000025749208,2|0,0:1|0:0,0:0:0:0:
226,347,261531,1,8,0:0:0:0:
416,235,261688,2,0,P|383:243|352:275,1,67.5000025749208,2|0,0:1|0:0,0:0:0:0:
146,329,261846,38,0,B|149:285|104:239|104:239|149:284|211:269,1,202.500007724762,2|0,3:1|0:0,0:0:0:0:
277,273,262162,1,8,0:0:0:0:
51,371,262320,2,0,B|38:342|-1:330|-1:330|41:336|73:315,1,135.000005149842,2|0,0:0|3:2,0:0:0:0:
226,347,262636,6,0,L|216:393,1,33.7500012874604,2|0,0:0|0:0,0:0:0:0:
308,158,262794,2,0,L|317:204,1,45,10|0,0:0|0:0,0:0:0:0:
218,6,262952,2,0,L|204:68,1,56.25,2|0,0:0|0:0,0:0:0:0:
372,67,263110,6,0,B|398:52|398:52|407:29|407:29|390:52|376:57,1,85.4999977169037,2|0,3:2|0:0,0:0:0:0:
169,148,263267,1,2,3:2:0:0:
169,148,263346,1,0,3:2:0:0:
169,148,263425,2,0,B|143:133|143:133|134:110|134:110|151:133|165:138,1,85.4999977169037,10|0,0:0|0:0,0:0:0:0:
398,244,263583,1,2,3:2:0:0:
398,244,263662,1,0,3:2:0:0:
398,244,263741,2,0,B|424:229|424:229|433:206|433:206|416:229|402:234,1,85.4999977169037,10|0,0:0|0:0,0:0:0:0:
100,344,263899,2,0,B|74:329|74:329|65:306|65:306|82:329|96:334,1,85.4999977169037,2|0,3:2|0:0,0:0:0:0:
422,384,264057,1,0,0:0:0:0:
263,161,264215,6,2,L|250:223,1,63,6|0,3:2|0:0,0:1:0:0:
