osu file format v14

[General]
AudioFilename: staywithme.mp3
AudioLeadIn: 0
PreviewTime: 18751
Countdown: 0
SampleSet: Soft
StackLeniency: 0.5
Mode: 0
LetterboxInBreaks: 0
WidescreenStoryboard: 0

[Editor]
DistanceSpacing: 1.2
BeatDivisor: 4
GridSize: 16
TimelineZoom: 1.4

[Metadata]
Title:stay with me
TitleUnicode:stay with me
Artist:AcesToAces
ArtistUnicode:AcesToAces
Creator:piroshki
Version:Normal
Source:
Tags:miki matsubara future funk japanese aye1337 grandweek
BeatmapID:1858528
BeatmapSetID:793868

[Difficulty]
HPDrainRate:3
CircleSize:3
OverallDifficulty:3
ApproachRate:5
SliderMultiplier:1.4
SliderTickRate:1

[Events]
//Background and Video events
0,0,"bg.jpg",0,0
//Break Periods
//Storyboard Layer 0 (Background)
//Storyboard Layer 1 (Fail)
//Storyboard Layer 2 (Pass)
//Storyboard Layer 3 (Foreground)
//Storyboard Layer 4 (Overlay)
//Storyboard Sound Samples

[TimingPoints]
470,468.75,4,2,1,60,1,0
2286,-100,4,2,1,5,0,0
4220,-100,4,2,1,60,0,0
15470,-100,4,2,1,30,0,0
15938,-100,4,2,1,15,0,0
16407,-100,4,2,1,20,0,0
17345,-100,4,2,1,60,0,0
24375,-100,4,2,1,20,0,0
24845,-100,4,2,1,60,0,0
30470,-100,4,2,1,15,0,0
32345,-100,4,2,1,60,0,0
45470,-100,4,2,1,20,0,0
48985,-100,4,2,1,15,0,0
56485,-100,4,2,1,5,0,0

[Colours]
Combo1 : 255,40,40
Combo2 : 255,128,64
Combo3 : 255,128,128
Combo4 : 255,128,0

[HitObjects]
256,192,470,12,0,2286,2:0:0:0:
46,349,4220,6,0,L|137:345,1,70,0|2,3:2|2:0,2:0:0:0:
199,341,4688,1,8,2:0:0:0:
79,223,5157,2,0,P|65:181|66:130,1,70,0|2,3:2|2:0,2:0:0:0:
69,71,5626,2,0,P|98:37|143:13,1,70,8|0,2:0|3:2,2:0:0:0:
203,23,6095,2,0,P|266:48|359:44,1,140,0|8,3:2|2:0,2:0:0:0:
502,16,7032,2,0,P|512:101|490:162,1,140,0|8,3:2|2:0,2:0:0:0:
423,194,7735,1,2,2:0:0:0:
341,181,7970,6,0,L|194:189,1,140,0|8,3:2|2:0,2:0:0:0:
33,195,8907,1,0,3:2:0:0:
97,350,9376,1,8,2:0:0:0:
177,326,9610,1,2,2:0:0:0:
257,302,9845,2,0,L|260:148,2,140,0|8|0,3:2|2:0|3:2,2:0:0:0:
327,348,11016,1,2,2:0:0:0:
397,302,11251,2,0,P|402:267|398:232,1,70,8|10,2:0|2:0,2:0:0:0:
355,159,11720,6,0,P|345:84|365:17,1,140,2|8,3:2|2:0,2:0:0:0:
499,120,12657,2,0,L|496:282,1,140,0|8,3:2|2:0,2:0:0:0:
355,353,13595,2,0,B|323:369|323:369|185:363,2,140,0|0|0,3:2|3:2|3:2,2:0:0:0:
226,245,15001,2,0,L|127:240,1,70,0|2,3:2|3:2,2:0:0:0:
71,236,15470,5,2,3:2:0:0:
71,236,15938,1,8,2:0:0:0:
178,365,16407,1,0,3:2:0:0:
178,365,16875,1,8,2:0:0:0:
339,320,17345,5,8,3:2:0:0:
422,327,17579,1,8,3:2:0:0:
429,244,17813,1,8,3:2:0:0:
346,237,18048,1,8,3:2:0:0:
263,230,18282,2,0,L|91:216,1,140,4|0,2:0|3:2,2:0:0:0:
7,96,19220,6,0,L|97:88,1,70,4|2,3:2|2:0,2:0:0:0:
160,81,19688,1,8,2:0:0:0:
300,173,20157,2,0,L|387:177,1,70,0|2,3:2|2:0,2:0:0:0:
440,129,20626,2,0,P|449:93|443:59,1,70,8|0,2:0|3:2,2:0:0:0:
372,16,21095,2,0,L|212:22,1,140,0|8,3:2|2:0,2:0:0:0:
64,9,22032,2,0,P|46:78|75:155,1,140,0|8,3:2|2:0,2:0:0:0:
167,275,22970,6,0,P|206:264|249:262,1,70,0|2,3:2|2:0,2:0:0:0:
317,277,23438,2,0,P|410:299|463:286,2,140,8|0|2,2:0|3:2|3:2,2:0:0:0:
220,138,24845,6,0,P|215:100|221:55,1,70,0|2,3:2|2:0,2:0:0:0:
286,15,25313,2,0,P|322:11|369:16,1,70,8|2,2:0|2:0,2:0:0:0:
421,66,25782,2,0,L|421:214,1,140,0|8,3:2|2:0,2:0:0:0:
420,290,26485,1,10,2:0:0:0:
343,325,26720,2,0,P|273:316|189:330,1,140,2|8,3:2|2:0,2:0:0:0:
44,376,27657,2,0,B|32:342|32:342|45:219,1,140,2|10,3:2|2:0,2:0:0:0:
19,71,28595,2,0,P|83:56|169:70,1,140,0|0,3:2|3:2,2:0:0:0:
301,149,29532,2,0,B|330:161|330:161|457:155,1,140,0|0,3:2|3:2,2:0:0:0:
329,27,30470,5,2,3:2:0:0:
329,27,30938,1,8,2:0:0:0:
217,152,31407,1,0,3:2:0:0:
217,152,31875,1,8,2:0:0:0:
50,128,32345,5,8,3:2:0:0:
56,44,32579,1,8,3:2:0:0:
140,50,32813,1,8,3:2:0:0:
134,134,33048,1,8,3:2:0:0:
128,218,33282,2,0,L|119:366,1,140,4|0,2:0|3:2,2:0:0:0:
266,276,34220,6,0,L|257:128,1,140,4|8,3:2|2:0,2:0:0:0:
390,33,35157,2,0,L|395:134,1,70,0|2,3:2|2:0,2:0:0:0:
458,156,35626,1,8,2:0:0:0:
491,320,36095,2,0,B|468:331|468:331|334:322,1,140,0|8,3:2|2:0,2:0:0:0:
209,237,37032,1,0,3:2:0:0:
61,317,37501,1,8,2:0:0:0:
7,157,37970,6,0,L|12:72,1,70,0|2,3:2|2:0,2:0:0:0:
50,13,38438,1,8,2:0:0:0:
194,107,38907,2,0,L|285:111,1,70,0|2,3:2|2:0,2:0:0:0:
347,116,39376,1,8,2:0:0:0:
500,47,39845,2,0,P|516:118|499:191,1,140,0|8,3:2|2:0,2:0:0:0:
411,323,40782,2,0,L|328:329,1,70,0|2,3:2|3:2,2:0:0:0:
263,360,41251,2,0,L|180:354,1,70,8|2,2:0|3:2,2:0:0:0:
110,370,41720,6,0,P|90:308|111:227,1,140,4|8,3:2|2:0,2:0:0:0:
268,196,42657,2,0,L|347:203,1,70,0|2,3:2|2:0,2:0:0:0:
421,212,43126,1,8,2:0:0:0:
319,78,43595,2,0,L|152:88,1,140,0|8,3:2|2:0,2:0:0:0:
33,3,44532,1,0,3:2:0:0:
21,170,45001,1,8,2:0:0:0:
9,337,45470,6,0,L|87:324,1,70,0|2,3:2|2:0,2:0:0:0:
137,266,45938,1,8,2:0:0:0:
282,349,46407,2,0,L|360:336,1,70,0|2,3:2|2:0,2:0:0:0:
423,379,46875,1,8,2:0:0:0:
504,232,47345,2,0,L|493:76,1,140,0|8,3:2|2:0,2:0:0:0:
345,13,48282,2,0,P|310:11|277:22,1,70,0|2,3:2|3:2,2:0:0:0:
225,88,48751,2,0,L|233:185,1,70,8|2,2:0|3:2,2:0:0:0:
256,192,49220,12,0,56485,2:0:0:0:
