osu file format v14

[General]
AudioFilename: staywithme.mp3
AudioLeadIn: 0
PreviewTime: 18751
Countdown: 0
SampleSet: Soft
StackLeniency: 0.5
Mode: 0
LetterboxInBreaks: 0
WidescreenStoryboard: 0

[Editor]
DistanceSpacing: 0.4
BeatDivisor: 4
GridSize: 32
TimelineZoom: 2

[Metadata]
Title:stay with me
TitleUnicode:stay with me
Artist:AcesToAces
ArtistUnicode:AcesToAces
Creator:piroshki
Version:Light Insane
Source:
Tags:miki matsubara future funk japanese aye1337 grandweek
BeatmapID:2161172
BeatmapSetID:793868

[Difficulty]
HPDrainRate:5
CircleSize:5.2
OverallDifficulty:6
ApproachRate:8
SliderMultiplier:1.4
SliderTickRate:1

[Events]
//Background and Video events
0,0,"bg.jpg",0,0
//Break Periods
//Storyboard Layer 0 (Background)
//Storyboard Layer 1 (Fail)
//Storyboard Layer 2 (Pass)
//Storyboard Layer 3 (Foreground)
//Storyboard Layer 4 (Overlay)
//Storyboard Sound Samples

[TimingPoints]
470,468.75,4,2,1,60,1,0
2286,-100,4,2,1,5,0,0
4220,-100,4,2,1,60,0,0
13477,-100,4,2,1,5,0,0
13595,-142.857142857143,4,2,1,60,0,0
15470,-142.857142857143,4,2,1,30,0,0
15704,-142.857142857143,4,2,1,20,0,0
15938,-142.857142857143,4,2,1,15,0,0
16407,-142.857142857143,4,2,1,20,0,0
17109,-142.857142857143,4,2,1,30,0,0
17345,-142.857142857143,4,2,1,60,0,0
18282,-100,4,2,1,60,0,0
24376,-100,4,2,1,20,0,0
24845,-100,4,2,1,60,0,0
30470,-142.857142857143,4,2,1,15,0,0
32345,-142.857142857143,4,2,1,60,0,0
33282,-100,4,2,1,60,0,0
45469,-100,4,2,1,20,0,0
48985,-100,4,2,1,15,0,0
49337,-100,4,2,1,10,0,0
56485,-100,4,2,1,5,0,0

[Colours]
Combo1 : 255,40,40
Combo2 : 255,128,64
Combo3 : 255,128,128
Combo4 : 255,128,0

[HitObjects]
256,192,470,12,0,2286,2:0:0:0:
123,55,4220,6,0,P|114:88|119:123,1,70,0|0,3:2|2:0,2:0:0:0:
241,116,4688,2,0,P|244:81|233:48,1,70,8|2,2:0|2:0,2:0:0:0:
100,85,5157,2,0,P|102:119|119:151,1,70,0|0,3:2|2:0,2:0:0:0:
258,82,5626,1,8,2:0:0:0:
255,64,5743,1,0,3:2:0:0:
250,48,5860,1,0,3:2:0:0:
240,33,5977,1,0,3:2:0:0:
226,19,6095,6,0,L|234:132,1,105,0|0,3:2|2:0,2:0:0:0:
192,184,6563,2,0,P|224:196|258:192,1,70,8|2,2:0|2:0,2:0:0:0:
277,204,6915,1,0,2:0:0:0:
294,215,7032,2,0,P|360:193|401:203,1,105,0|0,3:2|2:0,2:0:0:0:
408,214,7501,1,8,2:0:0:0:
422,229,7618,1,0,2:0:0:0:
459,59,7852,1,0,2:0:0:0:
470,76,7970,6,0,L|462:154,1,70,0|2,3:2|2:0,2:0:0:0:
489,223,8438,2,0,L|481:301,1,70,8|2,2:0|2:0,2:0:0:0:
426,371,8907,2,0,P|399:348|366:335,1,70,0|2,3:2|2:0,2:0:0:0:
245,355,9376,1,8,2:0:0:0:
357,312,9610,1,2,2:0:0:0:
120,269,9845,6,0,L|127:338,1,70,0|2,3:2|2:0,2:0:0:0:
230,371,10313,2,0,L|240:266,1,105,8|0,2:0|2:0,2:0:0:0:
231,247,10782,1,0,3:2:0:0:
304,64,11016,1,2,2:0:0:0:
310,98,11134,1,0,3:2:0:0:
316,132,11251,1,8,2:0:0:0:
383,80,11485,1,10,2:0:0:0:
254,174,11720,6,0,P|221:160|187:155,1,70,2|2,3:2|2:0,2:0:0:0:
175,142,12071,1,0,2:0:0:0:
161,130,12188,2,0,P|126:125|96:142,1,70,8|2,2:0|2:0,2:0:0:0:
7,215,12657,1,0,3:2:0:0:
16,237,12774,1,2,2:0:0:0:
25,259,12891,1,2,2:0:0:0:
34,281,13009,1,2,2:0:0:0:
43,303,13126,2,0,L|53:188,1,105,8|0,2:0|2:0,2:0:0:0:
29,133,13595,6,0,L|33:84,1,48.9999985046387,0|0,3:2|2:0,2:0:0:0:
177,14,14063,2,0,L|181:62,1,48.9999985046387,0|0,3:2|2:0,2:0:0:0:
29,133,14532,2,0,L|33:84,1,48.9999985046387,0|0,3:2|2:0,2:0:0:0:
177,14,15001,1,0,3:2:0:0:
177,26,15118,1,0,3:2:0:0:
178,38,15235,1,2,3:2:0:0:
178,50,15352,1,2,3:2:0:0:
179,60,15470,6,0,L|238:66,1,48.9999985046387,2|0,3:2|2:0,2:0:0:0:
216,156,15938,2,0,L|167:151,1,48.9999985046387,8|0,2:0|2:0,2:0:0:0:
179,60,16407,2,0,L|238:66,1,48.9999985046387,0|0,3:2|2:0,2:0:0:0:
216,156,16875,2,0,L|167:151,1,48.9999985046387,8|0,2:0|2:0,2:0:0:0:
93,94,17345,5,8,3:2:0:0:
293,117,17579,1,8,3:2:0:0:
25,141,17813,1,8,3:2:0:0:
225,164,18047,1,8,3:2:0:0:
39,51,18282,6,0,P|67:29|101:24,1,70,4|0,2:0|3:2,2:0:0:0:
119,33,18634,1,8,3:2:0:0:
134,41,18751,1,0,3:2:0:0:
17,40,18985,1,0,3:2:0:0:
328,46,19220,6,0,P|337:79|332:114,1,70,4|0,3:2|2:0,2:0:0:0:
210,107,19688,2,0,P|207:72|218:39,1,70,8|2,2:0|2:0,2:0:0:0:
351,76,20157,2,0,P|349:110|332:142,1,70,0|0,3:2|2:0,2:0:0:0:
193,73,20626,1,8,2:0:0:0:
196,55,20743,1,0,3:2:0:0:
201,39,20860,1,0,3:2:0:0:
211,24,20977,1,0,3:2:0:0:
225,10,21095,6,0,P|228:64|217:123,1,105,0|0,3:2|2:0,2:0:0:0:
157,146,21563,2,0,P|179:174|212:186,1,70,8|2,2:0|2:0,2:0:0:0:
225,197,21915,1,0,2:0:0:0:
238,207,22032,2,0,P|267:187|301:180,1,70,0|0,3:2|2:0,2:0:0:0:
377,265,22501,2,0,P|383:230|402:201,1,70,8|2,2:0|2:0,2:0:0:0:
419,199,22852,1,0,2:0:0:0:
436,196,22970,6,0,P|460:151|460:99,1,105,0|0,3:2|2:0,2:0:0:0:
507,49,23438,2,0,P|476:32|440:33,1,70,8|2,2:0|2:0,2:0:0:0:
371,96,23907,2,0,P|340:112|303:114,1,70,0|0,3:2|2:0,2:0:0:0:
320,41,24376,1,2,3:2:0:0:
320,41,24610,1,2,2:0:0:0:
240,153,24845,6,0,P|232:119|239:85,1,70,0|2,3:2|2:0,2:0:0:0:
341,178,25313,2,0,P|347:212|340:245,1,70,8|2,2:0|2:0,2:0:0:0:
349,260,25665,1,0,2:0:0:0:
360,272,25782,2,0,L|290:264,1,70,0|2,3:2|2:0,2:0:0:0:
277,276,26134,1,0,3:2:0:0:
263,287,26251,2,0,L|193:279,1,70,8|10,2:0|2:0,2:0:0:0:
235,210,26720,5,2,3:2:0:0:
129,317,26954,1,2,2:0:0:0:
122,300,27071,1,0,2:0:0:0:
116,283,27188,2,0,P|83:270|48:270,1,70,8|0,2:0|2:0,2:0:0:0:
208,367,27657,1,0,3:2:0:0:
230,377,27774,1,2,2:0:0:0:
254,381,27891,1,2,2:0:0:0:
278,376,28009,1,2,2:0:0:0:
300,365,28126,2,0,L|292:260,1,105,10|0,2:0|2:0,2:0:0:0:
236,212,28595,5,0,3:2:0:0:
264,186,28712,1,0,3:2:0:0:
302,183,28829,1,2,3:2:0:0:
338,197,28946,1,0,3:2:0:0:
359,229,29063,2,0,L|365:301,1,70,0|2,3:2|2:0,2:0:0:0:
476,357,29532,5,0,3:2:0:0:
465,289,29708,1,0,3:2:0:0:
450,218,29884,2,0,L|443:167,1,35,0|0,3:2|3:2,2:0:0:0:
493,72,30235,1,2,3:2:0:0:
486,98,30352,1,0,3:2:0:0:
479,124,30470,6,0,L|422:113,1,48.9999985046387,2|0,3:2|2:0,2:0:0:0:
457,0,30938,2,0,L|505:9,1,48.9999985046387,8|0,2:0|2:0,2:0:0:0:
479,124,31407,2,0,L|422:113,1,48.9999985046387,0|0,3:2|2:0,2:0:0:0:
457,0,31875,2,0,L|505:9,1,48.9999985046387,8|0,2:0|2:0,2:0:0:0:
327,33,32345,5,8,3:2:0:0:
512,71,32579,1,8,3:2:0:0:
245,76,32813,1,8,3:2:0:0:
430,114,33047,1,8,3:2:0:0:
190,33,33282,6,0,P|177:66|180:100,1,70,4|0,2:0|3:2,2:0:0:0:
189,115,33634,1,8,3:2:0:0:
197,130,33751,2,0,L|190:218,1,70,0|0,3:2|3:2,2:0:0:0:
152,291,34220,6,0,P|186:278|220:283,1,70,4|2,3:2|2:0,2:0:0:0:
89,361,34688,2,0,P|54:373|20:368,1,70,8|2,2:0|2:0,2:0:0:0:
10,355,35040,1,2,2:0:0:0:
1,339,35157,2,0,L|10:259,1,70,0|2,3:2|2:0,2:0:0:0:
48,201,35626,2,0,L|59:96,1,105,8|0,2:0|2:0,2:0:0:0:
49,82,36095,6,0,P|79:63|113:61,1,70,0|2,3:2|2:0,2:0:0:0:
128,51,36446,1,0,2:0:0:0:
143,43,36563,2,0,L|135:120,1,70,8|2,2:0|2:0,2:0:0:0:
144,127,36915,1,2,2:0:0:0:
154,141,37032,1,0,3:2:0:0:
208,64,37266,2,0,L|210:27,2,35,2|0|8,2:0|2:0|2:0,2:0:0:0:
211,189,37735,6,0,P|183:210|149:215,1,70,2|0,2:0|3:2,2:0:0:0:
133,206,38087,1,2,2:0:0:0:
279,214,38321,1,2,2:0:0:0:
417,226,38555,1,2,2:0:0:0:
267,198,38790,1,2,2:0:0:0:
279,214,38907,2,0,L|272:287,1,70,0|2,3:2|2:0,2:0:0:0:
390,341,39376,2,0,L|400:236,1,105,8|2,2:0|2:0,2:0:0:0:
417,226,39845,6,0,L|424:157,2,70,0|2|8,3:2|2:0|2:0,2:0:0:0:
488,64,40548,1,2,2:0:0:0:
474,79,40665,1,2,2:0:0:0:
460,94,40782,2,0,L|375:84,1,70,0|2,3:2|3:2,2:0:0:0:
272,26,41251,1,8,2:0:0:0:
374,95,41485,1,2,3:2:0:0:
204,4,41720,6,0,P|201:38|215:70,1,70,4|2,3:2|2:0,2:0:0:0:
229,79,42071,1,0,2:0:0:0:
243,89,42188,2,0,L|230:180,1,70,8|2,2:0|2:0,2:0:0:0:
240,174,42540,1,2,2:0:0:0:
248,189,42657,1,0,3:2:0:0:
310,143,42891,1,2,2:0:0:0:
181,225,43126,6,0,L|197:339,1,105,8|2,2:0|2:0,2:0:0:0:
207,341,43595,2,0,P|180:363|145:365,1,70,0|2,3:2|2:0,2:0:0:0:
128,368,43946,1,0,2:0:0:0:
110,369,44063,2,0,P|83:337|78:302,1,70,8|2,2:0|2:0,2:0:0:0:
61,302,44415,1,2,2:0:0:0:
44,295,44532,1,0,3:2:0:0:
146,222,44766,6,0,L|186:225,2,35,2|0|8,2:0|2:0|2:0,2:0:0:0:
130,152,45235,2,0,L|199:157,1,70,0|2,2:0|3:2,2:0:0:0:
213,146,45587,1,2,2:0:0:0:
252,84,45821,1,2,2:0:0:0:
206,23,46055,1,2,2:0:0:0:
262,92,46290,1,2,2:0:0:0:
273,100,46407,2,0,L|348:93,1,70,2|2,3:2|2:0,2:0:0:0:
403,46,46876,2,0,P|420:95|400:143,1,105,8|2,2:0|2:0,2:0:0:0:
393,154,47345,6,0,L|403:234,1,70,0|2,3:2|2:0,2:0:0:0:
503,216,47813,2,0,L|494:146,1,70,8|2,2:0|2:0,2:0:0:0:
443,107,48282,1,0,3:2:0:0:
443,107,48516,1,2,3:2:0:0:
462,272,48751,1,8,2:0:0:0:
462,272,48985,1,2,3:2:0:0:
449,185,49220,5,0,2:0:0:0:
256,192,49337,12,0,56485,2:0:0:0:
