osu file format v14

[General]
AudioFilename: staywithme.mp3
AudioLeadIn: 0
PreviewTime: 18751
Countdown: 0
SampleSet: Soft
StackLeniency: 0.5
Mode: 0
LetterboxInBreaks: 0
WidescreenStoryboard: 0

[Editor]
DistanceSpacing: 0.4
BeatDivisor: 4
GridSize: 32
TimelineZoom: 1.4

[Metadata]
Title:stay with me
TitleUnicode:stay with me
Artist:AcesToAces
ArtistUnicode:AcesToAces
Creator:piroshki
Version:Hard
Source:
Tags:miki matsubara future funk japanese aye1337 grandweek
BeatmapID:2161171
BeatmapSetID:793868

[Difficulty]
HPDrainRate:4
CircleSize:4.2
OverallDifficulty:5
ApproachRate:7
SliderMultiplier:1.4
SliderTickRate:1

[Events]
//Background and Video events
0,0,"bg.jpg",0,0
//Break Periods
//Storyboard Layer 0 (Background)
//Storyboard Layer 1 (Fail)
//Storyboard Layer 2 (Pass)
//Storyboard Layer 3 (Foreground)
//Storyboard Layer 4 (Overlay)
//Storyboard Sound Samples

[TimingPoints]
470,468.75,4,2,1,60,1,0
2286,-100,4,2,1,5,0,0
4220,-100,4,2,1,60,0,0
13477,-100,4,2,1,5,0,0
13595,-125,4,2,1,60,0,0
15470,-125,4,2,1,30,0,0
15704,-125,4,2,1,20,0,0
15938,-125,4,2,1,15,0,0
16407,-125,4,2,1,20,0,0
17109,-125,4,2,1,30,0,0
17345,-125,4,2,1,60,0,0
18751,-100,4,2,1,60,0,0
24376,-100,4,2,1,20,0,0
24845,-100,4,2,1,60,0,0
30470,-100,4,2,1,15,0,0
32345,-100,4,2,1,60,0,0
45470,-100,4,2,1,20,0,0
48985,-100,4,2,1,15,0,0
49454,-100,4,2,1,10,0,0
56485,-100,4,2,1,5,0,0

[Colours]
Combo1 : 255,40,40
Combo2 : 255,128,64
Combo3 : 255,128,128
Combo4 : 255,128,0

[HitObjects]
256,192,470,12,0,2286,2:0:0:0:
67,141,4220,6,0,L|136:146,1,70,0|0,3:2|2:0,2:0:0:0:
129,242,4688,2,0,L|59:236,1,70,8|2,2:0|2:0,2:0:0:0:
211,210,5157,2,0,P|217:244|207:277,1,70,0|0,3:2|2:0,2:0:0:0:
144,322,5626,1,8,2:0:0:0:
155,334,5743,1,0,3:2:0:0:
167,346,5860,1,0,3:2:0:0:
179,358,5977,1,0,3:2:0:0:
192,369,6095,6,0,L|266:354,1,70,0|2,3:2|2:0,2:0:0:0:
318,291,6563,2,0,P|346:272|381:270,1,70,8|2,2:0|2:0,2:0:0:0:
464,308,7032,2,0,P|467:239|422:188,1,140,0|8,3:2|2:0,2:0:0:0:
422,170,7618,1,0,2:0:0:0:
455,79,7852,1,0,2:0:0:0:
463,94,7970,6,0,L|387:87,1,70,0|2,3:2|2:0,2:0:0:0:
318,32,8438,2,0,P|283:28|249:36,1,70,8|2,2:0|2:0,2:0:0:0:
165,16,8907,2,0,P|137:37|120:67,1,70,0|2,3:2|2:0,2:0:0:0:
127,153,9376,1,8,2:0:0:0:
44,115,9610,1,2,2:0:0:0:
129,173,9845,6,0,P|158:153|193:148,1,70,0|2,3:2|2:0,2:0:0:0:
254,261,10313,2,0,P|219:255|190:236,1,70,8|0,2:0|2:0,2:0:0:0:
332,211,10782,2,0,P|344:243|341:278,1,70,0|2,3:2|2:0,2:0:0:0:
352,292,11134,1,0,3:2:0:0:
363,304,11251,2,0,P|333:323|299:330,1,70,8|10,2:0|2:0,2:0:0:0:
231,376,11720,6,0,P|193:342|142:331,1,105,2|0,3:2|2:0,2:0:0:0:
129,343,12188,1,8,2:0:0:0:
87,268,12423,1,2,2:0:0:0:
45,189,12657,2,0,L|49:143,3,35,0|2|2|2,3:2|2:0|2:0|2:0,2:0:0:0:
41,137,13126,2,0,P|85:109|143:118,1,105,8|0,2:0|2:0,2:0:0:0:
148,108,13595,6,0,L|154:163,1,56,0|0,3:2|2:0,2:0:0:0:
234,155,14063,2,0,L|227:99,1,56,0|0,3:2|2:0,2:0:0:0:
306,90,14532,2,0,L|312:145,1,56,0|0,3:2|2:0,2:0:0:0:
392,135,15001,1,0,3:2:0:0:
390,121,15118,1,0,3:2:0:0:
388,107,15235,1,2,3:2:0:0:
387,93,15352,1,2,3:2:0:0:
385,77,15470,6,0,L|392:16,1,56,2|0,3:2|2:0,2:0:0:0:
470,119,15938,2,0,L|463:174,1,56,8|0,2:0|2:0,2:0:0:0:
385,77,16407,2,0,L|392:16,1,56,0|0,3:2|2:0,2:0:0:0:
470,119,16875,2,0,L|463:174,1,56,8|0,2:0|2:0,2:0:0:0:
509,255,17345,5,8,3:2:0:0:
461,318,17579,1,8,3:2:0:0:
379,312,17813,1,8,3:2:0:0:
338,240,18048,1,8,3:2:0:0:
424,249,18282,1,4,2:0:0:0:
379,312,18516,1,0,3:2:0:0:
370,327,18634,1,8,3:2:0:0:
360,341,18751,2,0,L|282:334,1,70,0|0,3:2|3:2,2:0:0:0:
208,362,19220,6,0,L|130:355,1,70,4|0,3:2|2:0,2:0:0:0:
63,378,19688,2,0,P|50:345|51:310,1,70,8|2,2:0|2:0,2:0:0:0:
0,251,20157,2,0,P|13:219|39:195,1,70,0|0,3:2|2:0,2:0:0:0:
116,176,20626,1,8,2:0:0:0:
132,182,20743,1,0,3:2:0:0:
147,189,20860,1,0,3:2:0:0:
162,196,20977,1,0,3:2:0:0:
177,201,21095,6,0,P|198:172|205:138,1,70,0|2,3:2|2:0,2:0:0:0:
267,80,21563,2,0,P|252:48|226:25,1,70,8|2,2:0|2:0,2:0:0:0:
154,0,22032,2,0,P|124:18|90:23,1,70,0|0,3:2|2:0,2:0:0:0:
6,0,22501,2,0,L|20:103,1,105,8|0,2:0|2:0,2:0:0:0:
14,120,22970,6,0,L|26:196,1,70,0|0,3:2|2:0,2:0:0:0:
4,266,23438,2,0,P|38:268|70:255,1,70,8|2,2:0|2:0,2:0:0:0:
137,214,23907,2,0,P|171:211|203:224,1,70,0|0,3:2|2:0,2:0:0:0:
162,297,24376,1,2,3:2:0:0:
162,297,24610,1,2,2:0:0:0:
231,348,24845,6,0,L|314:333,1,70,0|2,3:2|2:0,2:0:0:0:
378,380,25313,2,0,P|391:348|390:314,1,70,8|2,2:0|2:0,2:0:0:0:
399,298,25665,1,0,2:0:0:0:
408,283,25782,2,0,L|392:213,1,70,0|2,3:2|2:0,2:0:0:0:
401,199,26134,1,0,3:2:0:0:
410,182,26251,2,0,L|340:190,1,70,8|10,2:0|2:0,2:0:0:0:
311,101,26720,6,0,L|415:89,1,105,2|0,3:2|2:0,2:0:0:0:
428,77,27188,1,8,2:0:0:0:
499,146,27423,1,0,2:0:0:0:
481,239,27657,2,0,L|493:295,3,35,2|2|2|2,3:2|2:0|2:0|2:0,2:0:0:0:
499,286,28126,2,0,P|472:309|438:315,1,70,10|0,2:0|2:0,2:0:0:0:
365,355,28595,1,0,3:2:0:0:
349,346,28712,1,0,3:2:0:0:
334,336,28829,1,2,3:2:0:0:
319,326,28946,1,0,3:2:0:0:
303,316,29063,6,0,L|219:329,1,70,0|2,3:2|2:0,2:0:0:0:
159,288,29532,2,0,P|149:318|155:353,2,52.5,0|0|0,3:2|3:2|3:2,2:0:0:0:
172,276,30001,2,0,L|180:196,1,70,0|2,3:2|3:2,2:0:0:0:
139,127,30470,6,0,L|208:116,1,70,2|0,3:2|2:0,2:0:0:0:
205,26,30938,2,0,L|135:36,1,70,8|0,2:0|2:0,2:0:0:0:
139,127,31407,2,0,L|208:116,1,70,0|0,3:2|2:0,2:0:0:0:
205,26,31876,2,0,L|135:36,1,70,8|0,2:0|2:0,2:0:0:0:
49,5,32345,5,8,3:2:0:0:
37,86,32579,1,8,3:2:0:0:
25,167,32813,1,8,3:2:0:0:
13,248,33048,1,8,3:2:0:0:
0,328,33282,2,0,P|31:345|66:348,1,70,4|0,2:0|3:2,2:0:0:0:
81,357,33634,1,8,3:2:0:0:
96,362,33751,2,0,P|126:343|160:336,1,70,0|0,3:2|3:2,2:0:0:0:
216,280,34220,6,0,P|250:286|280:302,1,70,4|2,3:2|2:0,2:0:0:0:
373,366,34688,2,0,P|361:333|360:298,1,70,8|2,2:0|2:0,2:0:0:0:
373,286,35040,1,2,2:0:0:0:
384,272,35157,2,0,P|395:239|396:204,1,70,0|2,3:2|2:0,2:0:0:0:
330,151,35626,2,0,P|314:101|326:49,1,105,8|0,2:0|2:0,2:0:0:0:
341,42,36095,6,0,P|410:29|494:29,2,140,0|8|0,3:2|2:0|3:2,2:0:0:0:
263,15,37266,1,2,2:0:0:0:
254,30,37384,2,0,P|206:54|152:48,1,105,0|2,2:0|2:0,2:0:0:0:
88,11,37970,5,0,3:2:0:0:
88,11,38087,1,2,2:0:0:0:
43,85,38321,1,2,2:0:0:0:
80,168,38555,1,2,2:0:0:0:
49,248,38790,1,2,2:0:0:0:
49,248,38907,1,0,3:2:0:0:
115,298,39141,1,2,2:0:0:0:
180,348,39376,2,0,L|248:335,1,70,8|2,2:0|2:0,2:0:0:0:
336,369,39845,6,0,P|366:351|400:346,1,70,0|2,3:2|2:0,2:0:0:0:
503,372,40313,2,0,P|488:340|485:305,1,70,8|2,2:0|2:0,2:0:0:0:
493,290,40665,1,2,2:0:0:0:
499,273,40782,2,0,P|504:238|495:204,1,70,0|2,3:2|3:2,2:0:0:0:
436,146,41251,1,8,2:0:0:0:
363,165,41485,1,2,3:2:0:0:
290,186,41720,6,0,L|199:172,1,70,4|2,3:2|2:0,2:0:0:0:
154,213,42188,2,0,L|84:202,1,70,8|2,2:0|2:0,2:0:0:0:
68,207,42540,1,2,2:0:0:0:
51,213,42657,2,0,L|55:143,1,70,0|2,3:2|2:0,2:0:0:0:
0,78,43126,2,0,P|48:58|100:71,1,105,8|2,2:0|2:0,2:0:0:0:
109,84,43595,2,0,L|254:64,2,140,0|8|0,3:2|2:0|3:2,2:0:0:0:
28,94,44766,1,2,2:0:0:0:
19,109,44884,2,0,L|31:218,1,105,0|0,2:0|2:0,2:0:0:0:
47,289,45470,5,2,3:2:0:0:
47,289,45587,1,2,2:0:0:0:
125,321,45821,1,2,2:0:0:0:
199,293,46055,1,2,2:0:0:0:
275,326,46290,1,2,2:0:0:0:
275,326,46407,1,2,3:2:0:0:
345,298,46641,1,2,2:0:0:0:
356,223,46876,2,0,L|329:105,1,105,8|2,2:0|2:0,2:0:0:0:
316,111,47345,6,0,P|339:84|371:71,1,70,0|2,3:2|2:0,2:0:0:0:
418,8,47813,2,0,P|452:14|479:35,1,70,8|2,2:0|2:0,2:0:0:0:
508,111,48282,1,0,3:2:0:0:
508,111,48516,1,2,3:2:0:0:
488,186,48751,1,8,2:0:0:0:
488,186,48985,1,2,3:2:0:0:
431,130,49220,5,0,2:0:0:0:
256,192,49454,12,0,56485,2:0:0:0:
