osu file format v14

[General]
AudioFilename: staywithme.mp3
AudioLeadIn: 0
PreviewTime: 18751
Countdown: 0
SampleSet: Soft
StackLeniency: 0.5
Mode: 0
LetterboxInBreaks: 0
WidescreenStoryboard: 0

[Editor]
DistanceSpacing: 1
BeatDivisor: 4
GridSize: 32
TimelineZoom: 1.4

[Metadata]
Title:stay with me
TitleUnicode:stay with me
Artist:AcesToAces
ArtistUnicode:AcesToAces
Creator:piroshki
Version:Easy
Source:
Tags:miki matsubara future funk japanese aye1337 grandweek
BeatmapID:2161181
BeatmapSetID:793868

[Difficulty]
HPDrainRate:2
CircleSize:2.5
OverallDifficulty:2
ApproachRate:3
SliderMultiplier:0.9
SliderTickRate:1

[Events]
//Background and Video events
0,0,"bg.jpg",0,0
//Break Periods
//Storyboard Layer 0 (Background)
//Storyboard Layer 1 (Fail)
//Storyboard Layer 2 (Pass)
//Storyboard Layer 3 (Foreground)
//Storyboard Layer 4 (Overlay)
//Storyboard Sound Samples

[TimingPoints]
470,468.75,4,2,1,60,1,0
2286,-100,4,2,1,5,0,0
4220,-100,4,2,1,60,0,0
15470,-100,4,2,1,30,0,0
15938,-100,4,2,1,15,0,0
16407,-100,4,2,1,20,0,0
17345,-100,4,2,1,60,0,0
24376,-100,4,2,1,20,0,0
24845,-100,4,2,1,60,0,0
30470,-100,4,2,1,15,0,0
32345,-100,4,2,1,60,0,0
45470,-100,4,2,1,20,0,0
49220,-100,4,2,1,15,0,0
56485,-100,4,2,1,5,0,0

[Colours]
Combo1 : 255,40,40
Combo2 : 255,128,64
Combo3 : 255,128,128
Combo4 : 255,128,0

[HitObjects]
256,192,470,12,0,2286,2:0:0:0:
12,302,4220,6,0,L|200:316,1,180,0|0,3:2|3:2,0:0:0:0:
262,371,5626,1,8,2:0:0:0:
344,333,6095,2,0,L|339:227,1,90,0|8,3:2|2:0,0:0:0:0:
265,192,7032,1,0,3:2:0:0:
262,101,7501,1,8,2:0:0:0:
316,28,7970,2,0,L|405:23,2,90,0|8|0,3:2|2:0|3:2,0:0:0:0:
262,101,9376,1,8,2:0:0:0:
217,179,9845,6,0,P|136:215|52:191,1,180,0|0,3:2|3:2,0:0:0:0:
0,120,11251,1,8,2:0:0:0:
30,35,11720,2,0,L|119:41,1,90,2|8,3:2|2:0,0:0:0:0:
194,90,12657,2,0,L|283:96,1,90,0|8,3:2|2:0,0:0:0:0:
373,106,13595,2,0,P|386:148|376:192,2,90,0|0|0,3:2|3:2|3:2,0:0:0:0:
283,96,15001,1,0,3:2:0:0:
231,170,15470,5,2,3:2:0:0:
231,170,15938,1,8,2:0:0:0:
181,245,16407,1,0,3:2:0:0:
181,245,16875,1,8,2:0:0:0:
189,334,17345,6,0,B|231:358|231:358|369:343,1,180,8|4,3:2|2:0,0:0:0:0:
446,375,18751,1,0,3:2:0:0:
508,309,19220,6,0,L|484:130,1,180,4|0,3:2|3:2,0:0:0:0:
502,42,20626,1,8,2:0:0:0:
416,13,21095,2,0,P|370:6|320:26,1,90,0|8,3:2|2:0,0:0:0:0:
275,91,22032,1,0,3:2:0:0:
191,56,22501,1,8,2:0:0:0:
109,18,22970,6,0,L|9:26,2,90,0|8|0,3:2|2:0|3:2,0:0:0:0:
191,56,24376,1,2,3:2:0:0:
275,91,24845,2,0,L|270:192,1,90,0|8,3:2|2:0,0:0:0:0:
334,243,25782,1,0,3:2:0:0:
311,330,26251,1,8,2:0:0:0:
227,364,26720,6,0,P|182:342|128:340,1,90,2|8,3:2|2:0,0:0:0:0:
58,370,27657,2,0,P|34:333|31:289,1,90,2|10,3:2|2:0,0:0:0:0:
88,218,28595,2,0,P|101:169|97:123,1,90,0|0,3:2|3:2,0:0:0:0:
40,61,29532,2,0,P|81:41|125:42,1,90,0|0,3:2|3:2,0:0:0:0:
197,94,30470,5,2,3:2:0:0:
197,94,30938,1,8,2:0:0:0:
282,65,31407,1,0,3:2:0:0:
282,65,31875,1,8,2:0:0:0:
367,34,32345,2,0,P|397:109|364:202,1,180,8|4,3:2|2:0,0:0:0:0:
378,288,33751,1,0,3:2:0:0:
319,356,34220,6,0,L|223:347,1,90,4|8,3:2|2:0,0:0:0:0:
146,383,35157,1,0,3:2:0:0:
56,371,35626,1,8,2:0:0:0:
3,297,36095,2,0,L|17:208,1,90,0|8,3:2|2:0,0:0:0:0:
10,118,37032,2,0,P|46:92|90:89,1,90,0|8,3:2|2:0,0:0:0:0:
168,43,37970,5,0,3:2:0:0:
245,88,38438,1,8,2:0:0:0:
323,131,38907,2,0,L|429:120,1,90,0|8,3:2|2:0,0:0:0:0:
496,155,39845,2,0,P|504:201|486:244,1,90,0|8,3:2|2:0,0:0:0:0:
431,309,40782,1,0,3:2:0:0:
345,279,41251,1,8,2:0:0:0:
261,245,41720,6,0,L|171:253,1,90,4|8,3:2|2:0,0:0:0:0:
92,210,42657,1,0,3:2:0:0:
21,266,43126,1,8,2:0:0:0:
55,349,43595,2,0,L|162:351,1,90,0|8,3:2|2:0,0:0:0:0:
231,375,44532,2,0,L|338:377,1,90,0|8,3:2|2:0,0:0:0:0:
391,320,45470,5,0,3:2:0:0:
450,252,45938,1,8,2:0:0:0:
508,183,46407,2,0,L|497:89,1,90,0|8,3:2|2:0,0:0:0:0:
440,23,47345,2,0,L|342:33,1,90,0|8,3:2|2:0,0:0:0:0:
283,91,48282,1,0,3:2:0:0:
196,66,48751,1,8,2:0:0:0:
256,192,49220,12,0,56485,2:0:0:0:
