osu file format v14

[General]
AudioFilename: staywithme.mp3
AudioLeadIn: 0
PreviewTime: 18751
Countdown: 0
SampleSet: Soft
StackLeniency: 0.3
Mode: 0
LetterboxInBreaks: 0
WidescreenStoryboard: 0

[Editor]
DistanceSpacing: 0.4
BeatDivisor: 4
GridSize: 32
TimelineZoom: 1.9

[Metadata]
Title:stay with me
TitleUnicode:stay with me
Artist:AcesToAces
ArtistUnicode:AcesToAces
Creator:piroshki
Version:Afterglow
Source:
Tags:miki matsubara future funk japanese aye1337 grandweek
BeatmapID:2161101
BeatmapSetID:793868

[Difficulty]
HPDrainRate:6
CircleSize:6.2
OverallDifficulty:7
ApproachRate:8.8
SliderMultiplier:1.4
SliderTickRate:1

[Events]
//Background and Video events
0,0,"bg.jpg",0,0
//Break Periods
//Storyboard Layer 0 (Background)
//Storyboard Layer 1 (Fail)
//Storyboard Layer 2 (Pass)
//Storyboard Layer 3 (Foreground)
//Storyboard Layer 4 (Overlay)
//Storyboard Sound Samples

[TimingPoints]
470,468.75,4,2,1,60,1,0
2286,-100,4,2,1,5,0,0
4220,-100,4,2,1,60,0,0
4630,-100,4,2,1,5,0,0
4688,-142.857142857143,4,2,1,60,0,0
5157,-100,4,2,1,60,0,0
5567,-100,4,2,1,5,0,0
5626,-100,4,2,1,60,0,0
7970,-142.857142857143,4,2,1,60,0,0
8438,-100,4,2,1,60,0,0
8907,-76.9230769230769,4,2,1,60,0,0
9493,-100,4,2,1,5,0,0
9610,-76.9230769230769,4,2,1,60,0,0
9727,-100,4,2,1,5,0,0
9845,-76.9230769230769,4,2,1,60,0,0
10313,-142.857142857143,4,2,1,60,0,0
10723,-100,4,2,1,5,0,0
10782,-142.857142857143,4,2,1,60,0,0
11895,-100,4,2,1,5,0,0
11954,-83.3333333333334,4,2,1,60,0,0
13126,-100,4,2,1,60,0,0
13477,-100,4,2,1,5,0,0
13595,-62.5,4,2,1,60,0,0
13946,-100,4,2,1,5,0,0
14063,-62.5,4,2,1,60,0,0
14414,-62.5,4,2,1,5,0,0
14415,-100,4,2,1,5,0,0
14532,-62.5,4,2,1,60,0,0
14883,-62.5,4,2,1,5,0,0
14884,-100,4,2,1,5,0,0
15001,-62.5,4,2,1,60,0,0
15470,-62.5,4,2,1,30,0,0
15704,-62.5,4,2,1,20,0,0
15938,-200,4,2,1,15,0,0
16407,-200,4,2,1,20,0,0
17110,-200,4,2,1,30,0,0
17345,-200,4,2,1,60,0,0
18282,-100,4,2,1,60,0,0
19220,-100,4,2,1,60,0,0
19630,-100,4,2,1,5,0,0
19688,-142.857142857143,4,2,1,60,0,0
20157,-100,4,2,1,60,0,0
20567,-100,4,2,1,5,0,0
20626,-100,4,2,1,60,0,0
22383,-100,4,2,1,5,0,0
22384,-100,4,2,1,5,0,0
22501,-100,4,2,1,60,0,0
23380,-100,4,2,1,5,0,0
23438,-142.857142857143,4,2,1,60,0,0
23907,-100,4,2,1,60,0,0
24258,-100,4,2,1,5,0,0
24259,-100,4,2,1,5,0,0
24376,-100,4,2,1,20,0,0
24610,-100,4,2,1,20,0,0
24845,-100,4,2,1,60,0,0
28126,-62.5,4,2,1,60,0,0
28536,-100,4,2,1,5,0,0
28595,-62.5,4,2,1,60,0,0
29063,-166.666666666667,4,2,1,60,0,0
30001,-100,4,2,1,60,0,0
30470,-200,4,2,1,15,0,0
32345,-200,4,2,1,60,0,0
33282,-100,4,2,1,60,0,0
36036,-100,4,2,1,5,0,0
36095,-142.857142857143,4,2,1,60,0,0
37735,-90.9090909090909,4,2,1,60,0,0
39376,-100,4,2,1,60,0,0
45470,-142.857142857143,4,2,1,20,0,0
48985,-76.9230769230769,4,2,1,15,0,0
49278,-76.9230769230769,4,2,1,10,0,0
56485,-76.9230769230769,4,2,1,5,0,0

[Colours]
Combo1 : 255,40,40
Combo2 : 255,128,64
Combo3 : 255,128,128
Combo4 : 255,128,0

[HitObjects]
256,192,470,12,0,2286,0:0:0:0:
452,356,4220,6,0,P|470:295|437:245,1,122.5,0|0,3:2|0:0,0:0:0:0:
441,247,4688,2,0,L|392:254,1,48.9999985046387,8|2,0:2|0:2,0:0:0:0:
244,331,5157,2,0,L|365:313,1,122.5,0|0,3:2|0:0,0:0:0:0:
368,316,5626,5,8,0:2:0:0:
408,256,5743,1,0,3:2:0:0:
467,298,5860,1,0,3:2:0:0:
426,356,5977,1,0,3:2:0:0:
364,204,6095,6,0,P|394:188|428:191,1,70,0|2,3:2|0:2,0:0:0:0:
301,245,6563,2,0,P|266:248|235:232,1,70,8|2,0:2|0:2,0:0:0:0:
233,218,6915,1,0,0:0:0:0:
185,274,7032,2,0,P|158:227|173:178,1,105,0|0,3:2|0:0,0:0:0:0:
184,175,7501,1,8,0:2:0:0:
197,170,7618,1,0,0:0:0:0:
68,245,7852,5,0,0:0:0:0:
76,252,7970,2,0,P|82:229|74:204,1,48.9999985046387,0|2,3:2|0:2,0:0:0:0:
128,167,8438,2,0,P|102:145|65:140,1,70,8|2,0:2|0:2,0:0:0:0:
57,148,8790,1,0,0:0:0:0:
87,75,8907,2,0,P|43:77|9:106,1,90.9999958343508,0|2,3:2|0:2,0:0:0:0:
135,265,9376,6,0,P|147:246|166:233,1,45.4999979171754,8|0,0:2|0:0,0:0:0:0:
201,362,9610,2,0,P|178:360|157:350,1,45.4999979171754,2|0,0:2|0:0,0:0:0:0:
281,283,9845,2,0,P|278:326|272:376,1,90.9999958343508,0|2,3:2|0:2,0:0:0:0:
411,245,10313,2,0,P|420:289|426:334,1,85.7499973831178,8|0,0:2|0:0,0:0:0:0:
422,337,10782,1,0,3:2:0:0:
360,106,11016,1,2,0:2:0:0:
357,160,11133,1,0,3:2:0:0:
353,213,11251,1,8,0:2:0:0:
369,100,11485,1,10,0:2:0:0:
331,268,11720,6,0,L|338:311,1,36.749998878479,2|0,3:2|0:0,0:0:0:0:
337,304,11954,2,0,L|341:220,1,83.9999974365235,2|8,0:2|0:2,0:0:0:0:
408,270,12423,1,2,0:2:0:0:
219,151,12657,1,0,3:2:0:0:
239,136,12774,1,2,0:0:0:0:
263,132,12891,1,2,0:2:0:0:
286,141,13009,1,2,0:0:0:0:
300,155,13126,2,0,L|196:137,1,105,8|0,0:2|0:0,0:0:0:0:
38,67,13595,6,0,P|70:29|141:101,1,168,0|0,3:2|0:0,0:0:0:0:
107,132,14063,2,0,P|57:122|85:25,1,168,0|0,3:2|0:0,0:0:0:0:
129,40,14532,2,0,P|146:86|47:112,1,168,0|0,3:2|0:0,0:0:0:0:
0,219,15001,1,0,3:2:0:0:
64,187,15118,1,0,3:2:0:0:
96,246,15235,1,2,3:2:0:0:
32,278,15352,1,2,3:2:0:0:
0,219,15470,1,2,3:2:0:0:
192,268,15704,5,0,0:0:0:0:
133,301,15938,2,0,L|129:335,1,35,8|0,0:2|0:0,0:0:0:0:
240,378,16407,2,0,L|246:308,1,70,0|8,3:2|0:2,0:0:0:0:
187,342,17110,1,0,0:0:0:0:
340,251,17345,5,8,3:2:0:0:
125,291,17579,1,8,3:2:0:0:
410,193,17813,1,8,3:2:0:0:
195,233,18047,1,8,3:2:0:0:
460,233,18282,6,0,P|473:201|469:166,1,70,4|0,0:2|3:2,0:0:0:0:
457,159,18634,1,8,3:2:0:0:
444,153,18751,1,0,3:2:0:0:
504,271,18985,1,0,3:2:0:0:
495,116,19220,6,0,L|370:130,1,122.5,4|0,3:2|0:0,0:0:0:0:
373,129,19688,2,0,L|429:135,1,48.9999985046387,8|2,0:2|0:2,0:0:0:0:
295,143,20157,2,0,L|173:129,1,122.5,0|0,3:2|0:0,0:0:0:0:
173,129,20626,1,8,0:2:0:0:
116,87,20743,1,0,3:2:0:0:
71,148,20860,1,0,3:2:0:0:
128,190,20977,1,0,3:2:0:0:
133,23,21095,6,0,P|99:23|69:40,1,70,0|2,3:2|0:2,0:0:0:0:
176,132,21563,2,0,P|207:144|241:137,1,70,8|2,0:2|0:2,0:0:0:0:
328,215,22032,2,0,L|335:100,1,105,0|0,3:2|0:0,0:0:0:0:
286,68,22501,2,0,P|316:48|350:49,1,70,8|2,0:2|0:2,0:0:0:0:
480,166,22970,6,0,P|429:158|399:89,1,122.5,0|0,3:2|0:0,0:0:0:0:
397,100,23438,2,0,L|394:152,1,48.9999985046387,8|2,0:2|0:2,0:0:0:0:
388,156,23790,1,0,0:0:0:0:
430,236,23907,2,0,L|422:340,1,105,0|0,3:2|0:0,0:0:0:0:
473,372,24376,5,2,3:2:0:0:
481,371,24610,1,2,0:2:0:0:
368,309,24845,6,0,L|297:316,1,70,0|2,3:2|0:2,0:0:0:0:
140,254,25313,2,0,L|210:261,1,70,8|2,0:2|0:2,0:0:0:0:
214,274,25665,1,0,0:0:0:0:
218,287,25782,1,0,3:2:0:0:
90,206,26016,1,2,0:2:0:0:
97,154,26133,1,0,3:2:0:0:
104,102,26250,1,8,0:2:0:0:
81,213,26485,1,10,0:2:0:0:
62,53,26720,6,0,P|94:38|128:41,1,70,2|2,3:2|0:2,0:0:0:0:
205,47,27071,1,0,0:0:0:0:
190,42,27188,2,0,P|227:77|278:86,1,105,10|0,0:2|0:0,0:0:0:0:
381,126,27657,1,0,3:2:0:0:
393,109,27774,1,2,0:0:0:0:
399,89,27891,1,2,0:2:0:0:
393,68,28009,1,2,0:0:0:0:
378,50,28126,2,0,L|398:250,1,196,10|0,0:2|0:0,0:0:0:0:
397,245,28595,5,0,3:2:0:0:
466,286,28711,1,0,3:2:0:0:
424,356,28829,1,2,3:2:0:0:
355,314,28946,1,0,3:2:0:0:
466,286,29063,2,0,L|507:292,1,41.9999987182618,0|2,3:2|0:2,0:0:0:0:
313,353,29532,5,0,3:2:0:0:
228,339,29708,1,0,3:2:0:0:
143,325,29884,1,0,3:2:0:0:
82,294,30001,2,0,P|86:328|83:363,1,70,0|2,3:2|3:2,0:0:0:0:
71,371,30352,1,0,3:2:0:0:
0,256,30470,6,0,L|34:261,1,35,2|0,3:2|0:0,0:0:0:0:
26,197,30938,1,8,0:2:0:0:
28,201,31173,1,0,0:0:0:0:
69,144,31407,2,0,L|0:133,1,70,0|8,3:2|0:2,0:0:0:0:
48,78,32110,1,0,0:0:0:0:
266,186,32345,5,8,3:2:0:0:
500,148,32579,1,8,3:2:0:0:
213,243,32813,1,8,3:2:0:0:
447,205,33047,1,8,3:2:0:0:
146,207,33282,6,0,P|135:240|144:273,1,70,4|0,0:2|3:2,0:0:0:0:
138,286,33634,1,8,3:2:0:0:
132,298,33751,1,0,3:2:0:0:
70,272,33985,1,0,3:2:0:0:
189,131,34220,6,0,P|157:120|121:126,1,70,4|2,3:2|0:0,0:0:0:0:
220,235,34688,2,0,P|254:240|286:228,1,70,8|2,0:2|0:0,0:0:0:0:
282,214,35040,1,2,0:0:0:0:
277,200,35157,1,0,3:2:0:0:
255,314,35391,1,2,0:0:0:0:
370,152,35626,2,0,P|351:208|366:267,1,122.5,8|0,0:2|0:0,0:0:0:0:
366,267,36095,6,0,L|414:261,1,48.9999985046387,0|2,3:2|0:0,0:0:0:0:
422,269,36446,1,0,0:0:0:0:
500,230,36563,2,0,L|505:278,1,48.9999985046387,8|2,0:2|0:0,0:0:0:0:
499,289,36915,1,2,0:0:0:0:
492,299,37032,1,0,3:2:0:0:
416,149,37266,5,2,0:0:0:0:
427,140,37384,2,0,L|461:141,1,24.4999992523194,0|8,0:0|0:2,0:0:0:0:
329,163,37735,2,0,L|252:157,1,77.0000023498536,2|0,0:0|3:2,0:0:0:0:
239,148,38087,5,2,0:0:0:0:
367,115,38321,1,2,0:0:0:0:
210,205,38555,1,2,0:0:0:0:
288,1,38790,1,2,0:0:0:0:
296,15,38907,2,0,L|281:100,1,77.0000023498536,0|2,3:2|0:0,0:0:0:0:
282,216,39376,2,0,L|269:284,1,70,8|2,0:2|0:0,0:0:0:0:
260,295,39727,1,2,0:0:0:0:
285,378,39845,6,0,P|253:363|218:365,1,70,0|2,3:2|0:0,0:0:0:0:
208,373,40196,1,0,0:0:0:0:
190,288,40313,2,0,P|156:300|133:326,1,70,8|2,0:2|0:0,0:0:0:0:
136,339,40665,1,2,0:0:0:0:
139,352,40782,1,0,3:2:0:0:
66,304,41016,1,2,3:2:0:0:
223,296,41251,2,0,L|176:284,1,35,8|0,0:2|0:0,0:0:0:0:
14,304,41485,2,0,L|47:312,1,35,2|2,3:2|0:0,0:0:0:0:
287,303,41720,6,0,P|285:265|261:240,1,70,4|2,3:2|0:0,0:0:0:0:
180,138,42188,2,0,P|213:154|247:146,1,70,8|2,0:2|0:0,0:0:0:0:
255,157,42540,1,2,0:0:0:0:
350,88,42657,2,0,L|341:157,1,70,0|2,3:2|0:0,0:0:0:0:
512,29,43126,2,0,P|478:23|447:39,1,70,8|2,0:2|0:0,0:0:0:0:
451,53,43477,1,2,0:0:0:0:
367,13,43595,6,0,P|335:28|301:27,1,70,0|2,3:2|0:0,0:0:0:0:
292,38,43946,1,0,0:0:0:0:
230,91,44063,2,0,L|161:78,1,70,8|2,0:2|0:0,0:0:0:0:
152,66,44415,1,2,0:0:0:0:
143,54,44532,1,0,3:2:0:0:
293,148,44766,1,2,0:0:0:0:
301,159,44884,2,0,L|296:193,1,35,0|8,0:0|0:2,0:0:0:0:
193,346,45177,2,0,L|204:259,1,87.5,0|2,0:0|3:2,0:0:0:0:
195,247,45587,5,2,0:0:0:0:
264,288,45821,1,2,0:0:0:0:
123,335,46055,1,2,0:0:0:0:
313,313,46290,1,2,0:0:0:0:
320,325,46407,2,0,L|326:276,1,48.9999985046387,2|2,3:2|0:0,0:0:0:0:
363,165,46876,2,0,L|356:213,1,48.9999985046387,8|2,0:2|0:0,0:0:0:0:
344,222,47227,1,2,0:0:0:0:
415,152,47345,6,0,P|404:129|385:115,1,48.9999985046387,0|2,3:2|0:0,0:0:0:0:
379,101,47696,1,0,0:0:0:0:
314,121,47813,2,0,P|292:130|265:128,1,48.9999985046387,8|2,0:2|0:0,0:0:0:0:
260,121,48165,1,2,0:0:0:0:
253,113,48282,5,0,3:2:0:0:
311,26,48516,1,2,3:2:0:0:
308,40,48634,1,0,0:0:0:0:
305,54,48751,1,8,0:2:0:0:
369,53,48985,1,2,3:2:0:0:
191,106,49220,5,0,0:0:0:0:
256,192,49278,12,0,56485,0:0:0:0:
