osu file format v14

[General]
AudioFilename: audio.mp3
AudioLeadIn: 0
PreviewTime: 44915
Countdown: 0
SampleSet: Normal
StackLeniency: 0.7
Mode: 1
LetterboxInBreaks: 0
WidescreenStoryboard: 1

[Editor]
DistanceSpacing: 0.5
BeatDivisor: 2
GridSize: 32
TimelineZoom: 0.5999993

[Metadata]
Title:Memory Lane
TitleUnicode:Memory Lane
Artist:AcesToAces
ArtistUnicode:AcesToAces
Creator:T w i g
Version:Hivie's Kantan
Source:
Tags:gaston_2199 Hivie -chocoflan- twig electronic japanese トランジット Transit フライディ・チャイナタウン フライデイチャイナタウン 海老名 泰葉 Ebina Yasuha flyday chinatown future funk groove
BeatmapID:3350935
BeatmapSetID:1571290

[Difficulty]
HPDrainRate:8
CircleSize:2
OverallDifficulty:3
ApproachRate:10
SliderMultiplier:1.4
SliderTickRate:1

[Events]
//Background and Video events
0,0,"bg.jpg",0,0
//Break Periods
//Storyboard Layer 0 (Background)
//Storyboard Layer 1 (Fail)
//Storyboard Layer 2 (Pass)
//Storyboard Layer 3 (Foreground)
//Storyboard Layer 4 (Overlay)
//Storyboard Sound Samples

[TimingPoints]
7471,468.75,4,1,0,20,1,0
14971,-100,4,1,0,100,0,1
29971,-100,4,1,0,100,0,0
30063,-100.522617086231,4,1,0,99,0,0
30180,-101.050827555752,4,1,0,97,0,0
30297,-101.584515269168,4,1,0,96,0,0
30414,-102.123870127032,4,1,0,94,0,0
30531,-102.669088288229,4,1,0,93,0,0
30649,-103.220052766091,4,1,0,92,0,0
30766,-103.776962552083,4,1,0,90,0,0
30883,-104.339914399534,4,1,0,89,0,0
31000,-104.909117231742,4,1,0,88,0,0
31117,-105.484453173869,4,1,0,86,0,0
31235,-106.066134356094,4,1,0,85,0,0
31352,-106.654380082081,4,1,0,83,0,0
31469,-107.249072027404,4,1,0,82,0,0
31586,-107.850433019489,4,1,0,81,0,0
31703,-108.458693506578,4,1,0,79,0,0
31821,-109.073734935554,4,1,0,78,0,0
31938,-109.69579163065,4,1,0,76,0,0
32055,-110.325106022427,4,1,0,75,0,0
32172,-110.961559586912,4,1,0,74,0,0
32289,-111.605399022783,4,1,0,72,0,0
32406,-112.256753646941,4,1,0,71,0,0
32524,-112.915883312726,4,1,0,69,0,0
32641,-113.58267001054,4,1,0,68,0,0
32758,-114.257378455857,4,1,0,67,0,0
32875,-114.940282776084,4,1,0,65,0,0
32992,-115.631265769214,4,1,0,64,0,0
33110,-116.330606931676,4,1,0,62,0,0
33227,-117.038595817743,4,1,0,61,0,0
33344,-117.75511645981,4,1,0,60,0,0
33461,-118.480464348636,4,1,0,58,0,0
33578,-119.214945739317,4,1,0,57,0,0
33696,-119.958446394169,4,1,0,56,0,0
33813,-120.711279141212,4,1,0,54,0,0
33930,-121.47362078851,4,1,0,53,0,0
34047,-122.245802079157,4,1,0,51,0,0
34164,-123.027711992126,4,1,0,50,0,0
34281,-123.819688816358,4,1,0,49,0,0
34399,-124.62208353169,4,1,0,47,0,0
34516,-125.434788335066,4,1,0,46,0,0
34633,-126.258162590211,4,1,0,44,0,0
34750,-127.092579318479,4,1,0,43,0,0
34867,-127.937934749095,4,1,0,42,0,0
34985,-128.794611233466,4,1,0,40,0,0
35102,-129.662837723069,4,1,0,39,0,0
35219,-130.54301979946,4,1,0,38,0,0
35336,-131.435060565276,4,1,0,36,0,0
35453,-132.339376390391,4,1,0,35,0,0
35571,-133.333333333333,4,1,0,33,0,0
35688,-132.780611906172,4,1,0,32,0,0
35805,-132.232628930119,4,1,0,31,0,0
35922,-131.688976974182,4,1,0,29,0,0
36039,-131.149776979804,4,1,0,28,0,0
36156,-130.614974484365,4,1,0,26,0,0
36274,-130.08468513002,4,1,0,25,0,0
36391,-129.558516399517,4,1,0,26,0,0
36508,-129.036587033888,4,1,0,27,0,0
36625,-128.518846003578,4,1,0,28,0,0
36742,-128.005406948389,4,1,0,29,0,0
36860,-127.495891444898,4,1,0,30,0,0
36977,-126.990416033302,4,1,0,31,0,0
37094,-126.48893285082,4,1,0,32,0,0
37211,-125.991553526252,4,1,0,33,0,0
37328,-125.497912969707,4,1,0,34,0,0
37446,-125.008125528159,4,1,0,35,0,0
37563,-124.522146263713,4,1,0,36,0,0
37680,-124.040084793802,4,1,0,37,0,0
37797,-123.561588656058,4,1,0,38,0,0
37914,-123.086770018525,4,1,0,39,0,0
38031,-122.615586648144,4,1,0,40,0,0
38149,-122.148146157586,4,1,0,41,0,0
38266,-121.684108055488,4,1,0,42,0,0
38383,-121.223582350816,4,1,0,43,0,0
38500,-120.766529314867,4,1,0,44,0,0
38617,-120.313054567986,4,1,0,45,0,0
38735,-119.862828978517,4,1,0,46,0,0
38852,-119.415960420774,4,1,0,47,0,0
38969,-118.9724114875,4,1,0,48,0,0
39086,-118.532285824013,4,1,0,49,0,0
39203,-118.095265088442,4,1,0,50,0,0
39321,-117.661455048618,4,1,0,51,0,0
39438,-117.23082045162,4,1,0,52,0,0
39555,-116.803462989071,4,1,0,53,0,0
39672,-116.379074576875,4,1,0,54,0,0
39789,-115.957758907585,4,1,0,55,0,0
39906,-115.539482729736,4,1,0,56,0,0
40024,-115.124345805905,4,1,0,57,0,0
40141,-114.712049812561,4,1,0,58,0,0
40258,-114.302696400608,4,1,0,59,0,0
40375,-113.896254179993,4,1,0,60,0,0
40492,-113.492821011607,4,1,0,61,0,0
40610,-113.092107867252,4,1,0,62,0,0
40727,-112.694214391727,4,1,0,64,0,0
40844,-112.299110927939,4,1,0,65,0,0
40961,-111.906893464637,4,1,0,66,0,0
41078,-111.517281833166,4,1,0,67,0,0
41196,-111.130373709221,4,1,0,68,0,0
41313,-110.746141050715,4,1,0,69,0,0
41430,-110.364678005534,4,1,0,70,0,0
41547,-109.9857128559,4,1,0,71,0,0
41664,-109.609341346507,4,1,0,72,0,0
41781,-109.23553694182,4,1,0,73,0,0
41899,-108.864391981484,4,1,0,74,0,0
42016,-108.495642814985,4,1,0,75,0,0
42133,-108.129383294875,4,1,0,76,0,0
42250,-107.765588292346,4,1,0,77,0,0
42367,-107.404348372448,4,1,0,78,0,0
42485,-107.045407591446,4,1,0,79,0,0
42602,-106.68885794912,4,1,0,80,0,0
42719,-106.334675631389,4,1,0,81,0,0
42836,-105.98294946309,4,1,0,82,0,0
42953,-105.633430868201,4,1,0,83,0,0
43071,-105.286210033355,4,1,0,84,0,0
43188,-104.94126437433,4,1,0,85,0,0
43305,-104.598681010632,4,1,0,86,0,0
43422,-104.258218414712,4,1,0,87,0,0
43539,-103.919964999756,4,1,0,88,0,0
43656,-103.583899333023,4,1,0,89,0,0
43774,-103.250106863861,4,1,0,90,0,0
43891,-102.918352812347,4,1,0,91,0,0
44008,-102.588723857828,4,1,0,92,0,0
44125,-102.261199646585,4,1,0,93,0,0
44242,-101.935863993093,4,1,0,94,0,0
44360,-101.612488581297,4,1,0,95,0,0
44477,-101.010101010101,4,1,0,100,0,0
44971,-100,4,1,0,100,0,1
59502,-100,4,1,0,100,0,0
59971,-100,4,1,0,100,0,1
74502,-100,4,1,0,100,0,0
74971,-100,4,1,0,100,0,0
75063,-100,4,1,0,85,0,0
89971,-100,4,1,0,100,0,1
97002,-100,4,1,0,100,0,0
97471,-100,4,1,0,100,0,1
101221,-100,4,1,0,100,0,0
102367,-100,4,1,0,85,0,0
104971,-100,4,1,0,100,0,1
119502,-100,4,1,0,100,0,0
119853,-100,4,1,0,50,0,0

[HitObjects]
256,192,14971,5,12,0:0:0:0:
256,192,15908,5,0,0:0:0:0:
256,192,16846,5,0,0:0:0:0:
256,192,17314,5,8,0:0:0:0:
256,192,17783,5,0,0:0:0:0:
256,192,18252,5,0,0:0:0:0:
256,192,18721,5,8,0:0:0:0:
256,192,19658,5,8,0:0:0:0:
256,192,20127,5,8,0:0:0:0:
256,192,20596,5,0,0:0:0:0:
256,192,22002,5,0,0:0:0:0:
256,192,22471,5,8,0:0:0:0:
256,192,23408,5,0,0:0:0:0:
256,192,24346,5,8,0:0:0:0:
256,192,24814,5,8,0:0:0:0:
256,192,25283,5,0,0:0:0:0:
256,192,25752,5,8,0:0:0:0:
256,192,26221,5,0,0:0:0:0:
256,192,27158,5,0,0:0:0:0:
256,192,27627,5,8,0:0:0:0:
256,192,28096,5,8,0:0:0:0:
256,192,29502,5,12,0:0:0:0:
256,192,29971,5,4,0:0:0:0:
256,192,30908,5,8,0:0:0:0:
256,192,31846,5,0,0:0:0:0:
256,192,32783,5,0,0:0:0:0:
256,192,33721,5,8,0:0:0:0:
256,192,35596,5,0,0:0:0:0:
256,192,37471,5,8,0:0:0:0:
256,192,38408,5,8,0:0:0:0:
256,192,39346,5,0,0:0:0:0:
256,192,41221,5,8,0:0:0:0:
256,192,42158,5,8,0:0:0:0:
256,192,43096,5,8,0:0:0:0:
256,192,43564,5,8,0:0:0:0:
256,192,44033,5,0,0:0:0:0:
256,192,44502,5,12,0:0:0:0:
256,192,44971,5,4,0:0:0:0:
256,192,45908,5,8,0:0:0:0:
256,192,46846,5,0,0:0:0:0:
256,192,47314,5,0,0:0:0:0:
256,192,47783,5,8,0:0:0:0:
256,192,48252,5,0,0:0:0:0:
256,192,48721,5,8,0:0:0:0:
256,192,49658,5,8,0:0:0:0:
256,192,50127,5,8,0:0:0:0:
256,192,50596,5,0,0:0:0:0:
256,192,52002,5,0,0:0:0:0:
256,192,52471,5,8,0:0:0:0:
256,192,53408,5,0,0:0:0:0:
256,192,54346,5,8,0:0:0:0:
256,192,54814,5,8,0:0:0:0:
256,192,55283,5,0,0:0:0:0:
256,192,55752,5,8,0:0:0:0:
256,192,56221,5,0,0:0:0:0:
256,192,57158,5,0,0:0:0:0:
256,192,57627,5,8,0:0:0:0:
256,192,58096,5,0,0:0:0:0:
256,192,59502,5,12,0:0:0:0:
256,192,59971,5,4,0:0:0:0:
256,192,60908,5,8,0:0:0:0:
256,192,61846,5,0,0:0:0:0:
256,192,62314,5,0,0:0:0:0:
256,192,62783,5,8,0:0:0:0:
256,192,63721,5,8,0:0:0:0:
256,192,64189,5,0,0:0:0:0:
256,192,64658,5,8,0:0:0:0:
256,192,65127,5,8,0:0:0:0:
256,192,65596,5,0,0:0:0:0:
256,192,67002,5,0,0:0:0:0:
256,192,67471,5,8,0:0:0:0:
256,192,68408,5,0,0:0:0:0:
256,192,69346,5,8,0:0:0:0:
256,192,69814,5,8,0:0:0:0:
256,192,70283,5,0,0:0:0:0:
256,192,70752,5,0,0:0:0:0:
256,192,71221,5,8,0:0:0:0:
256,192,72158,5,8,0:0:0:0:
256,192,72627,5,8,0:0:0:0:
256,192,73096,5,0,0:0:0:0:
256,192,74502,5,12,0:0:0:0:
256,192,74971,5,4,0:0:0:0:
256,192,76377,5,0,0:0:0:0:
256,192,76846,5,8,0:0:0:0:
256,192,77314,5,0,0:0:0:0:
256,192,77783,5,8,0:0:0:0:
256,192,78721,5,4,0:0:0:0:
256,192,79658,5,8,0:0:0:0:
256,192,80596,5,0,0:0:0:0:
256,192,81064,5,0,0:0:0:0:
256,192,81533,5,8,0:0:0:0:
256,192,82471,5,4,0:0:0:0:
256,192,83877,5,0,0:0:0:0:
256,192,84346,5,8,0:0:0:0:
256,192,84814,5,8,0:0:0:0:
256,192,85283,5,0,0:0:0:0:
256,192,86221,5,12,0:0:0:0:
256,192,87392,5,12,0:0:0:0:
256,192,88096,5,4,0:0:0:0:
256,192,89033,5,4,0:0:0:0:
256,192,89502,5,12,0:0:0:0:
256,192,89971,5,4,0:0:0:0:
256,192,91377,5,0,0:0:0:0:
256,192,91846,5,8,0:0:0:0:
256,192,92783,5,8,0:0:0:0:
256,192,93252,5,8,0:0:0:0:
256,192,93721,5,0,0:0:0:0:
256,192,94189,5,0,0:0:0:0:
256,192,94658,5,8,0:0:0:0:
256,192,95596,5,0,0:0:0:0:
256,192,96064,5,0,0:0:0:0:
256,192,96533,5,8,0:0:0:0:
256,192,97002,5,0,0:0:0:0:
256,192,97471,5,12,0:0:0:0:
256,192,98877,5,0,0:0:0:0:
256,192,99346,5,8,0:0:0:0:
256,192,100283,5,8,0:0:0:0:
256,192,100752,5,8,0:0:0:0:
256,192,101221,5,4,0:0:0:0:
256,192,102392,5,12,0:0:0:0:
256,192,103096,5,4,0:0:0:0:
256,192,104033,5,4,0:0:0:0:
256,192,104502,5,12,0:0:0:0:
256,192,104971,5,4,0:0:0:0:
256,192,106377,5,8,0:0:0:0:
256,192,106846,5,0,0:0:0:0:
256,192,107314,5,8,0:0:0:0:
256,192,107783,5,0,0:0:0:0:
256,192,108721,5,8,0:0:0:0:
256,192,109658,5,0,0:0:0:0:
256,192,110127,5,8,0:0:0:0:
256,192,110596,5,0,0:0:0:0:
256,192,111064,5,8,0:0:0:0:
256,192,111533,5,8,0:0:0:0:
256,192,112471,5,0,0:0:0:0:
256,192,113877,5,8,0:0:0:0:
256,192,114346,5,0,0:0:0:0:
256,192,114814,5,0,0:0:0:0:
256,192,115283,5,8,0:0:0:0:
256,192,116221,5,0,0:0:0:0:
256,192,117158,5,8,0:0:0:0:
256,192,117627,5,8,0:0:0:0:
256,192,118096,5,0,0:0:0:0:
256,192,118564,5,8,0:0:0:0:
256,192,119033,5,0,0:0:0:0:
256,192,119502,5,12,0:0:0:0:
256,192,119971,5,0,0:0:0:0:
