osu file format v14

[General]
AudioFilename: audioo.mp3
AudioLeadIn: 0
PreviewTime: 11482
Countdown: 0
SampleSet: Normal
StackLeniency: 0.4
Mode: 0
LetterboxInBreaks: 0
WidescreenStoryboard: 1

[Editor]
DistanceSpacing: 1.2
BeatDivisor: 4
GridSize: 16
TimelineZoom: 1

[Metadata]
Title:Every New Black Parade
TitleUnicode:Every New Black Parade
Artist:Ace Waters
ArtistUnicode:Ace Waters
Creator:Mikojel
Version:Parade
Source:
Tags:
BeatmapID:1755372
BeatmapSetID:834930

[Difficulty]
HPDrainRate:6.5
CircleSize:4.1
OverallDifficulty:8
ApproachRate:9.1
SliderMultiplier:2.4
SliderTickRate:1

[Events]
//Background and Video events
0,0,"47531.png",0,0
//Break Periods
//Storyboard Layer 0 (Background)
//Storyboard Layer 1 (Fail)
//Storyboard Layer 2 (Pass)
//Storyboard Layer 3 (Foreground)
//Storyboard Sound Samples

[TimingPoints]
371,370.370807453416,4,1,0,50,1,0
11852,-80,4,1,0,70,0,1
17593,-100,4,1,0,60,0,0
21111,-133.333333333333,4,1,0,60,0,0
22222,-100,4,1,0,60,0,0
23704,-80,4,1,0,70,0,1
29445,-100,4,1,0,60,0,0
30741,397.350993377483,4,1,0,50,1,0
32727,425.531914893617,4,1,0,50,1,0
33578,458.015267175573,4,1,0,50,1,0
34036,495.867768595041,4,1,0,50,1,0
34036,-83.3333333333333,4,1,0,50,0,0
34531,555.555555555556,4,1,0,50,1,0
35364,612.244897959184,4,1,0,50,1,0

[Colours]
Combo1 : 106,181,255
Combo2 : 223,89,0
Combo3 : 0,103,230
Combo4 : 255,197,117

[HitObjects]
93,196,371,6,0,P|151:188|191:146,1,120
122,2,741,2,0,B|113:85|113:85|117:100|117:100|109:139,1,120
0,280,1111,1,0,0:0:0:0:
231,173,1296,1,0,0:0:0:0:
11,178,1482,1,0,0:0:0:0:
120,337,1667,1,0,0:0:0:0:
405,336,1852,6,0,P|394:278|344:246,1,120
207,310,2222,2,0,B|302:336|302:336|322:328,1,120
511,256,2593,1,0,0:0:0:0:
285,206,2778,1,0,0:0:0:0:
512,119,2963,1,0,0:0:0:0:
396,271,3148,1,0,0:0:0:0:
347,39,3333,5,0,0:0:0:0:
390,195,3519,1,0,0:0:0:0:
209,23,3704,2,0,P|261:48|278:104,1,120
335,243,4074,2,0,P|315:188|343:136,1,120
482,43,4445,1,0,0:0:0:0:
274,0,4630,1,0,0:0:0:0:
457,111,4815,1,0,0:0:0:0:
457,111,5000,1,0,0:0:0:0:
295,69,5185,6,0,L|324:185,1,120
203,138,5556,2,0,L|270:237,2,120
22,89,6111,5,0,0:0:0:0:
225,76,6296,1,0,0:0:0:0:
28,193,6482,1,0,0:0:0:0:
264,131,6667,6,0,P|316:157|334:213,1,120
207,339,7037,1,0,0:0:0:0:
377,280,7222,2,0,P|373:339|413:382,2,120
446,146,7778,1,0,0:0:0:0:
454,311,7963,1,0,0:0:0:0:
319,183,8148,2,0,B|293:244|293:244|278:259|278:259|266:296,1,120
192,384,8519,2,0,B|181:353|181:353|166:338|166:338|140:277,1,120
44,96,8889,6,0,P|95:123|115:178,1,120
1,322,9259,2,0,P|-1:263|36:218,1,120
204,185,9630,2,0,P|261:195|311:163,1,120
286,0,10000,2,0,P|248:44|250:103,1,120
394,2,10371,1,0,0:0:0:0:
420,252,10556,1,0,0:0:0:0:
330,81,10741,2,0,L|293:196,1,120
149,292,11111,2,0,P|177:235|186:177,1,120
162,0,11482,1,0,0:0:0:0:
283,185,11667,1,0,0:0:0:0:
273,13,11852,5,0,0:0:0:0:
163,261,12037,1,0,0:0:0:0:
96,73,12222,5,0,0:0:0:0:
234,306,12408,1,0,0:0:0:0:
366,68,12593,5,0,0:0:0:0:
314,314,12778,1,0,0:0:0:0:
509,177,12963,5,0,0:0:0:0:
236,116,13148,1,0,0:0:0:0:
402,351,13333,5,0,0:0:0:0:
457,87,13519,1,0,0:0:0:0:
262,352,13704,5,0,0:0:0:0:
190,68,13889,1,0,0:0:0:0:
135,298,14074,5,0,0:0:0:0:
127,26,14259,1,0,0:0:0:0:
4,175,14445,5,0,0:0:0:0:
256,136,14630,1,0,0:0:0:0:
1,67,14815,5,0,0:0:0:0:
84,328,15000,1,0,0:0:0:0:
245,58,15185,5,0,0:0:0:0:
148,293,15371,1,0,0:0:0:0:
311,98,15556,5,0,0:0:0:0:
376,357,15741,1,0,0:0:0:0:
484,136,15926,5,0,0:0:0:0:
255,221,16111,1,0,0:0:0:0:
462,334,16296,5,0,0:0:0:0:
389,54,16482,1,0,0:0:0:0:
306,345,16667,5,0,0:0:0:0:
319,93,16852,1,0,0:0:0:0:
28,195,17037,5,0,0:0:0:0:
390,270,17222,1,0,0:0:0:0:
90,47,17408,1,0,0:0:0:0:
109,347,17593,2,0,P|165:329|195:279,1,120
92,180,17963,1,0,0:0:0:0:
306,146,18148,2,0,P|275:195|219:213,1,120
225,96,18519,2,0,P|256:46|312:28,1,120
454,188,18889,5,0,0:0:0:0:
426,9,19074,2,0,L|401:126,1,120
306,267,19445,2,0,L|281:149,1,120
124,0,19815,1,0,0:0:0:0:
200,95,20000,2,0,P|256:80|289:31,1,120
80,106,20371,1,0,0:0:0:0:
198,171,20556,2,0,P|213:227|187:280,1,120
32,197,20926,5,0,0:0:0:0:
87,360,21111,2,0,L|81:263,1,90.0000034332277
183,99,21482,5,0,0:0:0:0:
201,280,21667,1,0,0:0:0:0:
256,114,21852,2,0,L|236:226,1,90.0000034332277
328,364,22222,5,0,0:0:0:0:
343,181,22408,1,0,0:0:0:0:
410,372,22593,2,0,L|384:249,1,120
375,77,22963,5,0,0:0:0:0:
460,278,23148,1,0,0:0:0:0:
506,41,23333,1,0,0:0:0:0:
453,269,23519,1,0,0:0:0:0:
354,13,23704,5,0,0:0:0:0:
398,310,23889,1,0,0:0:0:0:
445,78,24074,5,0,0:0:0:0:
301,328,24259,1,0,0:0:0:0:
185,23,24445,5,0,0:0:0:0:
208,275,24630,1,0,0:0:0:0:
282,82,24815,5,0,0:0:0:0:
28,223,25000,1,0,0:0:0:0:
238,335,25185,5,0,0:0:0:0:
61,121,25371,1,0,0:0:0:0:
25,384,25556,5,0,0:0:0:0:
161,126,25741,1,0,0:0:0:0:
185,384,25926,5,0,0:0:0:0:
229,98,26111,1,0,0:0:0:0:
396,247,26296,5,0,0:0:0:0:
139,219,26482,1,0,0:0:0:0:
340,48,26667,5,0,0:0:0:0:
307,344,26852,1,0,0:0:0:0:
424,64,27037,5,0,0:0:0:0:
474,328,27222,1,0,0:0:0:0:
288,112,27408,5,0,0:0:0:0:
211,379,27593,1,0,0:0:0:0:
93,86,27778,5,0,0:0:0:0:
263,273,27963,1,0,0:0:0:0:
249,0,28148,5,0,0:0:0:0:
152,267,28333,1,0,0:0:0:0:
35,2,28519,5,0,0:0:0:0:
87,311,28704,1,0,0:0:0:0:
382,121,28889,5,0,0:0:0:0:
140,370,29074,1,0,0:0:0:0:
137,45,29259,1,0,0:0:0:0:
298,367,29445,2,0,P|293:280|266:253,1,120
87,240,29815,1,0,0:0:0:0:
227,188,30000,2,0,B|278:179|278:179|316:193|316:193|368:194,1,120
512,190,30371,5,0,0:0:0:0:
238,105,30556,1,0,0:0:0:0:
451,119,30741,1,0,0:0:0:0:
483,311,30939,2,0,P|430:282|402:230,1,120
445,39,31337,1,0,0:0:0:0:
238,105,31535,2,0,B|197:108|197:108|151:87|151:87|98:88,1,120
39,268,31933,2,0,P|6:218|12:160,1,120
95,351,32330,1,0,0:0:0:0:
117,195,32529,1,0,0:0:0:0:
331,357,32727,5,0,0:0:0:0:
131,276,32939,1,0,0:0:0:0:
364,280,33152,2,0,L|239:278,1,120
308,119,33578,5,0,0:0:0:0:
508,200,33807,1,0,0:0:0:0:
247,200,34036,2,0,P|316:214|383:189,1,143.999995605469
160,7,34531,5,0,0:0:0:0:
186,272,34808,1,0,0:0:0:0:
249,40,35086,1,0,0:0:0:0:
18,295,35364,5,0,0:0:0:0:
424,253,35670,1,0,0:0:0:0:
0,92,35976,1,0,0:0:0:0:
418,19,36282,1,0,0:0:0:0:
0,204,36588,1,0,0:0:0:0:
490,141,37200,5,0,0:0:0:0:
256,192,37353,12,0,44853,0:0:0:0:
