osu file format v14

[General]
AudioFilename: audioo.mp3
AudioLeadIn: 0
PreviewTime: 11482
Countdown: 0
SampleSet: Normal
StackLeniency: 0.4
Mode: 0
LetterboxInBreaks: 0
WidescreenStoryboard: 1

[Editor]
DistanceSpacing: 1.4
BeatDivisor: 4
GridSize: 16
TimelineZoom: 1

[Metadata]
Title:Every New Black Parade
TitleUnicode:Every New Black Parade
Artist:Ace Waters
ArtistUnicode:Ace Waters
Creator:Mikojel
Version:Hard
Source:
Tags:
BeatmapID:1755377
BeatmapSetID:834930

[Difficulty]
HPDrainRate:6.5
CircleSize:3.7
OverallDifficulty:8
ApproachRate:8.5
SliderMultiplier:1.8
SliderTickRate:1

[Events]
//Background and Video events
0,0,"47531.png",0,0
//Break Periods
//Storyboard Layer 0 (Background)
//Storyboard Layer 1 (Fail)
//Storyboard Layer 2 (Pass)
//Storyboard Layer 3 (Foreground)
//Storyboard Sound Samples

[TimingPoints]
371,370.370807453416,4,1,0,50,1,0
11852,-90.9090909090909,4,1,0,70,0,1
17593,-100,4,1,0,60,0,0
23704,-90.9090909090909,4,1,0,70,0,1
29445,-100,4,1,0,60,0,0
30741,397.350993377483,4,1,0,50,1,0
32727,425.531914893617,4,1,0,50,1,0
33578,458.015267175573,4,1,0,50,1,0
34036,495.867768595041,4,1,0,50,1,0
34531,555.555555555556,4,1,0,50,1,0
35364,612.244897959184,4,1,0,50,1,0

[Colours]
Combo1 : 106,181,255
Combo2 : 223,89,0
Combo3 : 0,103,230
Combo4 : 255,197,117

[HitObjects]
98,346,371,6,0,L|115:250,1,90,0|0,0:0|0:0,0:0:0:0:
252,191,741,2,0,P|210:247|184:256,1,90,0|0,0:0|0:0,0:0:0:0:
299,373,1111,1,0,0:0:0:0:
299,373,1296,1,0,0:0:0:0:
299,373,1482,2,0,L|282:272,1,90,0|0,0:0|0:0,0:0:0:0:
326,133,1852,6,0,L|340:221,1,90,0|0,0:0|0:0,0:0:0:0:
484,282,2222,2,0,P|466:241|426:223,1,90,0|0,0:0|0:0,0:0:0:0:
480,128,2593,1,0,0:0:0:0:
480,128,2778,1,0,0:0:0:0:
480,128,2963,2,0,P|439:110|422:69,1,90,0|0,0:0|0:0,0:0:0:0:
343,13,3333,5,0,0:0:0:0:
256,37,3518,1,0,0:0:0:0:
169,61,3704,2,0,P|100:130|42:83,2,180,0|0|0,0:0|0:0|0:0,0:0:0:0:
1,173,4630,5,0,0:0:0:0:
79,213,4815,1,0,0:0:0:0:
79,213,5000,1,0,0:0:0:0:
73,327,5185,2,0,P|94:288|91:243,1,90,0|0,0:0|0:0,0:0:0:0:
186,384,5556,2,0,P|164:345|167:300,2,90,0|0|0,0:0|0:0|0:0,0:0:0:0:
320,249,6111,5,0,0:0:0:0:
354,346,6296,1,0,0:0:0:0:
251,328,6482,1,0,0:0:0:0:
396,277,6667,6,0,P|398:233|379:193,1,90,0|0,0:0|0:0,0:0:0:0:
265,168,7037,1,0,0:0:0:0:
425,91,7222,2,0,L|331:136,1,90,0|0,0:0|0:0,0:0:0:0:
187,105,7593,1,0,0:0:0:0:
187,105,7778,2,0,L|268:66,1,90,0|0,0:0|0:0,0:0:0:0:
95,3,8148,2,0,P|90:47|108:87,1,90,0|0,0:0|0:0,0:0:0:0:
186,181,8519,1,0,0:0:0:0:
186,181,8704,1,0,0:0:0:0:
186,181,8889,6,0,P|193:246|177:273,1,90,0|0,0:0|0:0,0:0:0:0:
100,343,9259,2,0,P|165:336|191:352,1,90,0|0,0:0|0:0,0:0:0:0:
292,380,9630,2,0,P|336:379|372:354,1,90,0|0,0:0|0:0,0:0:0:0:
335,206,10000,2,0,P|347:248|381:277,1,90,0|0,0:0|0:0,0:0:0:0:
490,358,10371,5,0,0:0:0:0:
479,268,10556,1,0,0:0:0:0:
468,179,10741,1,0,0:0:0:0:
385,67,10926,2,0,L|395:156,2,90,0|0|0,0:0|0:0|0:0,0:0:0:0:
307,6,11482,5,0,0:0:0:0:
217,16,11667,1,0,0:0:0:0:
128,26,11852,6,0,P|100:66|95:115,1,99.0000030212403,0|0,0:0|0:0,0:0:0:0:
202,198,12222,2,0,L|186:100,1,99.0000030212403,0|0,0:0|0:0,0:0:0:0:
104,189,12593,2,0,L|88:286,1,99.0000030212403,0|0,0:0|0:0,0:0:0:0:
232,347,12963,5,0,0:0:0:0:
232,347,13148,2,0,P|211:303|169:274,1,99.0000030212403,0|0,0:0|0:0,0:0:0:0:
75,360,13519,1,0,0:0:0:0:
6,262,13704,2,0,L|22:160,1,99.0000030212403,0|0,0:0|0:0,0:0:0:0:
42,35,14074,1,0,0:0:0:0:
42,35,14259,2,0,P|83:85|130:99,1,99.0000030212403,0|0,0:0|0:0,0:0:0:0:
214,67,14630,5,0,0:0:0:0:
214,67,14815,2,0,P|275:43|322:55,1,99.0000030212403,0|0,0:0|0:0,0:0:0:0:
379,199,15185,2,0,L|358:97,1,99.0000030212403,0|0,0:0|0:0,0:0:0:0:
429,27,15556,2,0,L|448:123,1,99.0000030212403,0|0,0:0|0:0,0:0:0:0:
416,281,15926,6,0,P|452:248|467:202,1,99.0000030212403,0|0,0:0|0:0,0:0:0:0:
340,294,16296,2,0,P|287:304|233:354,1,99.0000030212403,0|0,0:0|0:0,0:0:0:0:
85,333,16667,2,0,L|181:354,1,99.0000030212403,0|0,0:0|0:0,0:0:0:0:
63,255,17037,5,0,0:0:0:0:
133,175,17222,1,0,0:0:0:0:
166,276,17408,1,0,0:0:0:0:
49,175,17593,2,0,P|136:89|219:178,2,270,0|0|0,0:0|0:0|0:0,0:0:0:0:
14,53,18889,5,0,0:0:0:0:
14,53,19074,2,0,P|57:21|100:7,1,90,0|0,0:0|0:0,0:0:0:0:
187,34,19445,2,0,P|240:40|284:30,1,90,0|0,0:0|0:0,0:0:0:0:
366,145,19815,1,0,0:0:0:0:
366,145,20000,2,0,L|342:37,1,90,0|0,0:0|0:0,0:0:0:0:
428,0,20371,1,0,0:0:0:0:
447,87,20556,1,0,0:0:0:0:
467,175,20741,6,0,P|445:214|409:240,2,90,0|0|0,0:0|0:0|0:0,0:0:0:0:
244,213,21482,2,0,P|288:211|329:230,2,90,0|0|0,0:0|0:0|0:0,0:0:0:0:
350,384,22222,6,0,L|359:294,2,90,0|0|0,0:0|0:0|0:0,0:0:0:0:
181,290,22963,2,0,L|270:299,1,90,0|0,0:0|0:0,0:0:0:0:
213,381,23333,1,0,0:0:0:0:
123,371,23518,1,0,0:0:0:0:
34,361,23704,6,0,P|10:318|9:268,1,99.0000030212403,0|0,0:0|0:0,0:0:0:0:
121,151,24074,2,0,L|93:255,1,99.0000030212403,0|0,0:0|0:0,0:0:0:0:
25,166,24445,2,0,L|50:70,1,99.0000030212403,0|0,0:0|0:0,0:0:0:0:
149,23,24815,5,0,0:0:0:0:
149,23,25000,2,0,P|169:87|211:118,2,99.0000030212403,0|0|0,0:0|0:0|0:0,0:0:0:0:
259,19,25556,2,0,L|363:38,1,99.0000030212403,0|0,0:0|0:0,0:0:0:0:
482,147,25926,2,0,B|444:114|444:114|394:105,1,99.0000030212403,0|0,0:0|0:0,0:0:0:0:
298,220,26296,5,0,0:0:0:0:
298,220,26482,2,0,P|297:158|323:122,2,99.0000030212403,0|0|0,0:0|0:0|0:0,0:0:0:0:
474,231,27037,2,0,L|368:224,1,99.0000030212403,0|0,0:0|0:0,0:0:0:0:
285,297,27408,2,0,L|383:303,1,99.0000030212403,0|0,0:0|0:0,0:0:0:0:
480,384,27778,5,0,0:0:0:0:
480,384,27963,2,0,P|451:331|464:291,1,99.0000030212403,0|0,0:0|0:0,0:0:0:0:
508,213,28333,2,0,P|527:155|507:118,2,99.0000030212403,0|0|0,0:0|0:0|0:0,0:0:0:0:
355,220,28889,5,0,0:0:0:0:
351,114,29074,1,0,0:0:0:0:
445,166,29260,1,0,0:0:0:0:
287,170,29445,2,0,P|269:127|273:85,1,90,0|0,0:0|0:0,0:0:0:0:
204,0,29815,5,0,0:0:0:0:
204,0,30000,2,0,P|207:44|188:85,1,90,0|0,0:0|0:0,0:0:0:0:
98,135,30371,1,0,0:0:0:0:
19,178,30556,1,0,0:0:0:0:
11,261,30741,5,0,0:0:0:0:
90,218,30939,2,0,P|101:261|90:304,1,90,0|0,0:0|0:0,0:0:0:0:
247,360,31337,2,0,L|122:352,1,90,0|0,0:0|0:0,0:0:0:0:
222,274,31734,1,0,0:0:0:0:
222,274,31933,2,0,L|311:279,1,90,0|0,0:0|0:0,0:0:0:0:
371,364,32330,1,0,0:0:0:0:
411,286,32528,1,0,0:0:0:0:
380,205,32727,5,0,0:0:0:0:
380,205,32939,1,0,0:0:0:0:
419,126,33152,2,0,P|376:117|333:129,1,90
225,86,33578,5,0,0:0:0:0:
225,86,33807,1,0,0:0:0:0:
264,164,34036,2,0,P|220:173|163:152,1,90
43,53,34531,5,0,0:0:0:0:
162,89,34808,1,0,0:0:0:0:
126,209,35086,1,0,0:0:0:0:
85,132,35364,1,0,0:0:0:0:
85,132,35670,5,0,0:0:0:0:
41,276,35976,1,0,0:0:0:0:
184,319,36282,1,0,0:0:0:0:
206,248,36588,1,0,0:0:0:0:
228,177,37200,5,0,0:0:0:0:
256,192,37353,12,0,44853,0:0:0:0:
