osu file format v14

[General]
AudioFilename: audio.mp3
AudioLeadIn: 0
PreviewTime: 69575
Countdown: 0
SampleSet: Normal
StackLeniency: 0.2
Mode: 0
LetterboxInBreaks: 1
WidescreenStoryboard: 0

[Editor]
Bookmarks: 75575,170975
DistanceSpacing: 0.7
BeatDivisor: 2
GridSize: 4
TimelineZoom: 2.299999

[Metadata]
Title:Crazy on Emotion
TitleUnicode:Crazy on Emotion
Artist:Ace
ArtistUnicode:Ace
Creator:JABIRIGUIBARETO
Version:IM A PROFESSIONAL DRIVER
Source:Initial D
Tags:fd rx7 supra 5th stage lul super eurobeat
BeatmapID:1643102
BeatmapSetID:782506

[Difficulty]
HPDrainRate:0.1
CircleSize:3.8
OverallDifficulty:8
ApproachRate:10
SliderMultiplier:1.6
SliderTickRate:1

[Events]
//Background and Video events
0,0,"68c0de05df5555a9d96b3bd0027772eb.png",0,0
//Break Periods
//Storyboard Layer 0 (Background)
//Storyboard Layer 1 (Fail)
//Storyboard Layer 2 (Pass)
//Storyboard Layer 3 (Foreground)
//Storyboard Sound Samples

[TimingPoints]
16775,200,4,1,0,70,1,0
22375,-83.3333333333333,4,1,0,70,0,0
23175,-100,4,1,0,70,0,0
31175,-50,4,1,0,70,0,0
42475,-133.333333333333,4,1,0,70,0,0
43175,-50,4,1,0,70,0,0
43975,-100,4,1,0,70,0,0
47175,-166.666666666667,4,1,0,70,0,0
48575,-66.6666666666667,4,1,0,70,0,0
50975,-100,4,1,0,70,0,0
54975,-66.6666666666667,4,1,0,70,0,0
56775,-100,4,1,0,70,0,0
57975,-133.333333333333,4,1,0,70,0,0
59975,-100,4,1,0,70,0,0
70975,-100,4,1,0,70,0,0
72775,-200,4,1,0,70,0,0
74175,-50,4,1,0,70,0,0
75975,-100,4,1,0,70,0,0
81175,-50,4,1,0,70,0,0
82775,-100,4,1,0,70,0,0
85575,-133.333333333333,4,1,0,70,0,0
86975,-50,4,1,0,70,0,0
91175,-100,4,1,0,70,0,0
93975,-50,4,1,0,70,0,0
104775,-66.6666666666667,4,1,0,70,0,0
107175,-50,4,1,0,70,0,0
108175,-100,4,1,0,70,0,0
111175,-133.333333333333,4,1,0,70,0,0
112575,-66.6666666666667,4,1,0,70,0,0
114375,-100,4,1,0,70,0,0
117175,-200,4,1,0,70,0,0
118975,-66.6666666666667,4,1,0,70,0,0
119950,-200,4,1,0,70,0,0
120775,-133.333333333333,4,1,0,70,0,0
123775,-200,4,1,0,70,0,0
125775,-66.6666666666667,4,1,0,70,0,0
127975,-100,4,1,0,70,0,0
131575,-500,4,1,0,70,0,0
134175,-100,4,1,0,70,0,0
134575,-200,4,1,0,70,0,0
134975,-66.6666666666667,4,1,0,70,0,0
136575,-133.333333333333,4,1,0,70,0,0
137375,-200,4,1,0,70,0,0
138175,-50,4,1,0,70,0,0
139975,-100,4,1,0,70,0,0
141375,-66.6666666666667,4,1,0,70,0,0
142375,-100,4,1,0,70,0,0
145575,-50,4,1,0,70,0,0
146975,-66.6666666666667,4,1,0,70,0,0
148775,-100,4,1,0,70,0,0
149575,-66.6666666666667,4,1,0,70,0,0
150175,-100,4,1,0,70,0,0
150975,-50,4,1,0,70,0,0
155175,100,4,1,0,70,1,0
155175,-33.3333333333333,4,1,0,70,0,0
156375,200,4,1,0,70,1,0
157375,-66.6666666666667,4,1,0,70,0,0
159175,-50,4,1,0,70,0,0
170975,-25,4,1,0,70,0,0

[Colours]
Combo1 : 0,255,0
Combo2 : 0,255,255
Combo3 : 87,104,223
Combo4 : 255,255,9

[HitObjects]
28,100,16775,6,0,P|103:108|164:172,1,160
56,216,17075,2,0,P|40:256|72:312,1,80
456,128,17375,6,0,P|480:232|448:296,1,160
376,200,17675,2,0,P|336:128|312:112,1,80
96,352,17975,6,0,P|56:312|56:272,1,80
84,220,18175,2,0,P|124:252|132:284,1,80
208,352,18375,2,0,P|312:376|360:360,1,160
292,292,18675,2,0,B|340:260|384:272|384:272|420:280|453:268|468:240,1,160
464,112,18975,6,0,B|424:64|424:64|384:56|384:56,1,80
324,44,19175,1,0,0:0:0:0:
192,136,19375,6,0,P|160:176|152:240,1,80
240,252,19575,2,0,P|192:344|168:352,1,80
88,316,19775,2,0,P|56:236|64:212,1,80
68,84,19975,6,0,B|180:28|180:28|252:60,1,160
216,120,20275,2,0,B|248:128|248:128|296:76,1,80
496,176,20575,6,0,B|384:120|384:120|312:152,1,160
292,200,20875,2,0,B|260:224|260:224|188:196,1,80
56,256,21175,2,0,B|104:296|104:296|128:296|128:296|144:328|144:328|184:360,1,160
392,348,21575,6,0,P|380:280|424:192,1,160
504,200,21875,1,0,0:0:0:0:
504,200,21975,2,0,B|496:144|472:128|472:128|480:120|480:120|464:88|416:72,1,160
226,86,22375,2,0,B|184:104|184:104|178:134|178:134|74:190|74:190|24:84|72:28|112:44|112:44|160:84|-44:160,1,575.999982421876
16,288,23175,6,0,P|76:336|192:348,1,160
236,308,23475,1,0,0:0:0:0:
336,324,23575,1,0,0:0:0:0:
456,232,23775,6,0,B|416:160|416:160|340:132,1,160
248,192,24075,1,0,0:0:0:0:
160,148,24175,1,0,0:0:0:0:
48,104,24375,6,0,P|136:48|216:56,1,160
136,128,24775,2,0,B|284:64|284:64|264:112|300:160,1,240
356,100,25175,1,0,0:0:0:0:
432,60,25375,6,0,P|376:180|308:174,1,160
112,336,25775,6,0,P|56:216|104:168,1,160
132,252,26175,1,0,0:0:0:0:
80,40,26375,6,0,P|200:72|248:120,1,160
304,124,26675,1,0,0:0:0:0:
344,204,26775,1,0,0:0:0:0:
0,92,26975,6,0,B|40:144|88:160|88:160|132:172|132:172|84:172|60:216,1,240
136,256,27375,1,0,0:0:0:0:
176,336,27575,2,0,B|312:336|312:336|352:296,1,160
432,312,27975,2,0,B|416:248|456:200|456:200|424:176|424:176|456:120|416:64,1,240
360,128,28375,1,0,0:0:0:0:
88,56,28575,6,0,L|152:136,1,80
144,280,28775,6,0,L|80:200,1,80
272,232,28975,6,0,L|336:312,1,80
344,120,29175,6,0,L|280:40,1,80
416,240,29375,6,0,L|480:320,1,80
216,144,29575,5,4,0:0:0:0:
256,192,29675,12,0,31075,0:0:0:0:
440,48,31175,6,0,B|325:-15|211:72|192:167|192:167|304:80|432:104,1,480
480,128,31575,1,0,0:0:0:0:
432,336,31775,6,0,B|400:296|400:296|417:189|417:189|323:144|194:271,1,320
240,287,32075,1,0,0:0:0:0:
296,345,32175,1,0,0:0:0:0:
143,336,32375,6,0,B|136:288|84:288|16:352|16:352|40:240|20:196|20:196|104:56|104:56|167:216|279:152,1,640
140,232,32975,1,0,0:0:0:0:
240,320,33075,2,0,B|256:264|256:264|328:248|464:152,1,160
416,328,33375,1,0,0:0:0:0:
492,188,33575,6,0,B|324:192|232:32|232:32|236:208|384:296|384:296|204:208|64:356,1,960
64,48,34375,6,0,B|152:188|12:336|12:336|144:272|176:196,1,480
200,296,34775,1,0,0:0:0:0:
472,336,34975,6,0,B|360:272|376:160|444:60|444:60|344:0|280:40,1,480
336,104,35375,1,0,0:0:0:0:
64,48,35575,6,0,L|104:264,1,160
120,328,35775,2,0,P|173:222|172:112,1,160
256,104,35975,2,0,P|312:264|352:304,1,160
352,344,36175,5,0,0:0:0:0:
428,272,36275,1,0,0:0:0:0:
456,172,36375,1,0,0:0:0:0:
448,40,36575,6,0,P|304:152|272:296,1,320
387,260,36975,2,0,B|331:123|331:123|260:180|271:316|271:316,1,320
192,256,37375,1,0,0:0:0:0:
192,256,37575,6,0,B|64:352|64:352|32:152|176:12,1,480
172,160,37975,1,0,0:0:0:0:
264,56,38175,6,0,B|320:280|392:344|392:344|408:88,1,480
408,72,38575,1,0,0:0:0:0:
312,136,38775,6,0,B|184:232|184:232|148:296|44:284|44:284|104:240|136:196|116:152|116:152|288:28,1,640
472,140,39375,1,0,0:0:0:0:
448,240,39475,2,0,P|296:352|288:352,1,160
80,48,39775,6,0,B|104:168|40:248|40:248|64:356|64:356|136:244|136:244|200:232|192:168|192:168|232:100|232:100|304:200|248:280|184:308|184:308|224:364|224:364|320:324|392:196|304:84|304:84,1,1280
264,208,40775,6,0,B|240:280|152:344|152:344|304:328,1,320
400,320,41075,1,0,0:0:0:0:
456,240,41175,1,0,0:0:0:0:
328,256,41375,6,0,B|376:176|376:176|488:136|488:136|320:64,1,320
296,56,41675,1,0,0:0:0:0:
208,48,41775,1,0,0:0:0:0:
0,144,41975,6,0,B|120:208|144:368|144:368|192:232,1,320
192,240,42375,1,0,0:0:0:0:
184,240,42475,2,0,B|190:253|224:224|216:176,1,60.0000022888184
224,128,42675,5,0,0:0:0:0:
224,128,42775,2,0,P|264:146|288:176,1,60.0000022888184
312,192,42975,5,0,0:0:0:0:
312,192,43075,1,0,0:0:0:0:
312,192,43175,2,0,B|336:304|328:360|328:360|432:336|408:256|408:256|424:160|488:128|488:128|368:24|368:24|312:48|376:128|376:128|264:64|200:200,1,960
256,40,43975,6,0,P|176:96|128:192,1,160
80,56,44375,1,0,0:0:0:0:
16,256,44575,2,0,P|80:336|176:352,1,160
432,96,44975,1,0,0:0:0:0:
427,359,45175,1,0,0:0:0:0:
200,224,45375,1,0,0:0:0:0:
160,120,45575,5,0,0:0:0:0:
314,185,45775,1,0,0:0:0:0:
249,340,45975,1,0,0:0:0:0:
94,274,46175,1,0,0:0:0:0:
72,48,46375,1,0,0:0:0:0:
328,24,46575,1,0,0:0:0:0:
352,240,46775,1,0,0:0:0:0:
344,272,46875,1,0,0:0:0:0:
320,304,46975,1,0,0:0:0:0:
288,328,47075,1,0,0:0:0:0:
256,336,47175,6,0,B|104:360|48:256|48:256,1,191.999994140625
368,288,47775,6,0,B|256:256|256:256|160:288|96:200,1,287.999991210938
200,168,48575,2,0,B|56:136|32:16|32:16|240:208|464:40|464:40|284:200|284:200|396:220|496:112|496:112|464:288|356:272|356:272|352:336|352:336|232:288|232:288|136:336,1,1680.00006408692
72,368,50175,1,0,0:0:0:0:
168,320,50375,6,0,B|296:256|296:256|296:240|296:240|400:184,1,240
424,328,50775,1,0,0:0:0:0:
456,152,50975,2,0,B|296:40|200:40|184:40|256:104|352:136|352:152|336:168|216:112|200:128|208:144|328:208,1,480
200,320,51775,5,0,0:0:0:0:
16,240,51975,1,0,0:0:0:0:
112,64,52175,1,0,0:0:0:0:
168,40,52275,1,0,0:0:0:0:
224,24,52375,1,0,0:0:0:0:
416,104,52575,1,0,0:0:0:0:
344,224,52775,6,0,L|200:296,1,160
208,96,53175,1,0,0:0:0:0:
320,336,53575,6,0,B|448:320|416:64|416:64|304:32|304:32,1,400
344,120,54175,2,0,B|352:256|336:272|232:264|232:264|288:216|256:88|256:88|200:160,1,480
136,216,54975,6,0,B|56:280|56:280|112:352|184:296,1,240.000009155274
304,56,55375,5,0,0:0:0:0:
360,88,55475,1,0,0:0:0:0:
400,136,55575,1,0,0:0:0:0:
432,192,55675,1,0,0:0:0:0:
448,256,55775,1,0,0:0:0:0:
200,48,55975,5,0,0:0:0:0:
113,62,56075,1,0,0:0:0:0:
43,115,56175,1,0,0:0:0:0:
1,193,56275,1,0,0:0:0:0:
0,281,56375,1,0,0:0:0:0:
29,325,56475,5,0,0:0:0:0:
93,264,56575,1,0,0:0:0:0:
178,252,56675,1,0,0:0:0:0:
250,303,56775,2,0,P|384:328|432:160,1,320
336,232,57375,2,0,P|264:112|80:128,1,320
377,89,57975,2,0,P|385:129|457:183,1,120.000004577637
160,40,58375,5,0,0:0:0:0:
32,184,58775,1,0,0:0:0:0:
144,336,58975,1,0,0:0:0:0:
440,160,59375,5,0,0:0:0:0:
264,240,59575,1,0,0:0:0:0:
432,64,59975,6,0,P|456:256|336:336,1,320
344,176,60575,2,0,P|272:80|80:72,1,320
192,168,61375,2,0,B|176:264|72:216|72:216|48:336|192:352,1,320
208,360,61875,5,0,0:0:0:0:
300,365,61975,1,0,0:0:0:0:
393,356,62075,1,0,0:0:0:0:
468,305,62175,1,0,0:0:0:0:
490,216,62275,1,0,0:0:0:0:
408,232,62375,5,0,0:0:0:0:
317,249,62475,1,0,0:0:0:0:
231,218,62575,1,0,0:0:0:0:
197,135,62675,1,0,0:0:0:0:
272,82,62775,1,0,0:0:0:0:
360,112,62875,1,0,0:0:0:0:
440,64,62975,1,0,0:0:0:0:
480,128,63075,2,0,L|496:224,1,80
120,96,63375,5,0,0:0:0:0:
104,91,63575,1,0,0:0:0:0:
104,75,63775,1,0,0:0:0:0:
120,64,63975,2,0,P|232:96|112:112,1,320
368,80,64575,2,0,B|329:238|329:238|189:311,2,320
104,240,65775,5,0,0:0:0:0:
112,248,66075,1,0,0:0:0:0:
120,256,66375,1,0,0:0:0:0:
416,320,66575,5,0,0:0:0:0:
264,88,66775,1,0,0:0:0:0:
128,296,67175,5,0,0:0:0:0:
424,168,67375,1,0,0:0:0:0:
296,224,67775,1,0,0:0:0:0:
24,48,68175,5,0,0:0:0:0:
96,70,68275,1,0,0:0:0:0:
161,109,68375,1,0,0:0:0:0:
210,164,68475,1,0,0:0:0:0:
251,228,68575,1,0,0:0:0:0:
276,299,68675,1,0,0:0:0:0:
96,328,68775,5,0,0:0:0:0:
432,48,69175,1,0,0:0:0:0:
120,40,69575,5,0,0:0:0:0:
0,248,69775,1,0,0:0:0:0:
224,96,69975,2,0,P|304:56|392:64,1,160
456,312,70375,5,0,0:0:0:0:
320,152,70575,1,0,0:0:0:0:
56,328,70775,1,0,0:0:0:0:
72,184,70975,6,0,B|80:128|144:96|144:96|112:32|112:32|160:48|160:48|200:16|240:64|240:64,1,320
224,264,71575,1,0,0:0:0:0:
376,80,71775,1,0,0:0:0:0:
448,352,71975,2,0,B|416:272|328:272|328:272|408:232|408:232|352:200|344:160,1,320
192,128,72575,5,0,0:0:0:0:
160,72,72675,1,0,0:0:0:0:
104,40,72775,2,0,P|40:48|104:80,1,160
488,224,73375,2,0,B|512:280|512:280|472:336|344:368,1,240
128,348,74175,2,0,B|168:264|224:156|176:56|36:12|-36:48|-48:240|40:324|216:304|216:304|332:288|464:348|464:348|424:172|492:40|492:40|360:228|244:224|244:224|232:120|312:32|432:0|432:0|244:56|112:20,1,2240
16,200,75775,5,0,0:0:0:0:
30,247,75875,1,0,0:0:0:0:
79,282,75975,6,0,B|168:292|212:360|212:360|260:268|388:280,1,320
504,144,76575,2,0,P|466:49|364:-10,1,160
304,320,76975,1,0,0:0:0:0:
192,24,77175,1,0,0:0:0:0:
56,240,77375,6,0,B|32:320|136:352|136:352|104:256|192:208|192:208,1,320
224,304,77975,2,0,B|344:336|344:336|336:272|376:240,1,160
432,320,78375,2,0,B|512:280|440:152|440:152|400:200|400:200|400:160|352:152,1,320
264,112,78975,1,0,0:0:0:0:
40,216,79175,5,0,0:0:0:0:
432,40,79375,1,0,0:0:0:0:
72,304,79575,1,0,0:0:0:0:
432,40,79775,5,0,0:0:0:0:
304,328,79975,1,0,0:0:0:0:
176,8,80175,2,0,P|104:48|40:128,1,160
112,288,80575,1,0,0:0:0:0:
436,80,80775,5,0,0:0:0:0:
448,104,80875,1,0,0:0:0:0:
452,128,80975,1,0,0:0:0:0:
448,152,81075,1,0,0:0:0:0:
440,168,81175,2,0,B|416:216|344:232|344:232|336:256|328:272|328:272|496:296|496:296|272:368|152:376|12:299|12:299|27:217|90:122|289:182|113:265|113:265|356:360|357:-10|88:26|-8:173|-8:173|-32:103|64:28,1,1920
304,144,82575,1,0,0:0:0:0:
424,352,82775,6,0,P|488:280|488:208,1,160
352,56,83175,1,0,0:0:0:0:
176,352,83375,1,0,0:0:0:0:
88,32,83575,1,0,0:0:0:0:
64,272,83775,6,0,B|168:208|168:208|160:144|216:176|216:176|280:216|360:152,1,320
232,312,84375,1,0,0:0:0:0:
42,152,84575,1,0,0:0:0:0:
275,67,84775,2,0,B|368:16|400:64|384:104|384:104|416:200|488:240,1,320
320,288,85375,5,0,0:0:0:0:
280,336,85475,1,0,0:0:0:0:
224,360,85575,2,0,B|192:376|168:368|168:368|104:320|0:232,1,240.000009155274
112,176,86175,2,0,P|117:11|242:102,1,360.000013732911
152,96,86975,6,0,B|169:162|273:201|363:150|352:28|352:28|468:64|389:213|257:243|257:243|408:295|464:232|488:112|488:112|520:336|340:340|340:340|216:300|156:304|26:341|26:341|152:240|152:240|48:188|44:80|44:80,1,1920
248,68,88375,5,0,0:0:0:0:
84,32,88575,1,0,0:0:0:0:
40,376,88975,1,0,0:0:0:0:
80,32,89375,1,0,0:0:0:0:
312,368,89775,1,0,0:0:0:0:
456,48,90175,1,0,0:0:0:0:
140,345,90575,5,0,0:0:0:0:
102,76,90775,1,0,0:0:0:0:
371,38,90975,1,0,0:0:0:0:
408,304,91175,2,0,B|328:328|328:328|448:216|448:216|384:200|376:128,1,320
456,144,91675,5,0,0:0:0:0:
456,128,91775,1,0,0:0:0:0:
424,88,91875,1,0,0:0:0:0:
352,88,91975,1,0,0:0:0:0:
287,110,92075,1,0,0:0:0:0:
229,142,92175,1,0,0:0:0:0:
200,104,92275,1,0,0:0:0:0:
191,38,92375,5,0,0:0:0:0:
56,56,92775,1,0,0:0:0:0:
80,56,92975,1,0,0:0:0:0:
104,64,93175,1,0,0:0:0:0:
136,88,93375,1,0,0:0:0:0:
152,120,93575,5,0,0:0:0:0:
160,184,93675,1,0,0:0:0:0:
200,240,93775,1,0,0:0:0:0:
248,288,93875,1,0,0:0:0:0:
312,304,93975,2,0,B|384:340|384:340|376:260|376:260|452:288|452:288|408:224|408:224|476:176|476:176|400:184|400:184|400:24|400:24|336:172|336:172|308:16|308:16|248:92|264:164|264:164|160:40|160:40|160:200|160:200|76:168|36:104|36:104|104:240|104:240|128:292|100:356|24:356,1,1920
36,276,95375,5,0,0:0:0:0:
12,212,95475,1,0,0:0:0:0:
4,148,95575,1,0,0:0:0:0:
192,16,95775,6,0,B|258:30|325:74|325:74|315:105|315:105|408:104|448:240,1,320
456,248,96075,1,0,0:0:0:0:
472,320,96175,1,0,0:0:0:0:
176,328,96375,5,0,0:0:0:0:
40,32,96575,1,0,0:0:0:0:
216,208,96775,2,0,B|344:328|344:328|368:256|296:176,1,320
256,136,97075,1,0,0:0:0:0:
192,88,97175,1,0,0:0:0:0:
88,8,97375,6,0,B|16:320|16:320|184:48|184:48|200:144|200:144|248:96|248:96|400:128|400:128|184:232|312:384,1,1280
424,208,98375,6,0,B|520:168|504:48|392:32|392:32|288:16,1,320
376,120,98675,1,0,0:0:0:0:
312,200,98775,1,0,0:0:0:0:
112,56,98975,2,0,B|32:160|32:160|104:160|104:160|48:240|144:296|144:296,1,320
168,208,99275,1,0,0:0:0:0:
208,288,99375,1,0,0:0:0:0:
464,328,99575,6,0,B|288:304|288:304|336:248|336:248|288:232|280:168,1,320
392,144,99975,2,0,B|416:96|456:64|456:64|392:56|368:88|368:88|192:64,1,320
48,160,100275,2,0,P|24:200|96:192,1,160
288,96,100575,5,0,0:0:0:0:
192,368,100775,1,0,0:0:0:0:
416,16,100975,5,0,0:0:0:0:
96,336,101175,1,0,0:0:0:0:
472,104,101375,1,0,0:0:0:0:
48,120,101575,6,0,B|25:92|48:16|48:16|115:133|115:133|136:128|136:128|184:208|184:208,1,320
96,208,101875,1,0,0:0:0:0:
144,272,101975,1,0,0:0:0:0:
280,352,102175,6,0,B|344:360|376:320|376:320|464:344|464:344|416:136,1,320
424,120,102475,1,0,0:0:0:0:
400,32,102575,1,0,0:0:0:0:
168,96,102775,6,0,B|96:192|16:216|16:216|40:240|40:240|48:352|48:352,2,320
329,167,103375,1,0,0:0:0:0:
383,255,103475,1,0,0:0:0:0:
376,360,103575,1,0,0:0:0:0:
408,80,103775,6,0,B|408:160|464:216|464:216|376:360|376:360|432:208|240:104|240:104|328:272|136:360|136:360|24:248|136:32,1,1280
312,32,104775,6,0,P|424:56|448:200,1,240.000009155274
384,120,105075,2,0,B|400:152|384:184|312:224,1,120.000004577637
80,296,105375,6,0,P|32:160|96:48,1,240.000009155274
120,128,105675,2,0,P|136:48|96:8,1,120.000004577637
200,264,105975,6,0,L|264:392,1,120.000004577637
312,176,106175,6,0,L|240:32,1,120.000004577637
400,40,106375,5,0,0:0:0:0:
456,120,106475,1,0,0:0:0:0:
312,176,106675,5,0,0:0:0:0:
328,280,106775,1,0,0:0:0:0:
184,264,106975,5,0,0:0:0:0:
112,328,107075,1,0,0:0:0:0:
56,256,107175,2,0,B|-16:55|176:15|176:15|96:215|272:272|272:272|248:176|248:176|336:264|448:264|448:264,1,960
336,88,107975,5,0,0:0:0:0:
448,184,108175,2,0,P|415:282|341:325,1,160
280,208,108575,2,0,P|192:256|160:312,1,160
32,248,108875,1,0,0:0:0:0:
48,272,108975,1,0,0:0:0:0:
80,256,109075,1,0,0:0:0:0:
96,224,109175,1,0,0:0:0:0:
104,176,109275,1,0,0:0:0:0:
96,128,109375,1,0,0:0:0:0:
80,72,109475,1,0,0:0:0:0:
152,32,109575,5,0,0:0:0:0:
232,48,109675,1,0,0:0:0:0:
240,128,109775,1,0,0:0:0:0:
160,112,109875,1,0,0:0:0:0:
232,48,109975,1,0,0:0:0:0:
304,72,110075,1,0,0:0:0:0:
352,136,110175,1,0,0:0:0:0:
360,208,110275,1,0,0:0:0:0:
344,280,110375,2,0,P|272:352|184:360,1,160
152,336,110675,5,0,0:0:0:0:
192,272,110775,1,0,0:0:0:0:
152,216,110875,1,0,0:0:0:0:
168,184,110975,1,0,0:0:0:0:
152,160,111075,1,0,0:0:0:0:
160,136,111175,2,0,B|168:64|200:24|200:24|272:120,1,240.000009155274
320,256,111775,2,0,B|368:304|328:360|328:360|472:288,1,240.000009155274
384,64,112375,1,0,0:0:0:0:
464,72,112575,6,0,B|448:136|384:176|304:136|304:56|304:56|304:16|296:-24|176:-8|112:32|112:32|120:112|80:144|80:144|184:88|184:88|200:144|224:184|272:288|232:336|160:376|81:327|56:280|64:232|104:176|146:174|160:160|284:250|284:250|328:360|328:360|360:312|356:242|356:242|410:295|424:336|424:336|512:400|544:272|400:192,1,1920.00007324219
277,149,114375,6,0,P|357:165|445:229,1,160
312,352,114775,1,0,0:0:0:0:
277,149,114975,2,0,B|253:69|181:53|109:125|157:237|29:325|29:325|37:221,1,480
40,216,115675,1,0,0:0:0:0:
32,192,115775,1,0,0:0:0:0:
40,176,115875,1,0,0:0:0:0:
32,144,115975,1,0,0:0:0:0:
48,96,116075,1,0,0:0:0:0:
128,32,116175,5,0,0:0:0:0:
264,64,116375,1,0,0:0:0:0:
168,168,116575,1,0,0:0:0:0:
264,64,116775,1,0,0:0:0:0:
216,248,116975,1,0,0:0:0:0:
304,200,117175,2,0,B|352:176|352:176|368:128,1,80
368,56,117575,6,0,L|448:208,1,160
464,168,118175,2,0,B|392:312|392:312|360:360|288:336,1,240
264,232,118975,6,0,B|208:272|208:272|176:232|176:232|112:328|16:328|-40:240,1,360.000013732911
56,216,119375,1,0,0:0:0:0:
104,152,119475,1,0,0:0:0:0:
72,96,119575,1,0,0:0:0:0:
88,64,119675,1,0,0:0:0:0:
80,40,119775,1,0,0:0:0:0:
80,40,119975,5,0,0:0:0:0:
104,32,120075,1,0,0:0:0:0:
144,48,120175,1,0,0:0:0:0:
176,88,120275,1,0,0:0:0:0:
248,48,120375,1,0,0:0:0:0:
304,88,120475,1,0,0:0:0:0:
352,144,120575,1,0,0:0:0:0:
368,216,120675,1,0,0:0:0:0:
368,216,120775,6,0,P|304:320|232:256,1,240.000009155274
304,248,121375,2,0,P|208:200|184:320,1,240.000009155274
234,266,121975,2,0,L|192:144,1,120.000004577637
184,128,122375,5,0,0:0:0:0:
232,64,122775,1,0,0:0:0:0:
296,112,122975,1,0,0:0:0:0:
248,176,123375,1,0,0:0:0:0:
344,48,123575,1,0,0:0:0:0:
336,240,123775,6,0,L|400:208,1,40
456,176,123975,2,0,P|440:264|400:304,1,120
360,336,124375,2,0,L|344:240,1,60.0000022888184
336,184,124575,2,0,P|264:232|256:288,1,120.000004577637
232,344,124975,2,0,P|176:304|168:256,1,120.000004577637
175,158,125375,2,0,B|109:202|109:202|88:248,1,120
128,328,125775,6,0,B|15:286|15:286|56:240|56:240|8:208|8:208|112:144|112:144|0:104|0:104|88:80|104:48|104:48|168:88|216:72|216:72|296:96|312:144|240:184|248:240|280:272|280:272|360:256|360:200|360:200|432:296|432:296|424:176|424:176|480:196|480:196|464:76|464:76|376:16|336:56|372:132,1,1680.00006408692
312,48,127375,5,0,0:0:0:0:
184,160,127575,1,0,0:0:0:0:
272,128,127775,1,0,0:0:0:0:
112,256,127975,2,0,B|40:312|40:312|152:296,1,160
208,240,128375,5,0,0:0:0:0:
248,272,128475,1,0,0:0:0:0:
296,256,128575,2,0,B|328:160|320:96|320:96|320:216|400:296,1,320
368,256,129175,1,0,0:0:0:0:
368,256,129375,2,0,B|456:344|456:344|408:296,1,160
192,152,129775,6,0,P|112:88|88:224,2,240
120,160,130575,1,0,0:0:0:0:
120,160,130775,1,0,0:0:0:0:
320,48,131175,5,0,0:0:0:0:
320,48,131375,1,0,0:0:0:0:
360,112,131575,2,8,L|384:152,1,32
408,320,132175,5,0,0:0:0:0:
360,240,132275,1,0,0:0:0:0:
304,280,132375,1,0,0:0:0:0:
280,192,132475,5,0,0:0:0:0:
232,216,132575,1,0,0:0:0:0:
200,256,132675,1,0,0:0:0:0:
184,288,132775,1,0,0:0:0:0:
384,72,133175,1,0,0:0:0:0:
328,340,133575,5,0,0:0:0:0:
308,184,133775,1,0,0:0:0:0:
44,260,133975,1,0,0:0:0:0:
108,352,134175,2,0,P|160:252|140:200,1,160
88,40,134575,2,0,L|128:156,1,80
332,348,134975,6,0,B|352:180|464:176|464:176|236:152|256:64|432:112,1,480.000018310548
468,332,135575,1,0,0:0:0:0:
228,256,135775,1,0,0:0:0:0:
160,60,135975,2,0,B|196:176|196:176|288:148|352:256|284:324|284:324|140:360,1,480.000018310548
96,132,136575,2,0,P|84:184|32:248,1,120.000004577637
272,68,136975,5,0,0:0:0:0:
412,208,137175,1,0,0:0:0:0:
388,384,137375,2,0,B|388:312|332:296|300:216|328:152,1,240
468,32,138175,2,0,B|468:176|408:224|452:348|452:348|368:100|236:216|236:216|112:200|180:-28|320:80|320:80|196:120|168:284|180:344|180:344|80:264|72:48|72:48|-4:168|4:348|4:348|140:188|308:292,1,2240
364,364,139675,1,0,0:0:0:0:
400,276,139775,1,0,0:0:0:0:
392,184,139875,1,0,0:0:0:0:
416,88,139975,6,0,B|348:108|272:36|272:36|296:76|216:148|280:244,1,320
180,60,140575,1,0,0:0:0:0:
104,328,140775,6,0,B|148:280|88:204|156:140,1,160
76,48,141175,1,0,0:0:0:0:
232,160,141375,6,0,B|312:260|312:260|420:288|420:288|464:328|464:328|404:312|404:312|288:348,1,480.000018310548
436,24,141975,5,0,0:0:0:0:
264,368,142175,1,0,0:0:0:0:
180,24,142375,2,0,P|144:168|48:336,1,320
76,112,142975,5,0,0:0:0:0:
304,352,143175,1,0,0:0:0:0:
312,168,143375,1,0,0:0:0:0:
452,304,143575,1,0,0:0:0:0:
512,0,143775,1,0,0:0:0:0:
72,256,143975,1,0,0:0:0:0:
188,48,144175,1,0,0:0:0:0:
136,376,144375,1,0,0:0:0:0:
136,376,144575,6,0,P|200:312|232:236,1,160
280,160,144875,1,0,0:0:0:0:
356,92,144975,1,0,0:0:0:0:
448,56,145075,1,0,0:0:0:0:
420,160,145175,1,0,0:0:0:0:
464,248,145275,1,0,0:0:0:0:
428,344,145375,1,0,0:0:0:0:
332,304,145475,1,0,0:0:0:0:
244,360,145575,2,0,B|184:360|152:252|28:228|0:368|0:368|100:240|100:240|24:100|24:100|96:4|240:12|316:68|316:68|176:144|176:144|340:184,1,1280
472,28,146575,1,0,0:0:0:0:
460,336,146775,5,0,0:0:0:0:
368,140,146975,2,0,B|320:200|232:256|164:248|164:248|140:180|248:72|292:64|292:64|248:256|348:360,1,720.000027465821
384,236,147775,6,0,B|452:168|464:124|448:16|448:16|432:196|468:308,1,480.000018310548
332,40,148375,1,0,0:0:0:0:
452,352,148575,1,0,0:0:0:0:
188,48,148775,2,0,P|232:196|316:352,1,320
64,220,149575,6,0,B|32:120|152:12|152:12|164:108|164:108|128:124|128:124|160:252,1,480.000018310548
304,84,150175,6,0,B|368:124|452:144|452:144|364:148|364:148|296:224|268:368,1,480
108,32,150975,6,0,B|116:160|12:332|12:332|156:200|156:200|168:324|168:324|216:132|296:72|296:72|288:296|288:296|381:195|381:195|376:56|376:56|380:192|500:120|500:120|384:192|384:192|220:244,1,1920
460,48,152375,1,0,0:0:0:0:
96,356,152575,1,0,0:0:0:0:
20,12,152975,1,0,0:0:0:0:
360,368,153375,1,0,0:0:0:0:
484,24,153775,1,0,0:0:0:0:
512,220,154175,1,0,0:0:0:0:
340,48,154575,5,0,0:0:0:0:
296,296,154775,1,0,0:0:0:0:
128,56,154975,1,0,0:0:0:0:
44,220,155175,6,0,B|-76:284|20:380|108:340|108:340|104:204|104:204|224:148|140:284|140:284|216:324|216:324|224:164|224:164|304:300|304:300|228:268|228:268|280:148|280:148|372:92|372:92|372:264|372:264|472:200|472:200|460:132|460:132|412:80|412:80|460:120|460:120|528:40|528:40|496:116,1,1920
384,24,156375,5,0,0:0:0:0:
384,24,156775,1,0,0:0:0:0:
432,192,156975,1,0,0:0:0:0:
224,236,157175,1,0,0:0:0:0:
56,92,157375,6,0,B|96:220|96:220|168:144|168:144|12:308|12:308|96:220|96:220|172:276|224:284|224:284|296:256|264:144|160:188|156:276|224:284|224:284|276:304|336:248|336:248|304:316|348:372|408:352|428:272|428:272|472:324,1,1320.00005035401
480,352,158575,1,0,0:0:0:0:
508,272,158675,1,0,0:0:0:0:
492,188,158775,1,0,0:0:0:0:
436,124,158875,1,0,0:0:0:0:
396,52,158975,1,0,0:0:0:0:
348,120,159075,1,0,0:0:0:0:
284,64,159175,6,0,B|268:160|44:172|40:56|40:56|0:164|44:208|44:208|160:224|212:328|212:328,1,640
360,356,159775,6,0,B|392:184|440:188|440:188|464:164|472:56,1,320
384,20,160075,1,0,0:0:0:0:
304,88,160175,1,0,0:0:0:0:
248,272,160375,6,0,B|352:100|464:40|464:40|456:184|456:184|344:360,1,640
204,180,160975,1,0,0:0:0:0:
168,88,161075,2,0,B|137:212|40:228|40:228|80:304,1,160
340,36,161375,5,0,0:0:0:0:
52,332,161575,1,0,0:0:0:0:
276,24,161775,1,0,0:0:0:0:
428,368,161975,1,0,0:0:0:0:
304,28,162175,1,0,0:0:0:0:
364,228,162375,6,0,B|220:280|220:280|152:212|152:212|120:272|12:252,1,320
80,172,162675,2,0,L|120:356,1,160
164,52,162975,6,0,B|244:16|244:16|420:96|420:96|384:8,1,320
472,184,163275,1,0,0:0:0:0:
512,96,163375,1,0,0:0:0:0:
272,372,163575,5,0,0:0:0:0:
336,4,163775,1,0,0:0:0:0:
16,288,163975,2,0,P|148:212|264:80,1,320
368,144,164275,2,0,P|236:264|180:340,1,160
64,32,164575,5,0,0:0:0:0:
244,364,164775,1,0,0:0:0:0:
220,36,164975,1,0,0:0:0:0:
32,352,165175,1,0,0:0:0:0:
480,16,165375,1,0,0:0:0:0:
400,160,165575,6,0,B|363:235|280:256|316:368|316:368|364:296|364:296|272:176,1,320
336,184,165875,1,0,0:0:0:0:
264,108,165975,1,0,0:0:0:0:
64,28,166175,2,0,L|148:368,1,320
152,140,166475,2,0,L|76:348,1,160
28,228,166775,5,0,0:0:0:0:
480,72,166975,1,0,0:0:0:0:
260,276,167175,2,0,B|328:312|356:208|356:208|428:268|428:268|392:368,1,320
455,197,167475,2,0,L|391:369,1,160
416,36,167775,1,0,0:0:0:0:
132,360,167975,1,0,0:0:0:0:
328,136,168175,1,0,0:0:0:0:
348,384,168375,1,0,0:0:0:0:
120,28,168575,1,0,0:0:0:0:
64,176,168775,6,0,L|320:380,1,320
278,219,169075,2,0,L|318:391,1,160
388,244,169375,2,0,B|340:92|360:20|360:20|404:64|404:64|444:8,1,320
325,168,169675,2,0,L|424:35,1,160
64,56,169975,5,0,0:0:0:0:
500,216,170175,1,0,0:0:0:0:
172,300,170375,1,0,0:0:0:0:
188,188,170475,1,0,0:0:0:0:
144,72,170575,1,0,0:0:0:0:
48,192,170675,1,0,0:0:0:0:
56,352,170775,1,0,0:0:0:0:
484,24,170975,6,0,B|68:84|4:382|4:382|5:379|5:379|3:380|3:380|6:379|6:379|3:381|3:381|3:380|3:380|5:378|5:378|3:380|3:380|5:378|5:378|3:380|3:380|5:378|5:378|4:380|4:380|5:378|5:378|4:380|4:380|5:379|5:379|4:379|4:379|5:378|5:378|3:380|3:380|5:380|5:380|5:380|5:380|5:379|5:379|4:379|4:379|4:380|4:380|4:380|4:380|6:378|6:378|4:380|4:380|5:378|5:378|4:380|4:380|4:380|4:380|5:380|5:380|5:380|5:380|5:378|5:378|4:380|4:380|6:378|6:378|4:380|4:380|6:378|6:378|5:380|5:380|6:378|6:378|5:380|5:380|5:380|5:380|5:378|5:378|3:382|3:382|5:378|5:378|5:380|5:380|6:380|6:380|6:380|6:380|5:380|5:380|5:380|5:380|2:382|2:382|5:379|5:379|2:383|2:383|5:379|5:379|3:383|3:383|5:378|5:378|4:382|4:382|5:378|5:378|6:378|6:378|3:383|3:383|5:379|5:379|3:382|3:382|5:377|5:377|3:382|3:382|6:377|6:377|4:382|4:382|6:377|6:377|3:383|3:383|6:376|6:376|3:382|3:382|5:377|5:377|2:382|2:382|8:378|8:378|3:380|3:380|7:376|7:376|3:382|3:382|8:376|8:376|4:382|4:382|8:376|8:376|4:382|4:382|8:377|8:377|3:382|3:382|3:382|3:382|6:377|6:377|3:382|3:382|6:378|6:378|3:382|3:382|8:375|8:375|5:380|5:380|8:376|8:376|3:382|3:382|156:288|156:288|248:216|256:208|256:208|256:192|256:196|256:196|256:192|256:192|256:196|256:196|256:192|256:192|256:196|256:196|256:192|256:192|256:196|256:196|256:192|256:192|256:196|256:196|256:208|256:208|256:192|256:192|256:208|256:208|256:196|256:196|256:208|256:208|256:196|256:196|256:208|256:208|256:196|256:196|256:208|256:208|256:196|256:196|256:208|256:208|256:196|256:196|256:208|256:208|256:196|256:196|256:208|256:208|256:192|256:192|256:208|256:208|256:196|256:196|256:208|256:208|256:192|256:192|256:208|256:208|256:208|256:208|256:196|256:196|256:208|256:208|264:216|356:288|356:288|480:380|564:248|536:168|480:76|364:104|296:56|228:-20|156:360|-112:88|32:0|96:-8|160:8|152:56|128:64,1,2560
