osu file format v14

[General]
AudioFilename: audio.mp3
AudioLeadIn: 0
PreviewTime: 58740
Countdown: 0
SampleSet: Soft
StackLeniency: 0.7
Mode: 0
LetterboxInBreaks: 0
WidescreenStoryboard: 1

[Editor]
DistanceSpacing: 1.3
BeatDivisor: 6
GridSize: 8
TimelineZoom: 1.5

[Metadata]
Title:Acchi de Kocchi de (TV Size)
TitleUnicode:あっちでこっちで (TV Size)
Artist:Acchi<->Kocchi
ArtistUnicode:あっち⇔こっち
Creator:Bazz B
Version:Uta's Insane
Source:あっちこっち
Tags:-Mikan Mikan Bazz_B Matha Petal Blizs Fantastica Uta fluffy hair sahuang My Angel Azusa Nelliel Time Capsule Chihara Minori PaRaDogi Ducky- Taeyang Agatsu anime japanese Place to here and there fantastica op opening つみき tsumiki 大久保瑠美 ookubo rumi 伊御 io 岡本信彦 okamoto nobuhiko 姫 hime 福原香織 fukuhara kaori 真宵 mayoi 生天目仁美 nabatame hitomi 榊 sakaki 浅沼晋太郎 asanuma shintaro pop jpop j-pop time
BeatmapID:2316106
BeatmapSetID:1108211

[Difficulty]
HPDrainRate:6
CircleSize:4
OverallDifficulty:7.5
ApproachRate:9
SliderMultiplier:1.6
SliderTickRate:1

[Events]
//Background and Video events
0,0,"backg kawaii desu.jpg",0,0
Video,-210,"Nyaw.avi"
//Break Periods
//Storyboard Layer 0 (Background)
//Storyboard Layer 1 (Fail)
//Storyboard Layer 2 (Pass)
//Storyboard Layer 3 (Foreground)
//Storyboard Layer 4 (Overlay)
//Storyboard Sound Samples

[TimingPoints]
1669,285.714285714286,4,2,1,50,1,0
1669,-166.666666666667,4,2,1,50,0,0
6240,-125,4,2,1,55,0,0
7954,-100,4,2,1,45,0,0
8526,-125,4,2,1,55,0,0
10240,-125,4,2,1,65,0,0
10811,-99.9999999999999,4,2,1,60,0,0
18954,-125,4,2,1,30,0,0
19097,-125,4,2,1,35,0,0
19240,-125,4,2,1,40,0,0
19383,-125,4,2,1,45,0,0
19526,-125,4,2,1,50,0,0
19669,-125,4,2,1,55,0,0
19811,-125,4,2,1,60,0,0
19954,-111.111111111111,4,2,1,50,0,0
26811,-111.111111111111,4,2,1,40,0,0
28526,-142.857142857143,4,2,1,40,0,0
29097,-111.111111111111,4,2,1,50,0,0
33669,-111.111111111111,4,2,1,55,0,0
34669,-111.111111111111,4,2,1,60,0,0
35954,-111.111111111111,4,2,1,65,0,0
37647,285.714285714286,4,2,1,35,1,0
37647,-200,4,2,1,35,0,0
38258,285.714285714286,4,2,1,35,1,0
38258,-166.666666666667,4,2,1,35,0,0
42829,-166.666666666667,4,2,1,40,0,0
45115,-166.666666666667,4,2,1,45,0,0
47115,267.857142857143,4,2,1,45,1,0
47383,285.714285714286,4,2,1,50,1,0
51954,-142.857142857143,4,2,1,50,0,0
54240,-111.111111111111,4,2,1,60,0,0
56525,-111.111111111111,4,2,1,50,0,0
57668,-111.111111111111,4,2,1,60,0,0
58811,-99.9999999999999,4,2,1,65,0,1
77097,-142.857142857143,4,2,1,45,0,0
78811,-142.857142857143,4,2,1,55,0,0
79097,-166.666666666667,4,2,1,55,0,0
79383,-125,4,2,1,50,0,0
80525,-125,4,2,1,55,0,0
81668,-125,4,2,1,60,0,0
82811,-125,4,2,1,65,0,0
83954,-125,4,2,1,55,0,0
86240,-125,4,2,1,70,0,0
88025,-125,4,2,1,5,0,0
88097,-125,4,2,1,55,0,0
88168,-125,4,2,1,5,0,0
88240,-83.3333333333333,4,2,1,40,0,0
88383,-83.3333333333333,4,2,1,5,0,0

[Colours]
Combo1 : 255,128,128
Combo2 : 128,128,255
Combo3 : 255,128,255
Combo4 : 207,207,207

[HitObjects]
352,106,1669,5,4,3:2:0:0:
352,106,1883,2,0,P|397:119|453:108,2,95.9999970703126,2|2|2,0:0|0:0|0:0,0:0:0:0:
250,169,2740,2,0,L|241:69,2,95.9999970703126,2|2|2,0:0|0:0|0:0,0:0:0:0:
209,239,3383,2,0,P|254:250|292:245,1,63.9999980468751,8|0,0:1|3:0,0:0:0:0:
348,225,3669,1,4,0:3:0:0:
504,334,3954,5,4,3:2:0:0:
504,334,4169,2,0,P|491:289|502:233,2,95.9999970703126,2|2|2,0:0|0:0|0:0,0:0:0:0:
368,307,5026,2,0,P|381:262|370:206,2,95.9999970703126,2|2|2,0:0|0:0|3:2,0:0:0:0:
301,351,5669,2,0,L|216:344,1,63.9999980468751,8|0,0:0|3:0,0:0:0:0:
158,353,5954,1,8,0:0:0:0:
21,221,6240,6,0,P|83:199|132:212,1,85.3333333333333,2|2,3:2|0:0,0:0:0:0:
180,218,6526,2,0,L|301:208,1,85.3333333333333,2|2,0:0|0:0,0:0:0:0:
341,188,6811,1,12,0:0:0:0:
397,17,7097,2,0,P|335:39|286:26,1,85.3333333333333,2|2,3:2|0:0,0:0:0:0:
238,49,7383,2,0,L|247:144,1,85.3333333333333,2|2,0:0|0:0,0:0:0:0:
265,210,7669,1,12,0:0:0:0:
432,341,7954,6,0,P|377:313|396:306,1,106.666666666667,2|0,0:0|0:0,0:0:0:0:
361,264,8240,6,0,P|415:291|396:298,1,106.666666666667,2|0,0:0|0:0,0:0:0:0:
290,308,8526,1,10,0:0:0:0:
290,308,8716,2,0,L|277:173,2,128,2|2|10,3:2|3:2|3:2,0:0:0:0:
185,272,9573,1,10,0:0:0:0:
185,272,9669,2,0,B|117:259|129:304|43:291,1,128,2|0,3:0|0:0,0:0:0:0:
251,174,10240,5,8,0:0:0:0:
262,175,10311,1,8,0:0:0:0:
272,176,10382,1,8,0:0:0:0:
283,177,10454,1,8,0:0:0:0:
294,178,10526,2,0,L|346:183,3,32,8|8|8|8,0:0|0:0|0:0|0:0,0:0:0:0:
362,185,10811,6,0,P|379:77|332:24,1,160,6|0,3:2|3:0,0:0:0:0:
255,69,11240,1,8,0:0:0:0:
255,69,11383,2,0,L|167:62,1,80,0|8,3:0|0:0,0:0:0:0:
80,26,11669,2,0,L|-8:33,1,80,2|10,3:2|0:0,0:0:0:0:
0,166,11954,6,0,L|79:159,1,80,2|8,3:2|0:0,0:0:0:0:
187,287,12240,2,0,L|141:221,1,80,2|8,3:2|0:0,0:0:0:0:
198,64,12526,2,0,L|163:136,1,80,2|8,3:2|0:0,0:0:0:0:
67,284,12811,1,2,3:2:0:0:
121,357,12954,1,8,0:0:0:0:
206,308,13097,6,0,B|260:283|260:283|390:306,1,160,2|0,3:2|3:0,0:0:0:0:
466,295,13526,1,8,0:0:0:0:
466,295,13669,2,0,P|459:226|469:204,1,80,0|8,3:0|0:0,0:0:0:0:
397,127,13954,2,0,L|501:122,1,80,2|10,3:2|0:0,0:0:0:0:
323,199,14240,6,0,L|219:194,1,80,2|8,3:2|0:0,0:0:0:0:
247,56,14526,2,0,L|351:51,1,80,2|8,3:2|0:0,0:0:0:0:
476,123,14811,2,0,L|397:127,1,80,2|8,3:2|0:0,0:0:0:0:
243,195,15097,2,0,L|323:199,1,80,2|8,3:2|0:0,0:0:0:0:
419,256,15383,5,0,3:0:0:0:
419,256,15454,1,0,3:0:0:0:
419,256,15526,2,0,P|430:315|426:338,1,80,0|0,3:0|3:0,0:0:0:0:
325,378,15811,2,0,P|314:319|318:296,1,80,0|0,3:0|3:0,0:0:0:0:
342,159,16097,1,10,0:0:0:0:
231,248,16240,2,0,L|135:241,1,80,10|10,0:0|0:0,0:0:0:0:
135,234,16454,1,8,0:0:0:0:
135,234,16526,6,0,L|39:227,1,80,8|8,3:2|0:0,0:0:0:0:
0,120,16811,1,8,0:0:0:0:
0,120,16954,2,0,L|179:133,1,160,8|8,3:2|0:0,0:0:0:0:
256,176,17383,2,0,L|352:169,1,80,8|8,3:2|3:2,0:0:0:0:
422,133,17669,5,8,0:0:0:0:
414,233,17811,1,8,0:0:0:0:
509,141,17954,1,8,0:0:0:0:
501,241,18096,1,8,0:0:0:0:
499,259,18383,5,8,0:0:0:0:
511,122,18669,1,8,0:0:0:0:
298,87,18954,6,0,P|330:88|362:91,2,64,2|2|2,0:0|0:0|0:0,0:0:0:0:
226,122,19383,2,0,P|230:161|233:209,1,64,2|2,0:0|0:0,0:0:0:0:
156,206,19669,1,2,3:2:0:0:
156,206,19811,1,2,0:0:0:0:
123,292,19954,6,0,P|81:258|81:161,1,143.999995605469,2|8,3:0|0:0,0:0:0:0:
115,81,20383,1,0,3:0:0:0:
205,131,20526,2,0,P|240:126|276:122,2,71.9999978027344,0|0|8,3:0|0:0|0:0,0:0:0:0:
372,216,20954,6,0,B|389:132|349:156|360:56,2,143.999995605469,2|0|0,3:0|3:0|3:0,0:0:0:0:
437,295,21669,2,0,L|521:286,1,71.9999978027344,0|0,3:0|0:0,0:0:0:0:
372,216,21954,2,0,L|288:207,1,71.9999978027344,8|0,0:0|0:0,0:0:0:0:
201,162,22240,6,0,L|215:315,1,143.999995605469,2|8,3:0|0:0,0:0:0:0:
130,359,22669,1,0,3:0:0:0:
63,288,22811,2,0,P|66:220|67:189,1,71.9999978027344,0|0,3:2|0:0,0:0:0:0:
4,103,23097,2,0,B|55:128|55:128|161:102,1,143.999995605469,10|0,0:0|0:0,0:0:0:0:
199,24,23526,2,0,L|271:19,2,71.9999978027344,2|10|2,0:0|0:0|3:2,0:0:0:0:
231,131,23954,2,0,L|324:124,1,71.9999978027344,2|2,3:2|3:2,0:0:0:0:
326,127,24169,1,0,3:0:0:0:
326,127,24240,2,0,P|361:134|412:128,1,71.9999978027344,10|2,0:0|3:2,0:0:0:0:
512,226,24526,6,0,P|421:242|376:211,1,143.999995605469,2|8,3:0|0:0,0:0:0:0:
326,127,24954,1,0,3:0:0:0:
240,187,25097,2,0,P|157:174|67:167,1,143.999995605469,0|8,3:0|0:0,0:0:0:0:
9,234,25526,6,0,P|3:282|15:324,1,71.9999978027344,2|0,3:0|0:0,0:0:0:0:
113,351,25811,2,0,P|119:303|107:261,1,71.9999978027344,0|8,0:0|0:0,0:0:0:0:
175,197,26097,1,0,3:0:0:0:
260,262,26240,2,0,L|347:271,1,71.9999978027344,0|8,3:0|0:0,0:0:0:0:
349,279,26454,1,8,0:0:0:0:
349,279,26526,2,0,L|420:271,1,71.9999978027344,8|0,0:0|3:0,0:0:0:0:
293,358,26811,5,14,0:0:0:0:
275,359,27097,1,2,0:1:0:0:
257,360,27383,1,2,0:1:0:0:
239,361,27669,1,2,0:1:0:0:
221,362,27954,1,2,0:1:0:0:
203,363,28240,6,0,L|121:357,1,71.9999978027344,2|2,0:3|0:0,0:0:0:0:
22,300,28526,2,0,L|14:233,1,55.9999982910157,8|2,0:1|0:0,0:0:0:0:
109,276,28811,2,0,L|101:209,1,55.9999982910157,8|2,0:1|0:0,0:0:0:0:
195,254,29097,6,0,L|177:105,1,143.999995605469,2|8,3:0|0:0,0:0:0:0:
122,27,29526,1,0,3:0:0:0:
45,93,29669,2,0,P|120:126|195:98,1,143.999995605469,0|8,3:0|0:0,0:0:0:0:
248,29,30097,6,0,L|350:47,1,71.9999978027344,2|0,3:0|0:0,0:0:0:0:
462,2,30383,2,0,L|395:81,1,71.9999978027344,0|8,3:0|0:0,0:0:0:0:
375,200,30669,2,0,L|339:102,2,71.9999978027344,0|0|0,3:0|3:0|0:0,0:0:0:0:
331,303,31097,2,0,P|375:299|423:299,1,71.9999978027344,8|0,0:0|0:0,0:0:0:0:
488,203,31383,5,8,3:2:0:0:
343,312,31669,1,8,3:2:0:0:
320,121,31954,1,8,3:2:0:0:
408,367,32240,6,0,P|303:332|250:353,1,143.999995605469,10|0,3:2|0:0,0:0:0:0:
173,361,32669,1,2,3:2:0:0:
193,264,32811,2,0,L|197:168,1,71.9999978027344,10|2,0:0|3:2,0:0:0:0:
227,96,33097,2,0,L|325:87,1,71.9999978027344,2|2,3:2|3:2,0:0:0:0:
320,104,33311,1,8,0:0:0:0:
320,104,33383,2,0,L|418:95,1,71.9999978027344,10|2,0:0|3:2,0:0:0:0:
462,24,33669,6,0,P|493:87|477:155,1,143.999995605469,2|8,3:0|0:0,0:0:0:0:
377,218,34097,1,0,3:0:0:0:
377,218,34240,2,0,P|440:186|508:202,1,143.999995605469,0|8,3:0|0:0,0:0:0:0:
458,347,34669,2,0,L|449:261,1,71.9999978027344,6|0,3:0|0:0,0:0:0:0:
293,177,34954,2,0,L|285:248,1,71.9999978027344,0|8,3:0|0:0,0:0:0:0:
242,334,35240,1,0,3:0:0:0:
242,334,35383,2,0,P|144:332|127:271,1,143.999995605469,8|8,0:0|0:0,0:0:0:0:
141,97,35954,5,8,0:0:0:0:
166,194,36097,1,8,0:0:0:0:
256,64,36240,1,8,0:0:0:0:
256,160,36383,1,8,0:0:0:0:
371,97,36526,1,8,0:0:0:0:
346,194,36669,1,8,0:0:0:0:
256,32,36954,5,2,3:0:0:0:
256,32,37647,6,0,L|256:128,1,80,2|2,0:0|0:0,0:0:0:0:
320,192,38258,2,0,P|384:168|432:176,1,95.9999970703126,0|2,0:0|0:0,0:0:0:0:
480,264,38829,2,0,P|416:288|368:280,1,95.9999970703126,0|2,0:0|0:0,0:0:0:0:
290,330,39400,2,0,L|282:274,1,47.9999985351563
81,218,39686,5,2,0:0:0:0:
114,244,39829,1,2,0:0:0:0:
151,254,39972,1,2,0:0:0:0:
179,251,40115,1,2,0:0:0:0:
196,244,40258,1,2,0:0:0:0:
207,235,40400,1,2,0:0:0:0:
213,227,40543,6,0,L|204:129,1,95.9999970703126,0|2,0:0|0:0,0:0:0:0:
101,31,41115,2,0,L|92:126,1,95.9999970703126,0|2,0:0|0:0,0:0:0:0:
293,200,41686,2,0,P|321:197|343:192,1,47.9999985351563
491,62,41972,5,2,0:0:0:0:
458,36,42115,1,2,0:0:0:0:
421,26,42258,1,2,0:0:0:0:
393,29,42401,1,2,0:0:0:0:
376,36,42544,1,2,0:0:0:0:
365,45,42686,1,2,0:0:0:0:
359,53,42829,6,0,L|368:151,2,95.9999970703126,0|2|0,0:0|0:0|0:0,0:0:0:0:
431,213,43686,1,2,0:0:0:0:
431,213,43972,2,0,P|354:238|328:230,2,95.9999970703126,0|2|0,0:0|0:0|0:0,0:0:0:0:
272,181,44829,1,2,0:0:0:0:
272,181,45115,6,0,P|255:233|269:289,1,95.9999970703126,8|0,0:1|0:0,0:0:0:0:
167,151,45686,2,0,P|183:106|177:59,1,95.9999970703126,8|2,0:1|0:0,0:0:0:0:
81,233,46258,2,0,P|64:277|70:324,1,95.9999970703126,8|0,0:1|0:0,0:0:0:0:
5,121,46829,2,0,P|21:76|15:29,1,95.9999970703126,8|2,0:1|0:0,0:0:0:0:
88,189,47382,5,8,0:3:0:0:
101,188,47668,1,2,0:0:0:0:
114,187,47954,1,8,0:3:0:0:
127,187,48240,1,2,0:0:0:0:
141,186,48525,1,8,0:3:0:0:
154,186,48811,1,2,0:0:0:0:
167,185,49097,6,0,P|238:214|234:157,1,160,0|4,3:0|3:0,3:0:0:0:
123,34,49668,5,8,0:3:0:0:
152,37,49954,1,2,0:0:0:0:
134,60,50240,1,8,0:3:0:0:
123,34,50525,1,2,0:0:0:0:
152,37,50812,1,8,0:3:0:0:
134,60,51097,1,2,0:0:0:0:
123,34,51383,6,0,P|106:117|134:160,1,120,0|0,3:0|0:0,0:0:0:0:
138,160,51668,2,0,P|198:128|277:144,1,120,4|0,3:0|0:0,0:0:0:0:
323,154,51954,6,0,L|310:283,1,111.999996582031,8|2,3:0|0:0,0:0:0:0:
228,329,52430,1,0,3:0:0:0:
228,329,52525,2,0,P|159:308|109:326,1,111.999996582031,8|2,0:0|0:0,0:0:0:0:
0,364,53097,1,8,3:0:0:0:
41,275,53287,1,8,0:0:0:0:
41,275,53383,2,0,P|57:213|36:164,1,111.999996582031,2|8,3:2|0:0,0:0:0:0:
0,53,53954,1,2,3:2:0:0:
120,122,54240,6,0,B|174:117|174:117|211:131|211:131|281:125,1,143.999995605469,2|2,3:0|0:0,0:0:0:0:
362,70,54668,1,0,3:0:0:0:
257,140,54811,2,0,P|248:220|309:274,1,143.999995605469,12|2,0:0|0:0,0:0:0:0:
334,188,55383,5,8,0:0:0:0:
229,335,55525,2,0,B|161:303|157:352|84:317,1,143.999995605469,8|8,0:0|0:0,0:0:0:0:
6,249,55954,2,0,L|-1:322,2,47.9999985351563,8|8|8,0:0|0:3|0:3,0:0:0:0:
74,172,56240,2,0,L|68:124,2,47.9999985351563,0|8|8,3:0|0:3|0:3,0:0:0:0:
146,240,56525,6,0,P|226:250|288:200,1,143.999995605469,2|2,1:3|1:2,0:0:0:0:
297,62,56954,1,0,1:0:0:0:
211,93,57097,2,0,P|201:128|206:184,1,71.9999978027344,2|0,1:3|0:0,0:0:0:0:
358,240,57383,2,0,P|358:204|348:169,1,71.9999978027344,2|0,1:2|0:0,0:0:0:0:
125,68,57668,6,0,P|114:117|115:159,1,71.9999978027344,4|2,3:2|0:1,0:0:0:0:
28,239,57954,2,0,L|126:231,1,71.9999978027344,2|2,3:1|0:1,0:0:0:0:
180,296,58240,1,8,0:0:0:0:
208,297,58311,1,8,0:0:0:0:
236,300,58382,1,8,0:0:0:0:
264,303,58454,1,8,0:0:0:0:
292,305,58525,2,0,L|362:298,3,35.9999989013672,8|8|8|8,0:0|0:0|0:0|0:0,0:0:0:0:
402,360,58811,6,0,P|423:305|370:218,1,160,6|0,3:2|3:0,0:0:0:0:
254,146,59240,1,10,0:0:0:0:
254,146,59383,2,0,L|263:232,1,80,2|10,3:2|0:2,0:0:0:0:
151,96,59668,2,0,L|142:182,1,80,2|8,3:2|0:0,0:0:0:0:
230,58,59954,5,2,3:2:0:0:
67,118,60097,1,8,0:0:0:0:
254,146,60240,2,0,B|336:123|336:178|415:151,1,160,2|2,3:2|3:2,0:0:0:0:
456,55,60668,1,10,0:0:0:0:
456,55,60811,2,0,L|351:68,1,80,2|8,3:2|0:0,0:0:0:0:
292,225,61097,6,0,P|382:246|452:227,1,160,2|0,3:2|3:0,0:0:0:0:
323,132,61525,1,10,0:0:0:0:
204,242,61668,2,0,B|226:309|220:369|220:369|231:338|255:312,1,160,2|2,3:2|3:2,0:0:0:0:
376,297,62097,1,10,0:0:0:0:
376,297,62240,6,0,L|281:289,1,80,10|0,1:2|0:0,0:0:0:0:
380,144,62525,2,0,L|285:152,1,80,10|0,1:2|0:0,0:0:0:0:
442,223,62811,2,0,P|483:142|471:94,1,120,10|0,1:2|3:0,0:0:0:0:
472,91,63097,1,8,0:0:0:0:
395,30,63240,6,0,P|327:71|245:36,1,160,12|8,0:0|0:0,0:0:0:0:
125,17,63668,2,0,P|135:51|141:109,1,80,0|8,3:0|0:0,0:0:0:0:
244,160,63954,2,0,P|248:120|259:81,1,80,0|8,3:0|0:0,0:0:0:0:
361,27,64240,2,0,P|371:65|375:105,1,80,0|8,3:0|0:0,0:0:0:0:
342,246,64525,6,0,B|278:241|278:241|242:255|242:255|174:250,1,160,2|2,3:2|3:2,0:0:0:0:
336,340,64954,2,0,P|417:309|430:222,1,160,10|10,0:0|0:0,0:0:0:0:
375,150,65383,1,0,3:0:0:0:
184,250,65525,6,0,B|242:255|242:255|278:241|278:241|342:246,1,160,12|8,0:0|0:0,0:0:0:0:
375,150,65954,2,0,L|288:144,1,80,0|8,3:0|0:0,0:0:0:0:
257,45,66240,2,0,L|191:102,1,80,2|8,3:2|0:0,0:0:0:0:
101,52,66525,2,0,L|95:138,1,80,0|8,3:0|3:2,0:0:0:0:
40,232,66811,1,8,0:0:0:0:
171,215,66954,1,0,3:0:0:0:
40,232,67097,1,8,0:0:0:0:
158,306,67240,6,0,P|239:280|258:210,1,160,8|8,0:0|0:0,0:0:0:0:
234,122,67668,2,0,L|303:119,1,40,8|0,0:0|0:0,0:0:0:0:
369,117,67811,2,0,L|438:114,1,40,8|0,0:0|0:0,0:0:0:0:
501,177,67954,6,0,P|416:197|380:269,1,160,6|0,3:2|3:0,0:0:0:0:
478,271,68383,1,10,0:0:0:0:
396,352,68525,2,0,P|357:347|307:347,1,80,2|10,3:2|0:0,0:0:0:0:
160,278,68811,2,0,P|198:273|249:273,1,80,2|8,3:2|0:0,0:0:0:0:
129,207,69097,5,2,3:2:0:0:
98,341,69240,1,8,0:0:0:0:
129,207,69383,2,0,B|156:138|125:88|125:88|122:116|108:140,1,160,2|2,3:2|3:2,0:0:0:0:
235,202,69811,1,10,0:0:0:0:
235,202,69954,2,0,L|329:198,1,80,2|8,3:2|0:0,0:0:0:0:
190,279,70240,6,0,P|120:299|45:248,1,160,2|0,3:2|3:0,0:0:0:0:
92,140,70668,1,10,0:2:0:0:
280,234,70811,2,0,B|307:303|276:353|276:353|273:325|259:301,1,160,2|2,3:2|3:2,0:0:0:0:
194,192,71240,1,8,0:0:0:0:
194,192,71383,6,0,L|355:199,2,160,10|10|2,1:2|1:2|1:2,0:0:0:0:
260,97,72097,1,0,3:0:0:0:
260,97,72168,1,0,3:0:0:0:
260,97,72240,1,8,0:0:0:0:
132,115,72383,6,0,P|97:174|138:270,1,160,12|8,0:0|0:0,0:0:0:0:
209,327,72811,2,0,L|310:318,1,80,0|8,3:0|0:0,0:0:0:0:
352,239,73097,2,0,L|453:248,1,80,0|8,3:0|0:0,0:0:0:0:
281,161,73383,2,0,L|180:170,1,80,0|8,3:0|0:0,0:0:0:0:
346,73,73668,5,0,3:0:0:0:
392,155,73811,1,0,3:0:0:0:
456,76,73954,2,0,P|490:138|450:244,1,160,12|0,0:0|3:0,0:0:0:0:
406,303,74383,5,0,3:0:0:0:
321,242,74525,2,0,B|242:216|244:279|140:233,1,160,12|0,0:0|3:0,0:0:0:0:
75,285,74954,5,0,3:0:0:0:
169,324,75097,2,8,L|159:150,1,160,12|0,0:0|3:0,0:0:0:0:
112,75,75525,5,0,3:0:0:0:
248,135,75668,2,0,P|307:128|332:124,1,80,12|0,0:0|0:0,0:0:0:0:
413,193,75954,6,0,P|431:109|394:38,2,160,8|8|8,3:2|3:2|3:2,0:0:0:0:
335,243,76668,1,0,3:0:0:0:
335,243,76740,1,0,3:0:0:0:
335,243,76811,1,8,3:2:0:0:
271,170,76954,1,8,0:0:0:0:
271,170,77025,1,8,0:0:0:0:
271,170,77097,6,0,B|260:139|260:139|245:156|207:231|255:332,1,223.999993164063,4|2,3:2|0:0,0:0:0:0:
465,287,78240,1,2,0:0:0:0:
250,321,78811,5,2,3:2:0:0:
229,319,78882,1,4,3:0:0:0:
208,318,78953,1,0,3:0:0:0:
187,316,79025,1,0,3:0:0:0:
166,315,79097,2,0,L|115:310,1,47.9999985351563,8|0,0:0|0:0,0:0:0:0:
37,304,79383,5,2,3:0:0:0:
37,304,79668,2,0,L|46:170,1,128,2|0,0:0|3:0,0:0:0:0:
112,111,80097,1,0,0:0:0:0:
112,111,80240,2,0,P|143:122|187:128,1,64,2|0,0:0|0:0,0:0:0:0:
259,111,80525,5,2,3:0:0:0:
259,111,80811,2,0,P|244:212|237:262,1,128,2|0,0:0|3:0,0:0:0:0:
255,338,81240,1,0,0:0:0:0:
255,338,81383,2,0,P|200:333|174:331,1,64,2|0,0:0|0:0,0:0:0:0:
96,357,81668,5,2,3:0:0:0:
96,129,81954,1,2,3:0:0:0:
230,313,82240,1,2,3:0:0:0:
14,243,82525,1,2,3:0:0:0:
230,172,82811,2,0,L|278:184,7,32,8|8|8|8|8|8|8|8,3:2|0:0|0:0|0:0|3:2|0:0|0:0|0:0,0:0:0:0:
338,218,83383,2,0,L|386:206,7,32,8|8|8|8|8|8|8|8,3:2|0:0|0:0|0:0|3:2|0:0|0:0|0:0,0:0:0:0:
408,293,83954,6,0,P|457:248|454:183,1,128,4|0,3:2|3:0,0:0:0:0:
409,109,84383,1,2,0:0:0:0:
409,109,84525,2,0,L|415:22,1,64,0|0,3:0|0:0,0:0:0:0:
319,160,84811,2,0,L|323:223,1,64,0|2,3:0|0:0,0:0:0:0:
206,84,85097,6,0,L|216:237,1,128,0|8,3:0|0:0,0:0:0:0:
214,211,85668,1,8,0:0:0:0:
162,291,85811,1,0,3:0:0:0:
162,291,85883,1,0,3:0:0:0:
162,291,85954,1,4,0:3:0:0:
88,222,86097,1,4,3:0:0:0:
252,289,86240,5,10,0:0:0:0:
103,370,86383,1,10,0:0:0:0:
282,190,86811,5,10,0:0:0:0:
344,347,86954,1,10,0:0:0:0:
344,347,87383,5,10,0:0:0:0:
282,190,87526,1,10,0:0:0:0:
252,289,87668,1,10,0:0:0:0:
470,214,87811,1,10,0:0:0:0:
469,194,88097,5,2,0:0:0:0:
400,147,88240,2,0,P|384:202|411:194,1,95.9999970703126,10|0,0:0|0:0,0:0:0:0:
