osu file format v14

[General]
AudioFilename: audio.mp3
AudioLeadIn: 0
PreviewTime: 58740
Countdown: 0
SampleSet: Soft
StackLeniency: 0.7
Mode: 0
LetterboxInBreaks: 0
WidescreenStoryboard: 1

[Editor]
DistanceSpacing: 1.3
BeatDivisor: 6
GridSize: 8
TimelineZoom: 1.5

[Metadata]
Title:Acchi de Kocchi de (TV Size)
TitleUnicode:あっちでこっちで (TV Size)
Artist:Acchi<->Kocchi
ArtistUnicode:あっち⇔こっち
Creator:Bazz B
Version:Taeyang's Another
Source:あっちこっち
Tags:-Mikan Mikan Bazz_B Matha Petal Blizs Fantastica Uta fluffy hair sahuang My Angel Azusa Nelliel Time Capsule Chihara Minori PaRaDogi Ducky- Taeyang Agatsu anime japanese Place to here and there fantastica op opening つみき tsumiki 大久保瑠美 ookubo rumi 伊御 io 岡本信彦 okamoto nobuhiko 姫 hime 福原香織 fukuhara kaori 真宵 mayoi 生天目仁美 nabatame hitomi 榊 sakaki 浅沼晋太郎 asanuma shintaro pop jpop j-pop time
BeatmapID:2316105
BeatmapSetID:1108211

[Difficulty]
HPDrainRate:6
CircleSize:4
OverallDifficulty:8
ApproachRate:9.2
SliderMultiplier:1.65
SliderTickRate:1

[Events]
//Background and Video events
0,0,"backg kawaii desu.jpg",0,0
Video,-210,"Nyaw.avi"
//Break Periods
//Storyboard Layer 0 (Background)
//Storyboard Layer 1 (Fail)
//Storyboard Layer 2 (Pass)
//Storyboard Layer 3 (Foreground)
//Storyboard Layer 4 (Overlay)
//Storyboard Sound Samples

[TimingPoints]
1669,285.714285714286,4,2,1,50,1,0
7954,-133.333333333333,4,2,1,45,0,0
8240,-83.3333333333333,4,2,1,45,0,0
8526,-83.3333333333333,4,2,1,55,0,0
10145,-83.3333333333333,4,2,1,5,0,0
10240,-83.3333333333333,4,2,1,65,0,0
10811,-83.3333333333333,4,2,1,60,0,0
18954,-83.3333333333333,4,2,1,30,0,0
19097,-83.3333333333333,4,2,1,35,0,0
19240,-83.3333333333333,4,2,1,40,0,0
19383,-83.3333333333333,4,2,1,45,0,0
19526,-83.3333333333333,4,2,1,50,0,0
19669,-83.3333333333333,4,2,1,55,0,0
19883,-83.3333333333333,4,2,1,5,0,0
19954,-100,4,2,1,50,0,0
26811,-181.818181818182,4,2,1,65,0,0
26883,-181.818181818182,4,2,1,30,0,0
27169,-181.818181818182,4,2,1,30,0,0
27311,-181.818181818182,4,2,1,70,0,0
27597,-181.818181818182,4,2,1,70,0,0
28526,-133.333333333333,4,2,1,40,0,0
29097,-100,4,2,1,50,0,0
31383,-111.111111111111,4,2,1,50,0,0
31597,-111.111111111111,4,2,1,5,0,0
31669,-100,4,2,1,50,0,0
31883,-100,4,2,1,5,0,0
31954,-90.9090909090909,4,2,1,50,0,0
32169,-90.9090909090909,4,2,1,5,0,0
32240,-133.333333333333,4,2,1,50,0,0
33669,-100,4,2,1,55,0,0
34669,-100,4,2,1,60,0,0
34883,-100,4,2,1,5,0,0
34954,-100,4,2,1,60,0,0
35597,-100,4,2,1,5,0,0
35669,-100,4,2,1,60,0,0
35883,-100,4,2,1,5,0,0
35954,-100,4,2,1,65,0,0
36883,-100,4,2,1,5,0,0
36954,-100,4,2,1,65,0,0
37647,285.714285714286,4,2,1,35,1,0
37647,-200,4,2,1,35,0,0
38258,285.714285714286,4,2,1,35,1,0
38258,-200,4,2,1,35,0,0
42829,-200,4,2,1,40,0,0
43019,-200,4,2,1,5,0,0
43115,-200,4,2,1,40,0,0
43305,-200,4,2,1,5,0,0
43400,-200,4,2,1,40,0,0
43591,-200,4,2,1,5,0,0
43686,-200,4,2,1,40,0,0
44448,-200,4,2,1,5,0,0
44543,-200,4,2,1,40,0,0
44734,-200,4,2,1,5,0,0
44829,-200,4,2,1,40,0,0
45019,-200,4,2,1,5,0,0
45115,-83.3333333333333,4,2,1,45,0,0
45258,-83.3333333333333,4,2,1,5,0,0
45686,-100,4,2,1,45,0,0
45829,-100,4,2,1,5,0,0
46258,-133.333333333333,4,2,1,45,0,0
46400,-133.333333333333,4,2,1,5,0,0
46829,-100,4,2,1,45,0,0
46972,-100,4,2,1,5,0,0
47115,267.857142857143,4,2,1,45,1,0
47383,285.714285714286,4,2,1,50,1,0
47383,-133.333333333333,4,2,1,50,0,0
49097,-133.333333333333,4,2,1,60,0,0
49311,-133.333333333333,4,2,1,5,0,0
49383,-83.3333333333333,4,2,1,60,0,0
49597,-83.3333333333333,4,2,1,5,0,0
49668,-133.333333333333,4,2,1,45,0,0
51383,-133.333333333333,4,2,1,60,0,0
51668,-83.3333333333333,4,2,1,60,0,0
51883,-83.3333333333333,4,2,1,5,0,0
51954,-83.3333333333333,4,2,1,50,0,0
52025,-83.3333333333333,4,2,1,5,0,0
52525,-83.3333333333333,4,2,1,50,0,0
52597,-83.3333333333333,4,2,1,5,0,0
53097,-83.3333333333333,4,2,1,50,0,0
53168,-83.3333333333333,4,2,1,5,0,0
53668,-83.3333333333333,4,2,1,50,0,0
53740,-83.3333333333333,4,2,1,5,0,0
53954,-83.3333333333333,4,2,1,55,0,0
54240,-83.3333333333333,4,2,1,60,0,0
54454,-83.3333333333333,4,2,1,5,0,0
54525,-83.3333333333333,4,2,1,60,0,0
54740,-83.3333333333333,4,2,1,5,0,0
54811,-83.3333333333333,4,2,1,60,0,0
56525,-83.3333333333333,4,2,1,50,0,0
57311,-83.3333333333333,4,2,1,5,0,0
57383,-133.333333333333,4,2,1,50,0,0
57668,-83.3333333333333,4,2,1,60,0,0
58811,-71.4285714285714,4,2,1,65,0,1
77097,-71.4285714285714,4,2,1,45,0,0
77668,-166.666666666667,4,2,1,45,0,0
78168,-166.666666666667,4,2,1,5,0,0
78240,-125,4,2,1,45,0,0
78740,-125,4,2,1,5,0,0
78811,-125,4,2,1,55,0,0
79383,-100,4,2,1,50,0,0
80525,-100,4,2,1,55,0,0
81668,-100,4,2,1,60,0,0
82811,-100,4,2,1,65,0,0
83954,-100,4,2,1,55,0,0
86240,-100,4,2,1,70,0,0
88025,-100,4,2,1,5,0,0
88097,-100,4,2,1,55,0,0
88240,-100,4,2,1,60,0,0

[Colours]
Combo1 : 255,128,128
Combo2 : 128,128,255
Combo3 : 255,128,255
Combo4 : 207,207,207

[HitObjects]
94,189,1669,5,4,3:2:0:0:
180,170,2240,1,8,0:1:0:0:
199,256,2811,1,8,0:1:0:0:
113,275,3383,1,8,0:1:0:0:
180,170,3573,5,0,3:0:0:0:
180,170,3669,2,0,B|235:155|235:155|296:174,1,110,4|0,0:3|0:0,0:0:0:0:
359,192,3954,5,4,3:2:0:0:
460,219,4526,1,8,0:1:0:0:
432,322,5097,1,8,0:1:0:0:
330,293,5669,1,8,0:0:0:0:
359,192,5859,5,0,3:0:0:0:
359,192,5955,2,0,B|374:139|374:139|358:86,1,110,8|0,0:0|0:0,0:0:0:0:
296,41,6240,6,0,L|181:46,1,110,2|2,3:2|0:0,0:0:0:0:
179,60,6526,2,0,L|294:55,1,110,2|2,0:0|0:0,0:0:0:0:
371,52,6811,1,12,0:0:0:0:
113,11,7097,2,0,P|94:61|114:114,1,110,2|2,3:2|0:0,0:0:0:0:
167,168,7383,2,0,P|185:218|165:271,1,110,2|2,0:0|0:0,0:0:0:0:
115,328,7669,1,12,0:0:0:0:
277,277,7954,6,0,P|319:265|354:277,1,82.5000031471254,2|0,0:0|0:0,0:0:0:0:
284,261,8240,2,0,B|313:200|313:200|345:256,1,131.99999597168,2|0,0:0|0:0,0:0:0:0:
316,340,8526,6,0,L|453:333,1,131.99999597168,10|2,0:0|3:2,0:0:0:0:
447,333,9002,5,2,3:2:0:0:
447,333,9288,5,10,3:2:0:0:
447,333,9573,5,10,0:0:0:0:
381,274,9669,2,0,B|347:239|319:200|304:143|331:82|395:68|443:101|462:153|435:184,1,329.9999899292,2|0,3:0|0:0,0:0:0:0:
381,274,10240,5,8,0:0:0:0:
372,273,10311,1,8,0:0:0:0:
364,272,10382,1,8,0:0:0:0:
356,271,10454,1,8,0:0:0:0:
348,271,10525,1,8,0:0:0:0:
339,270,10597,1,8,0:0:0:0:
331,269,10668,1,8,0:0:0:0:
323,269,10739,1,8,0:0:0:0:
315,268,10811,6,0,L|205:258,1,98.9999969787599,6|0,3:2|0:0,0:0:0:0:
124,133,11097,1,0,3:0:0:0:
78,284,11240,1,8,0:0:0:0:
216,259,11383,2,0,P|234:213|220:167,1,98.9999969787599,0|8,3:0|0:0,0:0:0:0:
95,59,11669,1,2,3:2:0:0:
154,210,11811,1,10,0:0:0:0:
286,124,11954,6,0,P|247:92|199:91,1,98.9999969787599,2|8,3:2|0:0,0:0:0:0:
216,259,12240,2,0,P|234:213|220:167,1,98.9999969787599,2|8,3:2|0:0,0:0:0:0:
65,235,12526,2,0,P|114:237|154:210,1,98.9999969787599,2|8,3:2|0:0,0:0:0:0:
42,83,12811,2,0,P|54:130|92:159,1,98.9999969787599,2|8,3:2|0:0,0:0:0:0:
179,15,13097,6,0,P|137:41|121:87,1,98.9999969787599,2|0,3:2|0:0,0:0:0:0:
216,259,13383,1,0,3:0:0:0:
216,259,13526,1,8,0:0:0:0:
286,124,13669,2,0,P|247:92|199:91,1,98.9999969787599,0|8,3:0|0:0,0:0:0:0:
65,234,13954,1,2,3:2:0:0:
65,234,14097,1,10,0:0:0:0:
231,308,14240,6,0,L|226:193,1,98.9999969787599,2|8,3:2|0:0,0:0:0:0:
199,91,14526,2,0,L|203:189,1,98.9999969787599,2|8,3:2|0:0,0:0:0:0:
156,348,14811,2,0,L|151:233,1,98.9999969787599,2|8,3:2|0:0,0:0:0:0:
274,51,15097,2,0,L|279:166,1,98.9999969787599,2|8,3:2|0:0,0:0:0:0:
289,342,15383,6,0,L|284:227,1,98.9999969787599,0|0,3:0|3:0,0:0:0:0:
278,149,15669,1,0,3:0:0:0:
289,342,15811,1,0,3:0:0:0:
289,342,16097,2,0,L|284:227,1,98.9999969787599,10|10,0:0|0:0,0:0:0:0:
274,51,16383,1,10,0:0:0:0:
189,239,16526,6,0,P|236:254|284:243,1,98.9999969787599,8|8,3:2|0:0,0:0:0:0:
377,158,16810,1,8,0:0:0:0:
377,158,16953,1,8,3:2:0:0:
124,168,17097,1,8,0:0:0:0:
125,154,17168,1,8,0:0:0:0:
125,142,17240,1,8,0:0:0:0:
126,130,17311,1,8,0:0:0:0:
127,118,17382,1,8,3:2:0:0:
132,31,17526,1,8,3:2:0:0:
35,182,17669,5,8,0:0:0:0:
223,159,17811,1,8,0:0:0:0:
26,174,17954,1,8,0:0:0:0:
232,167,18097,1,8,0:0:0:0:
17,166,18383,5,8,0:0:0:0:
241,175,18669,1,8,0:0:0:0:
182,118,18954,5,2,0:0:0:0:
169,138,19097,1,2,0:0:0:0:
162,162,19240,1,2,0:0:0:0:
162,186,19383,1,2,0:0:0:0:
169,210,19526,1,2,0:0:0:0:
183,230,19669,2,0,P|182:285|163:231,1,148.49999546814,2|0,3:2|0:0,0:0:0:0:
271,218,19954,5,2,3:0:0:0:
271,218,20240,2,0,P|282:257|272:296,1,82.5,8|0,0:0|3:0,0:0:0:0:
271,218,20526,2,0,P|260:179|270:140,1,82.5,0|0,3:0|0:0,0:0:0:0:
344,109,20811,1,8,0:0:0:0:
154,130,20954,6,0,B|218:162|271:138|271:138|238:138|229:127,1,165,2|0,3:0|3:0,0:0:0:0:
268,60,21383,1,8,0:0:0:0:
133,125,21526,1,0,3:0:0:0:
189,221,21669,2,0,P|230:225|270:217,1,82.5,0|0,3:0|0:0,0:0:0:0:
145,289,21954,2,0,P|183:302|224:304,1,82.5,8|0,0:0|0:0,0:0:0:0:
104,209,22240,5,2,3:0:0:0:
104,209,22526,1,8,0:0:0:0:
81,370,22669,1,0,3:0:0:0:
224,304,22811,2,0,P|183:302|145:289,1,82.5,0|0,3:2|0:0,0:0:0:0:
270,216,23097,5,10,0:0:0:0:
270,216,23383,2,0,P|229:225|189:221,1,82.5,0|2,0:0|0:0,0:0:0:0:
291,83,23669,1,10,0:0:0:0:
357,152,23811,1,2,3:2:0:0:
206,125,23954,1,2,3:2:0:0:
295,65,24097,1,2,3:2:0:0:
292,74,24169,1,0,3:0:0:0:
291,83,24240,1,10,0:0:0:0:
270,216,24383,1,2,3:2:0:0:
357,151,24526,6,0,P|395:137|435:143,1,82.5,2|0,3:0|0:0,0:0:0:0:
358,317,24811,2,0,P|327:290|312:252,1,82.5,8|0,0:0|3:0,0:0:0:0:
501,232,25097,2,0,P|493:272|468:304,1,82.5,0|0,3:0|0:0,0:0:0:0:
312,252,25383,1,8,0:0:0:0:
356,151,25526,5,2,3:0:0:0:
356,151,25811,2,0,P|394:137|435:143,1,82.5,0|8,0:0|0:0,0:0:0:0:
270,216,26097,1,0,3:0:0:0:
213,125,26240,2,0,P|182:97|143:89,1,82.5,0|8,3:0|0:0,0:0:0:0:
123,90,26454,2,0,P|102:92|83:99,1,41.25,8|8,0:0|0:0,0:0:0:0:
42,212,26669,1,0,3:0:0:0:
213,125,26811,6,0,B|212:87|251:53|306:53|356:81|365:151|340:222|257:181|248:262|261:298,1,363.000011077881,14|2,0:0|0:1,0:0:0:0:
275,376,28240,1,2,0:3:0:0:
337,282,28526,6,0,P|372:278|404:287,1,61.875002360344,8|2,0:1|0:0,0:0:0:0:
195,350,28811,2,0,P|160:354|128:345,1,61.875002360344,8|2,0:1|0:0,0:0:0:0:
38,238,29097,5,2,3:0:0:0:
38,238,29383,2,0,L|32:153,1,82.5,8|0,0:0|3:0,0:0:0:0:
120,259,29669,2,0,L|114:174,1,82.5,0|0,3:0|0:0,0:0:0:0:
27,322,29954,1,8,0:0:0:0:
46,134,30097,6,0,P|113:96|190:153,1,165,2|0,3:0|3:0,0:0:0:0:
320,193,30526,2,0,P|281:206|240:193,1,82.5,8|0,0:0|3:0,0:0:0:0:
397,158,30811,2,0,P|436:147|474:160,1,82.5,0|0,3:0|0:0,0:0:0:0:
324,114,31097,2,0,L|328:18,1,82.5,8|0,0:0|0:0,0:0:0:0:
320,193,31383,6,0,L|314:304,1,111.374996601105,8|0,3:2|0:0,0:0:0:0:
327,308,31669,6,0,L|334:185,1,123.75,8|0,3:2|0:0,0:0:0:0:
346,179,31954,6,0,L|339:314,1,136.125004154205,8|0,3:2|0:0,0:0:0:0:
416,341,32240,6,0,L|425:146,1,185.625007081032,10|2,3:2|3:2,0:0:0:0:
350,32,32811,1,10,0:0:0:0:
429,77,32954,1,2,3:2:0:0:
265,62,33097,1,2,3:2:0:0:
352,14,33240,1,2,3:2:0:0:
351,23,33311,1,8,0:0:0:0:
350,32,33383,1,10,0:0:0:0:
342,126,33526,1,2,3:2:0:0:
214,0,33669,6,0,P|185:73|232:136,1,165,2|8,3:0|0:0,0:0:0:0:
365,207,34097,1,0,3:0:0:0:
232,136,34240,2,0,P|192:126|153:140,1,82.5,0|0,3:0|0:0,0:0:0:0:
86,271,34526,1,8,0:0:0:0:
202,322,34669,6,0,B|219:261|219:261|194:206,1,123.75,6|0,3:0|0:0,0:0:0:0:
232,136,34954,2,0,P|192:126|153:140,1,82.5,0|8,3:0|0:0,0:0:0:0:
86,271,35240,1,0,3:0:0:0:
202,322,35383,6,0,B|219:261|219:261|194:206,1,123.75,8|0,0:0|0:0,0:0:0:0:
193,205,35669,2,0,B|175:265|175:265|200:321,1,123.75,8|0,0:0|0:0,0:0:0:0:
272,359,35954,5,8,0:0:0:0:
272,359,36097,1,8,0:0:0:0:
368,195,36240,1,8,0:0:0:0:
368,195,36383,1,8,0:0:0:0:
381,376,36526,5,8,0:0:0:0:
274,191,36669,2,0,P|256:132|279:72,1,123.75,8|0,0:0|0:0,0:0:0:0:
337,18,36954,1,2,3:0:0:0:
337,18,37647,6,0,L|334:105,1,82.5,2|2,0:0|0:0,0:0:0:0:
267,153,38258,6,0,P|227:144|188:157,1,82.5,0|2,0:0|0:0,0:0:0:0:
340,186,38829,2,0,P|379:194|418:181,1,82.5,0|2,0:0|0:0,0:0:0:0:
233,224,39400,1,0,0:0:0:0:
122,125,39686,6,0,L|116:84,1,41.25,2|2,0:0|0:0,0:0:0:0:
79,206,39972,2,0,L|46:230,1,41.25,2|2,0:0|0:0,0:0:0:0:
170,201,40258,2,0,L|207:217,1,41.25,2|2,0:0|0:0,0:0:0:0:
291,185,40543,6,0,P|330:176|369:187,1,82.5,0|2,0:0|0:0,0:0:0:0:
439,228,40924,2,0,L|437:268,1,27.5
447,297,41115,2,0,L|453:212,1,82.5,0|2,0:0|0:0,0:0:0:0:
459,138,41543,1,0,0:0:0:0:
329,194,41686,1,0,0:0:0:0:
329,194,41972,6,0,P|312:184|292:178,1,41.25,2|2,0:0|0:0,0:0:0:0:
173,230,42258,2,0,P|190:220|206:206,1,41.25,2|2,0:0|0:0,0:0:0:0:
221,77,42544,2,0,P|220:97|225:117,1,41.25,2|2,0:0|0:0,0:0:0:0:
259,271,42829,6,0,P|285:282|312:279,1,55
269,291,43115,2,0,P|295:296|321:288,1,55,2|0,0:0|0:0,0:0:0:0:
281,308,43400,2,0,P|308:308|332:296,1,55
371,229,43686,2,0,P|382:186|376:130,1,82.5,2|0,0:0|0:0,0:0:0:0:
331,66,44162,5,0,0:0:0:0:
331,66,44258,2,0,L|262:60,1,55,2|0,0:0|0:0,0:0:0:0:
321,77,44543,2,0,L|251:70,1,55
310,87,44829,2,0,L|240:80,1,55,2|0,0:0|0:0,0:0:0:0:
190,36,45115,6,0,P|175:82|192:128,1,98.9999969787599,8|0,0:1|0:0,0:0:0:0:
192,128,45686,6,0,P|211:163|194:199,1,82.5,8|0,0:1|0:0,0:0:0:0:
194,199,46258,6,0,P|178:224|193:249,1,61.875002360344,8|0,0:1|0:0,0:0:0:0:
193,249,46829,6,0,P|212:284|195:320,1,82.5,8|0,0:1|0:0,0:0:0:0:
112,313,47115,1,2,0:0:0:0:
112,313,47204,2,0,P|105:286|112:260,1,55,2|2,0:0|0:0,0:0:0:0:
146,182,47383,5,8,0:3:0:0:
146,182,47668,1,2,0:0:0:0:
146,182,47954,2,0,L|156:54,1,123.750004720688,8|2,0:3|0:0,0:0:0:0:
266,181,48525,1,8,0:3:0:0:
259,78,48811,1,2,0:0:0:0:
266,181,49097,6,0,L|272:273,1,92.812503540516,0|0,3:0|0:0,3:0:0:0:
217,316,49383,2,0,B|254:307|273:274|273:274|303:302|341:303,1,148.49999546814,4|0,3:0|0:0,0:0:0:0:
284,370,49668,5,8,0:3:0:0:
284,370,49954,1,2,0:0:0:0:
284,370,50240,2,0,P|252:318|266:259,1,123.750004720688,8|2,0:3|0:0,0:0:0:0:
445,222,50811,1,8,0:3:0:0:
347,203,51097,1,2,0:0:0:0:
445,222,51383,5,0,3:0:0:0:
263,124,51573,1,8,0:0:0:0:
263,124,51668,2,0,B|238:180|266:218|266:218|259:193|271:169,1,148.49999546814,4|0,3:0|0:0,0:0:0:0:
341,99,51954,6,0,P|363:89|388:88,1,49.4999984893799,8|0,3:0|0:0,0:0:0:0:
266,218,52525,2,0,P|264:193|271:170,1,49.4999984893799,8|0,0:0|0:0,0:0:0:0:
356,325,53097,2,0,P|331:319|311:305,1,49.4999984893799,8|0,3:0|0:0,0:0:0:0:
485,272,53668,2,0,P|472:293|453:308,1,49.4999984893799,8|0,0:0|0:0,0:0:0:0:
491,181,53954,5,2,3:2:0:0:
401,73,54240,6,0,L|244:78,1,148.49999546814,2|0,3:0|0:0,0:0:0:0:
244,94,54525,2,0,L|401:89,1,148.49999546814,2|0,0:0|0:0,0:0:0:0:
400,72,54811,2,0,P|357:51|309:61,1,98.9999969787599,12|0,0:0|0:0,0:0:0:0:
140,100,55097,2,0,P|183:121|231:111,1,98.9999969787599,2|0,0:0|0:0,0:0:0:0:
69,47,55383,5,8,0:0:0:0:
69,47,55525,1,8,0:0:0:0:
81,183,55668,2,0,L|89:293,1,98.9999969787599,0|8,3:0|0:0,0:0:0:0:
179,343,55954,5,8,0:0:0:0:
179,343,56049,2,0,P|209:353|245:345,1,65.9999979858399,8|8,0:3|0:3,0:0:0:0:
214,272,56240,1,0,3:0:0:0:
214,272,56335,2,0,P|233:245|236:209,1,65.9999979858399,8|8,0:3|0:3,0:0:0:0:
140,100,56525,5,2,1:3:0:0:
140,100,56811,2,0,P|183:121|231:111,1,98.9999969787599,2|0,1:2|1:0,0:0:0:0:
400,72,57097,2,0,P|330:54|275:98,1,148.49999546814,2|0,1:3|0:0,0:0:0:0:
245,197,57383,2,0,L|248:300,1,92.812503540516,2|0,1:2|0:0,0:0:0:0:
343,334,57668,6,0,L|345:291,6,24.74999924469,4|0|0|0|2|0|0,3:2|0:0|0:0|0:0|0:1|0:0|0:0,0:0:0:0:
395,251,57954,2,0,P|350:231|303:243,1,98.9999969787599,2|2,3:1|0:1,0:0:0:0:
180,334,58240,1,8,0:0:0:0:
170,339,58311,1,8,0:0:0:0:
158,344,58383,1,8,0:0:0:0:
146,345,58454,1,8,0:0:0:0:
133,346,58526,1,8,0:0:0:0:
121,343,58597,1,8,0:0:0:0:
109,340,58669,1,8,0:0:0:0:
98,334,58740,1,8,0:0:0:0:
88,327,58811,6,0,L|84:211,1,115.49999647522,6|8,3:2|0:0,0:0:0:0:
190,60,59097,2,0,L|193:175,1,115.49999647522,0|10,3:0|0:0,0:0:0:0:
307,358,59383,2,0,L|303:242,1,115.49999647522,2|10,3:2|0:2,0:0:0:0:
416,22,59669,2,0,L|419:137,1,115.49999647522,2|8,3:2|0:0,0:0:0:0:
317,28,59954,5,2,3:2:0:0:
507,72,60097,1,8,0:0:0:0:
470,198,60240,2,0,P|414:216|363:192,1,115.49999647522,2|8,3:2|0:0,0:0:0:0:
190,60,60525,2,0,P|134:42|83:66,1,115.49999647522,2|10,3:2|0:0,0:0:0:0:
19,276,60811,2,0,L|137:270,1,115.49999647522,2|8,3:2|0:0,0:0:0:0:
283,186,61097,6,0,L|167:180,1,115.49999647522,2|8,3:2|0:0,0:0:0:0:
290,344,61383,2,0,L|405:338,1,115.49999647522,0|10,3:0|0:0,0:0:0:0:
318,108,61668,2,0,L|202:102,1,115.49999647522,2|10,3:2|0:0,0:0:0:0:
87,356,61954,2,0,L|202:350,1,115.49999647522,2|10,3:2|0:0,0:0:0:0:
405,338,62240,5,10,1:2:0:0:
218,234,62383,1,0,0:0:0:0:
378,161,62525,2,0,P|401:110|383:56,1,115.49999647522,10|0,1:2|0:0,0:0:0:0:
158,179,62811,1,10,1:2:0:0:
158,179,62954,2,0,P|134:230|152:284,1,115.49999647522,0|8,3:0|0:0,0:0:0:0:
99,120,63240,6,0,P|53:224|84:333,1,230.99999295044,12|8,0:0|0:0,0:0:0:0:
158,179,63668,2,0,P|134:230|152:284,1,115.49999647522,0|8,3:0|0:0,0:0:0:0:
326,246,63954,2,0,B|274:223|274:223|217:233,1,115.49999647522,0|8,3:0|0:0,0:0:0:0:
386,302,64240,2,0,P|409:250|391:196,1,115.49999647522,0|8,3:0|0:0,0:0:0:0:
306,363,64525,5,2,3:2:0:0:
487,300,64668,1,10,0:0:0:0:
446,139,64811,2,0,P|395:117|341:134,1,115.49999647522,2|10,3:2|0:0,0:0:0:0:
157,178,65097,2,0,P|209:200|263:183,1,115.49999647522,2|10,3:2|0:0,0:0:0:0:
309,25,65383,1,0,3:0:0:0:
313,250,65525,6,0,P|204:282|99:238,1,230.99999295044,12|8,0:0|0:0,0:0:0:0:
263,183,65954,2,0,P|209:200|157:178,1,115.49999647522,0|8,3:0|0:0,0:0:0:0:
320,122,66240,2,0,P|345:177|326:233,1,115.49999647522,2|8,3:2|0:0,0:0:0:0:
99,238,66525,2,0,P|74:183|93:127,1,115.49999647522,0|8,3:0|3:2,0:0:0:0:
302,105,66811,5,8,0:0:0:0:
178,296,66954,1,0,3:0:0:0:
148,33,67097,1,8,0:0:0:0:
374,143,67240,2,0,P|303:187|231:148,1,173.24999471283,8|0,0:0|3:0,0:0:0:0:
226,129,67525,2,0,L|224:54,1,57.7499982376099,8|0,0:0|0:0,0:0:0:0:
129,163,67668,2,0,L|132:47,1,115.49999647522,8|8,0:0|0:0,0:0:0:0:
74,224,67954,6,0,P|124:247|179:229,1,115.49999647522,6|8,3:2|0:0,0:0:0:0:
319,83,68240,2,0,P|369:60|424:78,1,115.49999647522,0|10,3:0|0:0,0:0:0:0:
129,163,68525,2,0,L|132:47,1,115.49999647522,2|10,3:2|0:0,0:0:0:0:
374,143,68811,2,0,L|371:259,1,115.49999647522,2|8,3:2|0:0,0:0:0:0:
187,358,69097,5,2,3:2:0:0:
289,163,69240,1,8,0:0:0:0:
422,318,69383,2,0,P|370:337|318:315,1,115.49999647522,2|8,3:2|0:0,0:0:0:0:
235,103,69668,2,0,P|286:80|339:99,1,115.49999647522,2|10,3:2|0:0,0:0:0:0:
187,329,69954,2,0,L|181:213,1,115.49999647522,2|8,3:2|0:0,0:0:0:0:
11,126,70240,6,0,L|16:241,1,115.49999647522,2|8,3:2|0:0,0:0:0:0:
289,163,70525,2,0,L|283:47,1,115.49999647522,0|10,3:0|0:2,0:0:0:0:
181,213,70811,2,0,L|187:329,1,115.49999647522,2|10,3:2|0:0,0:0:0:0:
453,365,71097,2,0,L|447:249,1,115.49999647522,2|8,3:2|0:0,0:0:0:0:
271,154,71383,5,10,1:2:0:0:
364,353,71525,1,0,0:0:0:0:
502,194,71668,2,0,P|450:170|397:190,1,115.49999647522,10|0,1:2|0:0,0:0:0:0:
186,328,71954,2,0,P|134:352|81:332,1,115.49999647522,2|0,1:2|3:0,0:0:0:0:
51,298,72168,1,0,3:0:0:0:
51,298,72240,1,8,0:0:0:0:
211,110,72383,6,0,B|246:64|246:64|227:236,1,230.99999295044,12|8,0:0|0:0,0:0:0:0:
323,95,72811,2,0,L|310:209,1,115.49999647522,0|8,3:0|0:0,0:0:0:0:
132,274,73097,2,0,L|119:159,1,115.49999647522,0|8,3:0|0:0,0:0:0:0:
396,184,73383,2,0,L|383:298,1,115.49999647522,0|8,3:0|0:0,0:0:0:0:
196,343,73668,5,0,3:0:0:0:
196,343,73811,1,0,3:0:0:0:
59,105,73954,2,0,P|110:79|164:94,1,115.49999647522,12|0,0:0|0:0,0:0:0:0:
19,223,74240,5,0,3:0:0:0:
19,223,74383,1,0,3:0:0:0:
203,21,74526,2,0,P|242:60|245:117,1,115.49999647522,12|0,0:0|0:0,0:0:0:0:
78,18,74811,5,0,3:0:0:0:
78,18,74954,1,0,3:0:0:0:
327,130,75097,2,8,P|301:180|248:199,1,115.49999647522,12|0,0:0|0:0,0:0:0:0:
291,11,75383,5,0,3:0:0:0:
291,11,75526,1,0,3:0:0:0:
261,282,75669,2,0,P|205:273|170:228,1,115.49999647522,12|0,0:0|0:0,0:0:0:0:
203,21,75954,6,0,P|242:60|245:117,1,115.49999647522,8|0,3:2|0:0,0:0:0:0:
96,266,76240,2,0,P|87:210|118:163,1,115.49999647522,8|0,3:2|3:0,0:0:0:0:
327,130,76525,2,0,P|301:180|248:199,1,115.49999647522,8|0,3:2|3:0,0:0:0:0:
59,105,76811,2,0,P|110:79|164:94,1,115.49999647522,8|8,3:2|0:0,0:0:0:0:
261,282,77097,1,4,3:2:0:0:
261,282,77668,6,0,B|213:284|186:320|186:320|156:280|111:279,1,173.24999471283,2|0,0:0|0:0,0:0:0:0:
90,288,78240,6,0,B|152:292|184:343|184:343|220:289|283:291,1,231,2|0,0:0|0:0,0:0:0:0:
347,339,78811,5,2,3:2:0:0:
360,319,78882,1,4,3:0:0:0:
366,295,78953,1,0,3:0:0:0:
364,271,79025,1,0,3:0:0:0:
354,248,79096,1,8,0:0:0:0:
284,200,79383,5,2,3:0:0:0:
284,200,79525,1,0,0:0:0:0:
114,225,79668,1,2,0:0:0:0:
234,124,79954,5,0,3:0:0:0:
234,124,80096,1,0,0:0:0:0:
163,298,80239,1,2,0:0:0:0:
156,92,80525,5,2,3:0:0:0:
156,92,80667,1,0,0:0:0:0:
241,330,80810,1,2,0:0:0:0:
222,40,81097,5,0,3:0:0:0:
222,40,81239,1,0,0:0:0:0:
163,298,81383,1,2,0:0:0:0:
358,192,81668,5,2,3:0:0:0:
46,171,81954,1,2,3:0:0:0:
367,181,82240,5,2,3:0:0:0:
37,182,82525,1,2,3:0:0:0:
378,101,82811,5,8,3:2:0:0:
398,106,82882,1,8,0:0:0:0:
416,117,82953,1,8,0:0:0:0:
431,131,83025,1,8,0:0:0:0:
441,149,83096,1,8,3:2:0:0:
447,168,83168,1,8,0:0:0:0:
447,189,83239,1,8,0:0:0:0:
443,209,83310,1,8,0:0:0:0:
433,227,83382,1,8,3:2:0:0:
419,242,83453,1,8,0:0:0:0:
402,254,83525,1,8,0:0:0:0:
383,260,83596,1,8,0:0:0:0:
362,261,83668,1,8,3:2:0:0:
342,257,83739,1,8,0:0:0:0:
323,248,83810,1,8,0:0:0:0:
308,235,83882,1,8,0:0:0:0:
296,218,83954,6,0,L|300:133,1,82.5,4|0,3:2|0:0,0:0:0:0:
213,243,84240,2,0,L|217:158,1,82.5,0|2,3:0|0:0,0:0:0:0:
292,300,84525,2,0,L|296:215,1,82.5,0|0,3:0|0:0,0:0:0:0:
209,325,84811,2,0,L|213:240,1,82.5,0|2,3:0|0:0,0:0:0:0:
375,275,85097,6,0,L|379:190,1,82.5,0|0,3:0|0:0,0:0:0:0:
129,267,85383,2,0,L|133:182,1,82.5,8|0,0:0|3:0,0:0:0:0:
142,44,85668,1,8,0:0:0:0:
218,151,85811,1,0,3:0:0:0:
218,151,85883,1,0,3:0:0:0:
218,151,85954,1,4,0:3:0:0:
52,117,86097,1,4,3:0:0:0:
253,70,86240,5,10,0:0:0:0:
253,70,86383,1,10,0:0:0:0:
242,247,86525,2,0,L|238:329,1,82.5,2|0,0:0|0:0,0:0:0:0:
343,47,86811,5,10,0:0:0:0:
343,47,86954,1,10,0:0:0:0:
326,272,87097,2,0,L|322:354,1,82.5,2|0,0:0|0:0,0:0:0:0:
253,70,87383,5,10,0:0:0:0:
242,247,87525,1,10,0:0:0:0:
343,47,87668,5,10,0:0:0:0:
325,272,87811,2,0,P|365:302|364:252,1,123.75,10|0,0:0|0:0,0:0:0:0:
260,230,88097,5,2,0:0:0:0:
133,350,88240,1,10,0:0:0:0:
