osu file format v14

[General]
AudioFilename: audio.mp3
AudioLeadIn: 0
PreviewTime: 58740
Countdown: 0
SampleSet: Soft
StackLeniency: 0.5
Mode: 0
LetterboxInBreaks: 0
WidescreenStoryboard: 1

[Editor]
Bookmarks: 41115,83954
DistanceSpacing: 1.3
BeatDivisor: 6
GridSize: 8
TimelineZoom: 1.5

[Metadata]
Title:Acchi de Kocchi de (TV Size)
TitleUnicode:あっちでこっちで (TV Size)
Artist:Acchi<->Kocchi
ArtistUnicode:あっち⇔こっち
Creator:Bazz B
Version:PaRaDogi's Advanced
Source:あっちこっち
Tags:-Mikan Mikan Bazz_B Matha Petal Blizs Fantastica Uta fluffy hair sahuang My Angel Azusa Nelliel Time Capsule Chihara Minori PaRaDogi Ducky- Taeyang Agatsu anime japanese Place to here and there fantastica op opening つみき tsumiki 大久保瑠美 ookubo rumi 伊御 io 岡本信彦 okamoto nobuhiko 姫 hime 福原香織 fukuhara kaori 真宵 mayoi 生天目仁美 nabatame hitomi 榊 sakaki 浅沼晋太郎 asanuma shintaro pop jpop j-pop time
BeatmapID:2317675
BeatmapSetID:1108211

[Difficulty]
HPDrainRate:4
CircleSize:3.5
OverallDifficulty:5.5
ApproachRate:6.5
SliderMultiplier:1.3
SliderTickRate:1

[Events]
//Background and Video events
0,0,"backg kawaii desu.jpg",0,0
Video,-210,"Nyaw.avi"
//Break Periods
//Storyboard Layer 0 (Background)
//Storyboard Layer 1 (Fail)
//Storyboard Layer 2 (Pass)
//Storyboard Layer 3 (Foreground)
//Storyboard Layer 4 (Overlay)
//Storyboard Sound Samples

[TimingPoints]
1669,285.714285714286,4,2,1,50,1,0
1669,-133.333333333333,4,2,1,50,0,0
2097,-133.333333333333,4,2,1,5,0,0
2169,-133.333333333333,4,2,1,50,0,0
2383,-133.333333333333,4,2,1,5,0,0
2454,-133.333333333333,4,2,1,50,0,0
2669,-133.333333333333,4,2,1,5,0,0
2740,-133.333333333333,4,2,1,50,0,0
2954,-133.333333333333,4,2,1,5,0,0
3026,-133.333333333333,4,2,1,50,0,0
3240,-133.333333333333,4,2,1,5,0,0
3311,-133.333333333333,4,2,1,50,0,0
3883,-133.333333333333,4,2,1,5,0,0
3954,-133.333333333333,4,2,1,50,0,0
4097,-133.333333333333,4,2,1,5,0,0
4169,-133.333333333333,4,2,1,50,0,0
4383,-133.333333333333,4,2,1,5,0,0
4454,-133.333333333333,4,2,1,50,0,0
4669,-133.333333333333,4,2,1,5,0,0
4740,-133.333333333333,4,2,1,50,0,0
4954,-133.333333333333,4,2,1,5,0,0
5026,-133.333333333333,4,2,1,50,0,0
5240,-133.333333333333,4,2,1,5,0,0
5311,-133.333333333333,4,2,1,50,0,0
5597,-133.333333333333,4,2,1,50,0,0
6169,-133.333333333333,4,2,1,5,0,0
6240,-133.333333333333,4,2,1,55,0,0
7026,-133.333333333333,4,2,1,5,0,0
7097,-133.333333333333,4,2,1,55,0,0
7883,-133.333333333333,4,2,1,5,0,0
7954,-133.333333333333,4,2,1,45,0,0
8169,-133.333333333333,4,2,1,5,0,0
8240,-133.333333333333,4,2,1,45,0,0
8454,-133.333333333333,4,2,1,5,0,0
8526,-133.333333333333,4,2,1,55,0,0
8907,-133.333333333333,4,2,1,5,0,0
9002,-133.333333333333,4,2,1,55,0,0
10097,-133.333333333333,4,2,1,5,0,0
10240,-133.333333333333,4,2,1,65,0,0
10811,-100,4,2,1,60,0,0
18311,-100,4,2,1,5,0,0
18383,-100,4,2,1,60,0,0
18597,-100,4,2,1,5,0,0
18669,-100,4,2,1,60,0,0
18954,-100,4,2,1,30,0,0
19097,-100,4,2,1,35,0,0
19240,-100,4,2,1,40,0,0
19383,-100,4,2,1,45,0,0
19526,-100,4,2,1,50,0,0
19669,-100,4,2,1,55,0,0
19811,-100,4,2,1,60,0,0
19954,-133.333333333333,4,2,1,50,0,0
20169,-133.333333333333,4,2,1,5,0,0
20240,-133.333333333333,4,2,1,50,0,0
21883,-133.333333333333,4,2,1,5,0,0
21954,-133.333333333333,4,2,1,50,0,0
22526,-133.333333333333,4,2,1,50,0,0
23454,-133.333333333333,4,2,1,5,0,0
23526,-133.333333333333,4,2,1,50,0,0
26811,-133.333333333333,4,2,1,40,0,0
29097,-133.333333333333,4,2,1,50,0,0
29383,-133.333333333333,4,2,1,50,0,0
32597,-133.333333333333,4,2,1,5,0,0
32669,-133.333333333333,4,2,1,50,0,0
33669,-133.333333333333,4,2,1,55,0,0
33954,-133.333333333333,4,2,1,55,0,0
34669,-133.333333333333,4,2,1,60,0,0
35954,-133.333333333333,4,2,1,65,0,0
37647,285.714285714286,4,2,1,35,1,0
38258,285.714285714286,4,2,1,35,1,0
38258,-181.818181818181,4,2,1,35,0,0
39615,-181.818181818181,4,2,1,5,0,0
39686,-181.818181818181,4,2,1,35,0,0
41115,-181.818181818181,4,2,1,35,0,0
41900,-181.818181818181,4,2,1,5,0,0
41972,-181.818181818181,4,2,1,35,0,0
42829,-181.818181818181,4,2,1,40,0,0
43043,-181.818181818181,4,2,1,5,0,0
43115,-181.818181818181,4,2,1,40,0,0
43900,-181.818181818181,4,2,1,5,0,0
43972,-181.818181818181,4,2,1,40,0,0
45115,-181.818181818181,4,2,1,45,0,0
47115,267.857142857143,4,2,1,45,1,0
47383,285.714285714286,4,2,1,50,1,0
47383,-181.818181818181,4,2,1,50,0,0
49097,-181.818181818181,4,2,1,60,0,0
49311,-181.818181818181,4,2,1,5,0,0
49383,-181.818181818181,4,2,1,60,0,0
49597,-181.818181818181,4,2,1,5,0,0
49668,-181.818181818181,4,2,1,45,0,0
51383,-181.818181818181,4,2,1,60,0,0
51883,-181.818181818181,4,2,1,5,0,0
51954,-181.818181818181,4,2,1,50,0,0
54240,-181.818181818181,4,2,1,60,0,0
55740,-181.818181818181,4,2,1,5,0,0
55811,-181.818181818181,4,2,1,60,0,0
56525,-181.818181818181,4,2,1,50,0,0
56740,-181.818181818181,4,2,1,5,0,0
56811,-181.818181818181,4,2,1,50,0,0
57311,-181.818181818181,4,2,1,5,0,0
57383,-181.818181818181,4,2,1,50,0,0
57597,-181.818181818181,4,2,1,5,0,0
57668,-181.818181818181,4,2,1,60,0,0
58811,-100,4,2,1,65,0,0
65811,-100,4,2,1,65,0,0
67883,-100,4,2,1,5,0,0
67954,-100,4,2,1,65,0,0
73668,-133.333333333333,4,2,1,65,0,0
74168,-133.333333333333,4,2,1,5,0,0
74240,-133.333333333333,4,2,1,65,0,0
74740,-133.333333333333,4,2,1,5,0,0
74811,-133.333333333333,4,2,1,65,0,0
75311,-133.333333333333,4,2,1,5,0,0
75383,-133.333333333333,4,2,1,65,0,0
75883,-133.333333333333,4,2,1,5,0,0
75954,-133.333333333333,4,2,1,65,0,0
77097,-133.333333333333,4,2,1,45,0,0
77668,-181.818181818181,4,2,1,45,0,0
78811,-181.818181818181,4,2,1,55,0,0
79311,-181.818181818181,4,2,1,5,0,0
79383,-181.818181818181,4,2,1,50,0,0
80525,-181.818181818181,4,2,1,55,0,0
81668,-181.818181818181,4,2,1,60,0,0
82811,-181.818181818181,4,2,1,65,0,0
83954,-181.818181818181,4,2,1,55,0,0
85597,-181.818181818181,4,2,1,5,0,0
85668,-181.818181818181,4,2,1,55,0,0
86240,-181.818181818181,4,2,1,70,0,0
88025,-181.818181818181,4,2,1,5,0,0
88097,-181.818181818181,4,2,1,55,0,0
88168,-181.818181818181,4,2,1,5,0,0
88240,-181.818181818181,4,2,1,40,0,0
88383,-181.818181818181,4,2,1,5,0,0

[Colours]
Combo1 : 255,128,128
Combo2 : 128,128,255
Combo3 : 255,128,255
Combo4 : 207,207,207

[HitObjects]
76,75,1669,6,0,P|114:65|188:73,1,97.50000371933,4|0,3:2|0:0,0:0:0:0:
290,23,2240,2,0,P|322:35|391:25,1,97.50000371933,8|0,0:1|0:0,0:0:0:0:
499,81,2811,2,0,L|489:180,1,97.50000371933,8|0,0:1|0:0,0:0:0:0:
361,174,3383,2,0,B|374:246|374:246|370:250|370:250|382:323,1,146.250005578995,8|0,0:1|0:0,0:0:0:0:
328,352,3954,6,0,P|285:366|221:355,1,97.50000371933,4|0,3:2|0:0,0:0:0:0:
203,236,4526,2,0,P|165:231|93:245,1,97.50000371933,8|0,0:1|0:0,0:0:0:0:
8,354,5097,2,0,L|-10:245,1,97.50000371933,8|0,0:1|0:0,0:0:0:0:
27,204,5526,1,0,0:0:0:0:
27,204,5669,2,0,L|9:96,2,97.50000371933,8|8|2,0:0|0:0|3:2,0:0:0:0:
82,318,6526,5,2,0:0:0:0:
237,344,6811,2,0,P|279:358|345:344,1,97.50000371933,12|2,0:0|3:2,0:0:0:0:
445,295,7383,1,2,0:0:0:0:
503,182,7669,2,0,B|489:159|489:159|502:72,2,97.50000371933,12|2|2,0:0|0:0|0:0,0:0:0:0:
445,295,8526,2,0,P|413:302|380:305,1,65.0000024795533,10|2,0:0|3:2,0:0:0:0:
258,251,9002,1,2,3:2:0:0:
156,327,9288,1,10,3:2:0:0:
64,248,9573,1,10,0:0:0:0:
64,248,9669,6,0,P|45:217|65:105,1,146.250005578995,2|0,3:0|0:0,0:0:0:0:
104,68,10240,2,0,L|166:77,1,48.750001859665,8|8,0:0|0:0,0:0:0:0:
209,47,10526,2,0,L|276:57,1,48.750001859665,8|8,0:0|0:0,0:0:0:0:
292,130,10811,6,0,P|324:104|326:8,2,130,6|0|0,3:2|3:0|3:0,0:0:0:0:
230,188,11526,1,8,0:0:0:0:
230,188,11669,2,0,L|243:260,1,65,2|10,3:2|0:0,0:0:0:0:
183,313,11954,6,0,P|228:335|312:302,2,130,2|2|2,3:2|3:2|3:2,0:0:0:0:
103,163,12811,1,2,3:2:0:0:
208,30,13097,6,0,B|248:90|248:90|228:217,1,195,2|8,3:2|0:0,0:0:0:0:
212,291,13669,2,0,P|236:347|359:341,1,195,0|10,3:0|0:0,0:0:0:0:
444,354,14240,6,0,P|431:317|442:269,1,65,2|8,3:2|0:0,0:0:0:0:
487,226,14526,2,0,P|493:185|480:146,1,65,2|8,3:2|0:0,0:0:0:0:
436,96,14811,2,0,P|395:81|305:97,1,130,2|2,3:2|3:2,0:0:0:0:
225,239,15383,2,0,L|148:235,1,65,0|0,3:0|3:0,0:0:0:0:
26,139,15811,2,0,P|45:86|119:56,1,130,0|10,3:0|0:0,0:0:0:0:
186,21,16240,1,10,0:0:0:0:
186,21,16383,1,10,0:0:0:0:
198,104,16526,6,0,L|203:168,1,65,8|8,3:2|0:0,0:0:0:0:
144,229,16811,1,8,0:0:0:0:
144,229,16954,2,0,L|155:317,1,65,8|8,3:2|0:0,0:0:0:0:
219,354,17240,1,8,0:0:0:0:
219,354,17383,2,0,P|263:363|296:359,1,65,8|8,3:2|3:2,0:0:0:0:
269,277,17669,6,0,L|349:278,2,65,8|8|8,0:0|0:0|0:0,0:0:0:0:
207,208,18097,1,8,0:0:0:0:
293,62,18383,1,8,0:0:0:0:
127,14,18669,1,8,0:0:0:0:
35,56,19954,5,2,3:0:0:0:
118,151,20240,2,0,P|154:160|226:148,1,97.50000371933,8|0,0:0|3:0,0:0:0:0:
327,97,20811,1,8,0:0:0:0:
327,97,20954,2,0,L|328:212,1,97.50000371933,2|0,3:0|3:0,0:0:0:0:
370,242,21383,2,0,L|372:309,1,48.750001859665,8|0,0:0|3:0,0:0:0:0:
346,349,21669,1,0,3:0:0:0:
219,350,21954,1,8,0:0:0:0:
126,262,22240,6,0,P|107:221|120:167,1,97.50000371933,2|8,3:0|0:0,0:0:0:0:
200,75,22811,2,0,L|268:85,1,48.750001859665,0|0,3:2|0:0,0:0:0:0:
301,46,23097,2,0,L|403:59,1,97.50000371933,10|0,0:0|0:0,0:0:0:0:
457,36,23526,1,2,0:0:0:0:
457,36,23669,2,0,P|445:84|447:101,1,48.750001859665,10|2,0:0|3:2,0:0:0:0:
472,140,23954,1,2,3:2:0:0:
430,260,24240,1,10,0:0:0:0:
328,336,24526,6,0,B|292:312|292:312|183:321,1,146.250005578995,2|0,3:0|3:0,0:0:0:0:
137,356,25097,2,0,P|151:329|142:250,1,97.50000371933,0|8,3:0|0:0,0:0:0:0:
113,210,25526,1,2,3:0:0:0:
155,90,25811,2,0,L|47:101,1,97.50000371933,0|0,0:0|3:0,0:0:0:0:
4,134,26240,1,0,3:0:0:0:
23,259,26526,1,8,0:0:0:0:
143,295,26811,5,14,0:0:0:0:
449,67,29097,2,0,P|411:56|350:61,1,97.50000371933,2|8,3:0|0:0,0:0:0:0:
242,122,29669,2,0,P|207:130|188:129,1,48.750001859665,0|0,3:0|0:0,0:0:0:0:
138,100,29954,1,8,0:0:0:0:
138,100,30097,6,0,L|148:204,1,97.50000371933,2|0,3:0|3:0,0:0:0:0:
189,245,30526,2,0,L|195:300,1,48.750001859665,8|0,0:0|3:0,0:0:0:0:
224,349,30811,1,0,3:0:0:0:
349,332,31097,1,8,0:0:0:0:
424,230,31383,6,0,B|405:209|405:209|414:136,2,97.50000371933,8|8|8,3:2|3:2|3:2,0:0:0:0:
503,329,32240,1,10,3:2:0:0:
315,363,32669,5,2,3:2:0:0:
315,363,32811,2,0,L|247:366,1,48.750001859665,10|2,0:0|3:2,0:0:0:0:
217,324,33097,2,0,L|154:326,1,48.750001859665,2|2,3:2|3:2,0:0:0:0:
115,361,33383,1,10,0:0:0:0:
30,266,33669,6,0,P|9:216|54:135,1,146.250005578995,2|0,3:0|3:0,0:0:0:0:
100,103,34240,2,0,L|197:110,1,97.50000371933,0|8,3:0|0:0,0:0:0:0:
252,77,34669,1,6,3:0:0:0:
367,26,34954,2,0,L|379:140,1,97.50000371933,0|0,3:0|3:0,0:0:0:0:
388,185,35383,1,8,0:0:0:0:
428,305,35669,1,8,0:0:0:0:
311,354,35954,6,0,L|316:284,1,48.750001859665,8|8,0:0|0:0,0:0:0:0:
282,256,36240,1,8,0:0:0:0:
282,256,36383,2,0,L|286:193,2,48.750001859665,8|8|8,0:0|0:0|0:0,0:0:0:0:
182,333,36954,1,2,3:0:0:0:
37,254,37647,5,2,0:0:0:0:
37,254,37932,1,2,0:0:0:0:
37,254,38258,6,0,P|75:240|148:258,1,107.25000327301
174,282,38829,2,0,P|208:294|281:279,1,107.25000327301
314,254,39400,5,0,0:0:0:0:
358,172,39686,1,2,0:0:0:0:
306,94,39972,1,2,0:0:0:0:
306,94,40258,1,2,0:0:0:0:
306,94,40543,6,0,B|268:77|268:77|189:95,1,107.25000327301
166,120,41115,2,0,B|128:137|128:137|49:119,1,107.25000327301
22,100,41686,5,0,0:0:0:0:
20,193,41972,2,0,L|41:341,1,143.000004364014,2|2,0:0|0:0,0:0:0:0:
129,360,42829,2,0,L|116:274,1,71.5000021820069,0|2,0:0|0:0,0:0:0:0:
179,219,43400,2,0,L|164:144,1,71.5000021820069,0|2,0:0|0:0,0:0:0:0:
172,55,43972,1,0,0:0:0:0:
259,27,44258,2,0,L|343:34,1,71.5000021820069,2|0,0:0|0:0,0:0:0:0:
405,87,44829,1,2,0:0:0:0:
341,155,45115,6,0,B|333:218|333:218|351:243|351:243|344:307,3,143.000004364014,8|8|8|8,0:1|0:1|0:1|0:1,0:0:0:0:
175,349,47115,5,2,0:0:0:0:
97,309,47383,2,0,L|81:227,1,71.5000021820069,8|2,0:3|0:0,0:0:0:0:
125,155,47954,2,0,L|108:74,1,71.5000021820069,8|2,0:3|0:0,0:0:0:0:
166,10,48525,2,0,P|205:10|243:32,1,71.5000021820069,8|2,0:3|0:0,0:0:0:0:
315,68,49097,1,0,3:0:0:0:
269,149,49383,1,4,3:0:0:0:
338,210,49668,6,0,L|325:285,1,71.5000021820069,8|2,0:3|0:0,0:0:0:0:
388,349,50240,2,0,P|425:367|464:362,1,71.5000021820069,8|2,0:3|0:0,0:0:0:0:
488,278,50811,5,8,0:3:0:0:
459,189,51097,1,2,0:0:0:0:
466,96,51383,2,0,L|382:100,1,71.5000021820069,0|4,3:0|3:0,0:0:0:0:
313,54,51954,6,0,L|311:161,1,107.25000327301,8|0,3:0|0:0,0:0:0:0:
275,191,52525,2,0,B|277:226|277:226|264:249|264:249|265:309,1,107.25000327301,8|0,0:0|0:0,0:0:0:0:
280,338,53097,6,0,P|314:373|374:365,1,107.25000327301,8|0,3:0|0:0,0:0:0:0:
405,339,53668,1,8,0:0:0:0:
394,246,53954,1,2,3:2:0:0:
436,163,54240,6,0,B|439:126|418:98|418:98|442:72|442:21,2,143.000004364014,2|12|8,3:0|0:0|0:0,0:0:0:0:
394,246,55668,1,0,3:0:0:0:
310,205,55954,2,0,P|272:195|233:203,1,71.5000021820069,8|0,0:0|3:0,0:0:0:0:
150,176,56525,5,2,1:3:0:0:
93,249,56811,2,0,L|90:332,1,71.5000021820069,2|2,1:2|1:3,0:0:0:0:
171,366,57383,1,2,1:2:0:0:
241,306,57668,5,4,3:2:0:0:
188,229,57954,2,0,L|190:153,1,71.5000021820069,2|8,3:1|0:0,0:0:0:0:
241,78,58525,1,8,0:0:0:0:
396,11,58811,6,0,P|386:57|395:95,1,65,6|8,3:2|0:0,0:0:0:0:
443,139,59097,2,0,P|447:174|432:226,1,65,0|10,3:0|0:0,0:0:0:0:
409,281,59383,2,0,B|379:301|379:301|283:303,1,130,2|2,3:2|3:2,0:0:0:0:
137,220,59954,6,0,L|121:145,1,65,2|8,3:2|0:0,0:0:0:0:
173,87,60240,2,0,L|157:20,1,65,2|8,3:2|0:0,0:0:0:0:
74,8,60525,1,2,3:2:0:0:
18,167,60811,1,2,3:2:0:0:
100,314,61097,6,0,P|145:304|234:319,1,130,2|0,3:2|3:0,0:0:0:0:
306,345,61525,1,10,0:0:0:0:
306,345,61668,2,0,P|351:363|433:340,1,130,2|2,3:2|3:2,0:0:0:0:
504,192,62240,6,0,L|500:115,1,65,10|0,1:2|0:0,0:0:0:0:
450,59,62525,1,10,1:2:0:0:
294,125,62811,1,10,1:2:0:0:
149,37,63097,1,8,0:0:0:0:
149,37,63240,6,0,P|172:77|162:165,1,130,12|8,0:0|0:0,0:0:0:0:
121,230,63668,2,0,P|109:267|116:304,1,65,0|8,3:0|0:0,0:0:0:0:
162,360,63954,2,0,L|306:368,1,130,0|0,3:0|3:0,0:0:0:0:
429,269,64525,6,0,L|290:278,1,130,2|2,3:2|3:2,0:0:0:0:
221,241,64954,2,0,P|209:209|231:115,1,130,10|10,0:0|0:0,0:0:0:0:
378,39,65525,6,0,B|403:73|403:73|398:174,1,130,12|8,0:0|0:0,0:0:0:0:
440,234,65954,2,0,L|436:315,1,65,0|8,3:0|0:0,0:0:0:0:
369,350,66240,1,2,3:2:0:0:
213,284,66525,1,0,3:0:0:0:
62,361,66811,6,0,P|93:321|72:183,1,195,8|8,0:0|0:0,0:0:0:0:
22,25,67525,1,8,0:0:0:0:
22,25,67668,1,8,0:0:0:0:
155,128,67954,6,0,L|224:133,1,65,6|8,3:2|0:0,0:0:0:0:
295,93,68240,2,0,L|365:99,1,65,0|10,3:0|0:0,0:0:0:0:
435,59,68525,2,0,B|447:93|447:93|428:198,1,130,2|2,3:2|3:2,0:0:0:0:
328,321,69097,6,0,P|290:331|243:328,1,65,2|8,3:2|0:0,0:0:0:0:
187,295,69383,2,0,P|146:288|109:298,1,65,2|8,3:2|0:0,0:0:0:0:
50,335,69668,2,0,P|62:303|42:199,1,130,2|2,3:2|3:2,0:0:0:0:
8,45,70240,6,0,L|147:61,1,130,2|0,3:2|3:0,0:0:0:0:
191,124,70668,1,10,0:2:0:0:
191,124,70811,2,0,L|330:140,1,130,2|2,3:2|3:2,0:0:0:0:
474,68,71383,6,0,L|460:146,1,65,10|0,1:2|0:0,0:0:0:0:
486,213,71668,1,10,1:2:0:0:
382,346,71954,1,2,1:2:0:0:
236,260,72240,1,8,0:0:0:0:
236,260,72383,6,0,B|266:220|266:220|265:125,1,130,12|8,0:0|0:0,0:0:0:0:
222,67,72811,2,0,L|152:60,1,65,0|8,3:0|0:0,0:0:0:0:
72,57,73097,1,0,3:0:0:0:
25,219,73383,1,0,3:0:0:0:
144,345,73668,6,0,P|181:368|241:367,1,97.50000371933,0|12,3:0|0:0,0:0:0:0:
335,292,74240,2,0,P|380:280|435:295,1,97.50000371933,0|12,3:0|0:0,0:0:0:0:
480,175,74811,6,0,L|475:74,1,97.50000371933,0|12,3:0|0:0,0:0:0:0:
362,19,75383,2,0,L|258:29,1,97.50000371933,0|12,3:0|0:0,0:0:0:0:
148,78,75954,2,0,P|140:113|162:186,1,97.50000371933,8|8,3:2|3:2,0:0:0:0:
180,296,76525,2,0,B|244:282|244:282|249:284|249:284|328:270,1,146.250005578995,8|8,3:2|0:0,0:0:0:0:
384,252,77097,1,4,3:2:0:0:
433,72,77668,6,0,B|389:44|389:44|299:60,2,143.000004364014,2|2|2,0:0|0:0|3:2,0:0:0:0:
446,164,79097,1,8,0:0:0:0:
393,240,79383,6,0,L|410:345,1,107.25000327301,2|0,3:0|0:0,0:0:0:0:
370,368,79954,2,0,P|332:380|258:359,1,107.25000327301,0|0,3:0|0:0,0:0:0:0:
225,345,80525,6,0,P|184:329|112:343,1,107.25000327301,2|0,3:0|0:0,0:0:0:0:
81,314,81097,2,0,L|90:207,1,107.25000327301,0|0,3:0|0:0,0:0:0:0:
118,169,81668,5,2,3:0:0:0:
187,107,81954,1,2,3:0:0:0:
262,161,82240,2,0,L|269:237,1,71.5000021820069,2|2,3:0|3:0,0:0:0:0:
354,267,82811,6,0,P|427:243|487:269,2,143.000004364014,8|8|4,3:2|3:2|3:2,0:0:0:0:
286,331,84240,5,0,3:0:0:0:
195,313,84525,2,0,L|186:234,1,71.5000021820069,0|0,3:0|3:0,0:0:0:0:
236,162,85097,2,0,P|276:149|320:155,1,71.5000021820069,0|8,3:0|0:0,0:0:0:0:
387,181,85668,2,0,P|420:195|489:176,1,107.25000327301,8|4,0:0|3:0,0:0:0:0:
492,131,86240,6,0,L|485:85,1,35.7500010910034,10|10,0:0|0:0,0:0:0:0:
348,74,86811,2,0,L|342:109,1,35.7500010910034,10|10,0:0|0:0,0:0:0:0:
240,205,87383,6,0,L|222:88,1,107.25000327301,10|10,0:0|0:0,0:0:0:0:
165,33,88097,1,2,0:0:0:0:
165,33,88240,1,10,0:0:0:0:
