osu file format v14

[General]
AudioFilename: audio.mp3
AudioLeadIn: 0
PreviewTime: 58740
Countdown: 0
SampleSet: Soft
StackLeniency: 0.7
Mode: 0
LetterboxInBreaks: 0
WidescreenStoryboard: 1

[Editor]
DistanceSpacing: 1.3
BeatDivisor: 6
GridSize: 8
TimelineZoom: 1.5

[Metadata]
Title:Acchi de Kocchi de (TV Size)
TitleUnicode:あっちでこっちで (TV Size)
Artist:Acchi<->Kocchi
ArtistUnicode:あっち⇔こっち
Creator:Bazz B
Version:Mathsu's Expert
Source:あっちこっち
Tags:-Mikan Mikan Bazz_B Matha Petal Blizs Fantastica Uta fluffy hair sahuang My Angel Azusa Nelliel Time Capsule Chihara Minori PaRaDogi Ducky- Taeyang Agatsu anime japanese Place to here and there fantastica op opening つみき tsumiki 大久保瑠美 ookubo rumi 伊御 io 岡本信彦 okamoto nobuhiko 姫 hime 福原香織 fukuhara kaori 真宵 mayoi 生天目仁美 nabatame hitomi 榊 sakaki 浅沼晋太郎 asanuma shintaro pop jpop j-pop time
BeatmapID:2316102
BeatmapSetID:1108211

[Difficulty]
HPDrainRate:6
CircleSize:4.2
OverallDifficulty:8
ApproachRate:9.2
SliderMultiplier:1.7
SliderTickRate:2

[Events]
//Background and Video events
0,0,"backg kawaii desu.jpg",0,0
Video,-210,"Nyaw.avi"
//Break Periods
//Storyboard Layer 0 (Background)
//Storyboard Layer 1 (Fail)
//Storyboard Layer 2 (Pass)
//Storyboard Layer 3 (Foreground)
//Storyboard Layer 4 (Overlay)
//Storyboard Sound Samples

[TimingPoints]
1669,285.714285714286,4,2,1,50,1,0
1669,-142.857142857143,4,2,1,50,0,0
6240,-142.857142857143,4,2,1,55,0,0
7669,-111.111111111111,4,2,1,55,0,0
7954,-111.111111111111,4,2,1,45,0,0
8526,-111.111111111111,4,2,1,55,0,0
9669,-142.857142857143,4,2,1,55,0,0
10240,-142.857142857143,4,2,1,65,0,0
10811,-90.909090909091,4,2,1,60,0,0
18954,-90.909090909091,4,2,1,30,0,0
19097,-90.909090909091,4,2,1,35,0,0
19240,-90.909090909091,4,2,1,40,0,0
19383,-90.909090909091,4,2,1,45,0,0
19526,-90.909090909091,4,2,1,50,0,0
19669,-90.909090909091,4,2,1,55,0,0
19811,-90.909090909091,4,2,1,60,0,0
19954,-90.909090909091,4,2,1,50,0,0
20240,-111.111111111111,4,2,1,50,0,0
26811,-111.111111111111,4,2,1,40,0,0
29097,-111.111111111111,4,2,1,50,0,0
33669,-111.111111111111,4,2,1,55,0,0
34669,-111.111111111111,4,2,1,60,0,0
35954,-111.111111111111,4,2,1,65,0,0
37647,285.714285714286,4,2,1,35,1,0
37647,-333.333333333333,4,2,1,35,0,0
38258,285.714285714286,4,2,1,35,1,0
38258,-200,4,2,1,35,0,0
42829,-200,4,2,1,40,0,0
45115,-200,4,2,1,45,0,0
47115,267.857142857143,4,2,1,45,1,0
47115,-200,4,2,1,45,0,0
47383,285.714285714286,4,2,1,50,1,0
47383,-200,4,2,1,50,0,0
49097,-200,4,2,1,60,0,0
49383,-100,4,2,1,60,0,0
49668,-200,4,2,1,45,0,0
51383,-200,4,2,1,60,0,0
51668,-100,4,2,1,60,0,0
51954,-100,4,2,1,50,0,0
54240,-100,4,2,1,60,0,0
56525,-100,4,2,1,50,0,0
57668,-100,4,2,1,60,0,0
58811,-90.9090909090909,4,2,1,65,0,0
73668,-125,4,2,1,65,0,0
73954,-76.9230769230769,4,2,1,65,0,0
74240,-125,4,2,1,65,0,0
74525,-76.9230769230769,4,2,1,65,0,0
74811,-125,4,2,1,65,0,0
75097,-76.9230769230769,4,2,1,65,0,0
75383,-125,4,2,1,65,0,0
75668,-76.9230769230769,4,2,1,65,0,0
77097,-200,4,2,1,45,0,0
78811,-200,4,2,1,55,0,0
79097,-100,4,2,1,55,0,0
79383,-100,4,2,1,50,0,0
80525,-100,4,2,1,55,0,0
81668,-100,4,2,1,60,0,0
82811,-100,4,2,1,65,0,0
83954,-125,4,2,1,55,0,0
85097,-100,4,2,1,55,0,0
86240,-100,4,2,1,70,0,0
88025,-100,4,2,1,5,0,0
88097,-76.9230769230769,4,2,1,55,0,0
88168,-76.9230769230769,4,2,1,5,0,0
88240,-76.9230769230769,4,2,1,40,0,0
88383,-76.9230769230769,4,2,1,5,0,0

[Colours]
Combo1 : 255,128,128
Combo2 : 128,128,255
Combo3 : 255,128,255
Combo4 : 207,207,207

[HitObjects]
47,70,1669,6,0,B|195:60|121:145|292:125,3,237.999992736817,4|8|8|8,3:2|0:1|0:1|0:1,0:0:0:0:
270,127,3573,2,0,L|281:175,1,39.6666654561361,0|4,3:0|0:3,0:0:0:0:
28,268,3954,6,0,P|7:213|136:196,3,237.999992736817,4|8|8|8,3:2|0:1|0:1|0:0,0:0:0:0:
134,193,5859,2,0,L|127:245,1,39.6666654561361,0|8,3:0|0:0,0:0:0:0:
409,342,6240,6,0,P|382:315|326:314,1,79.3333309122722,2|2,3:2|0:0,0:0:0:0:
312,322,6526,1,2,0:0:0:0:
395,173,6716,1,2,0:0:0:0:
413,187,6811,2,0,L|421:99,1,79.3333309122722,12|0,0:0|0:0,0:0:0:0:
420,73,7097,6,0,B|386:83|386:83|325:72,1,79.3333309122722,2|2,3:2|0:0,0:0:0:0:
309,69,7383,1,2,0:0:0:0:
159,184,7573,1,2,0:0:0:0:
180,171,7669,2,0,P|217:216|165:319,2,152.999995330811,12|2|2,0:0|0:0|0:0,0:0:0:0:
23,355,8526,6,0,L|4:243,1,101.999996887207,10|2,0:0|3:2,0:0:0:0:
103,90,9002,1,2,3:2:0:0:
194,301,9288,1,10,3:2:0:0:
276,92,9573,1,10,0:0:0:0:
276,92,9669,6,0,B|406:93|318:166|477:157,1,208.249993644715,2|0,3:0|0:0,0:0:0:0:
482,165,10240,2,0,L|488:111,3,29.7499990921021,8|8|8|8,0:0|0:0|0:0|0:0,0:0:0:0:
466,200,10526,1,8,0:0:0:0:
468,235,10597,1,8,0:0:0:0:
471,271,10668,1,8,0:0:0:0:
473,306,10740,1,8,0:0:0:0:
476,342,10811,5,6,3:2:0:0:
334,255,10954,2,0,L|231:243,1,93.5000028533936,0|0,0:0|3:0,0:0:0:0:
383,331,11240,2,0,L|475:341,1,93.5000028533936,8|0,0:0|3:0,0:0:0:0:
360,169,11526,2,0,P|334:212|334:255,1,93.5000028533936,8|2,0:0|3:2,0:0:0:0:
383,331,11811,1,10,0:0:0:0:
227,261,11954,6,0,L|134:271,1,93.5000028533936,2|8,3:2|0:0,0:0:0:0:
277,131,12240,2,0,L|369:141,1,93.5000028533936,2|8,3:2|0:0,0:0:0:0:
215,275,12526,2,0,L|122:285,1,93.5000028533936,2|8,3:2|0:0,0:0:0:0:
289,119,12812,2,0,L|381:129,1,93.5000028533936,2|8,3:2|0:0,0:0:0:0:
202,291,13097,5,2,3:2:0:0:
112,195,13240,2,0,B|100:140|118:106|118:106|149:76|131:9,1,187.000005706787,0|8,0:0|0:0,0:0:0:0:
53,50,13669,1,0,3:0:0:0:
193,153,13811,2,0,P|235:136|280:87,1,93.5000028533936,8|2,0:0|3:2,0:0:0:0:
331,16,14097,1,10,0:0:0:0:
452,128,14240,6,0,L|445:228,1,93.5000028533936,2|8,3:2|0:0,0:0:0:0:
293,312,14526,2,0,L|286:218,1,93.5000028533936,2|8,3:2|0:0,0:0:0:0:
435,132,14811,2,0,L|428:232,1,93.5000028533936,2|8,3:2|0:0,0:0:0:0:
305,299,15097,2,0,L|298:205,1,93.5000028533936,2|8,3:2|0:0,0:0:0:0:
366,361,15383,5,0,3:0:0:0:
323,379,15454,1,0,3:0:0:0:
277,375,15525,1,0,3:0:0:0:
240,348,15597,1,0,3:0:0:0:
220,306,15669,2,0,L|162:314,1,46.7500014266968,0|0,3:0|3:0,0:0:0:0:
38,384,15811,2,0,L|30:326,1,46.7500014266968,0|0,3:0|3:0,0:0:0:0:
86,247,15954,5,0,3:0:0:0:
102,204,16025,1,0,3:0:0:0:
90,160,16096,1,10,0:0:0:0:
53,133,16168,1,8,0:0:0:0:
7,135,16239,5,10,0:0:0:0:
156,117,16383,1,10,0:0:0:0:
95,14,16526,6,0,L|100:73,3,46.7500014266968,8|8|8|8,3:2|0:0|0:0|0:0,0:0:0:0:
202,112,16811,2,0,L|156:117,3,46.7500014266968,8|8|8|8,0:0|0:0|3:2|0:0,0:0:0:0:
109,230,17097,2,0,L|105:183,3,46.7500014266968,8|8|8|8,0:0|0:0|0:0|0:0,0:0:0:0:
1,131,17383,2,0,L|48:127,3,46.7500014266968,8|0|8|0,3:2|3:0|3:2|3:0,0:0:0:0:
0,131,17669,5,8,0:0:0:0:
156,117,17811,1,8,0:0:0:0:
13,274,17954,1,8,0:0:0:0:
186,261,18097,1,8,0:0:0:0:
186,261,18383,1,8,0:0:0:0:
76,37,18669,5,8,0:0:0:0:
256,192,18811,12,2,19954,3:0:0:0:
330,362,20240,6,0,P|288:365|226:275,1,152.999995330811,8|0,0:0|3:0,0:0:0:0:
231,186,20669,1,0,0:0:0:0:
312,276,20811,1,8,0:0:0:0:
130,229,20954,6,0,B|46:236|89:298|-22:293,1,152.999995330811,2|0,3:0|3:0,0:0:0:0:
141,318,21383,1,8,0:0:0:0:
4,202,21526,1,0,3:0:0:0:
116,137,21669,2,0,P|137:174|150:217,1,76.4999976654053,0|0,3:0|0:0,0:0:0:0:
13,364,21954,2,0,P|25:327|44:294,1,76.4999976654053,8|0,0:0|0:0,0:0:0:0:
273,247,22240,5,2,3:0:0:0:
273,247,22526,2,0,B|331:248|331:248|369:228|369:228|447:232,1,152.999995330811,8|0,0:0|3:2,0:0:0:0:
484,377,23097,6,0,P|470:294|464:139,1,229.499992996216,10|2,0:0|0:0,0:0:0:0:
459,63,23669,1,10,0:0:0:0:
374,111,23811,1,2,3:2:0:0:
463,148,23954,1,2,3:2:0:0:
369,24,24097,1,2,3:2:0:0:
313,175,24240,1,10,0:0:0:0:
241,53,24383,1,2,3:2:0:0:
252,230,24526,6,0,P|291:255|389:206,1,152.999995330811,2|8,3:0|0:0,0:0:0:0:
313,175,24954,1,0,3:0:0:0:
184,282,25097,2,0,B|90:263|126:326|19:288,1,152.999995330811,0|8,3:0|0:0,0:0:0:0:
225,367,25526,6,0,L|249:365,1,19.1249994163513,2|0,3:0|0:0,0:0:0:0:
256,350,25811,6,0,P|266:313|268:275,1,76.4999976654053,0|8,0:0|0:0,0:0:0:0:
68,216,26096,1,0,3:0:0:0:
179,66,26240,2,0,P|190:112|186:158,1,76.4999976654053,0|8,3:0|0:0,0:0:0:0:
177,163,26454,1,8,0:0:0:0:
177,163,26526,2,0,L|270:150,1,76.4999976654053,8|0,0:0|3:0,0:0:0:0:
450,127,26811,5,14,0:0:0:0:
450,127,27097,1,2,0:1:0:0:
450,127,27383,1,2,0:1:0:0:
450,127,27669,1,2,0:1:0:0:
476,204,27954,5,2,0:1:0:0:
409,277,28240,1,2,0:3:0:0:
295,245,28526,2,0,P|263:239|213:238,1,76.4999976654053,8|2,0:1|0:0,0:0:0:0:
185,327,28811,2,0,P|146:327|109:334,1,76.4999976654053,8|2,0:1|0:0,0:0:0:0:
26,151,29097,6,0,P|80:171|153:105,1,152.999995330811,2|8,3:0|0:0,0:0:0:0:
238,50,29526,1,0,3:0:0:0:
295,123,29669,2,0,B|239:144|239:144|121:109,1,152.999995330811,0|8,3:0|0:0,0:0:0:0:
5,58,30097,5,2,3:0:0:0:
16,75,30383,6,0,P|12:112|4:150,1,76.4999976654053,0|8,3:0|0:0,0:0:0:0:
149,117,30669,1,0,3:0:0:0:
108,250,30811,2,0,P|112:287|120:325,1,76.4999976654053,0|0,3:0|0:0,0:0:0:0:
232,171,31097,2,0,P|239:133|244:95,1,76.4999976654053,8|0,0:0|0:0,0:0:0:0:
292,331,31383,6,0,B|387:313|343:375|464:353,2,152.999995330811,8|8|8,3:2|3:2|3:2,0:0:0:0:
292,331,32240,6,0,P|318:288|193:245,1,229.499992996216,10|2,3:2|3:2,0:0:0:0:
207,320,32811,1,10,0:0:0:0:
328,211,32954,1,2,3:2:0:0:
156,156,33097,1,2,3:2:0:0:
292,331,33240,2,0,L|347:325,1,38.2499988327027,2|8,3:2|0:0,0:0:0:0:
403,158,33383,1,10,0:0:0:0:
137,158,33526,1,2,3:2:0:0:
417,148,33669,6,0,P|437:198|441:313,1,152.999995330811,2|8,3:0|0:0,0:0:0:0:
342,235,34097,1,0,3:0:0:0:
272,147,34240,2,0,P|246:218|245:295,1,152.999995330811,0|8,3:0|0:0,0:0:0:0:
349,49,34669,6,0,L|347:17,1,19.1249994163513,6|0,3:0|0:0,0:0:0:0:
349,49,34954,1,0,3:0:0:0:
189,86,35097,2,0,P|146:84|114:68,1,76.4999976654053,8|0,0:0|3:0,0:0:0:0:
272,147,35383,2,0,L|266:241,1,76.4999976654053,8|0,0:0|0:0,0:0:0:0:
113,230,35669,2,0,L|108:153,1,76.4999976654053,8|0,0:0|0:0,0:0:0:0:
198,290,35954,5,8,0:0:0:0:
58,351,36097,1,8,0:0:0:0:
284,365,36240,1,8,0:0:0:0:
85,329,36383,1,8,0:0:0:0:
267,223,36526,5,8,0:0:0:0:
21,177,36669,1,8,0:0:0:0:
423,98,36954,5,2,3:0:0:0:
423,98,37647,6,0,P|413:147|413:155,1,50.9999984436036,2|2,0:0|0:0,0:0:0:0:
413,147,38258,6,0,B|330:108|328:171|245:146,1,170
51,303,39115,1,2,0:0:0:0:
121,357,39258,2,0,P|145:298|136:236,1,127.5,0|2,0:0|0:0,0:0:0:0:
30,133,39829,1,2,0:0:0:0:
124,137,39972,1,2,0:0:0:0:
81,65,40115,1,2,0:0:0:0:
124,137,40258,2,0,L|180:133,1,42.5,2|2,0:0|0:0,0:0:0:0:
339,23,40543,6,0,P|265:72|287:158,1,170
437,313,41400,1,2,0:0:0:0:
474,230,41543,2,0,B|409:202|407:246|333:222,1,127.5,0|2,0:0|0:0,0:0:0:0:
215,330,42115,1,2,0:0:0:0:
311,326,42258,1,2,0:0:0:0:
258,262,42400,1,2,0:0:0:0:
215,330,42543,2,0,L|162:353,1,42.5,2|2,0:0|0:0,0:0:0:0:
258,262,42829,6,0,P|257:190|253:161,1,85,0|2,0:0|0:0,0:0:0:0:
436,200,43400,2,0,P|437:128|441:99,1,85,0|2,0:0|0:0,0:0:0:0:
439,116,43972,1,0,0:0:0:0:
345,233,44258,1,2,0:0:0:0:
477,325,44543,1,0,0:0:0:0:
345,233,44829,1,2,0:0:0:0:
227,335,45115,5,8,0:1:0:0:
232,46,45686,1,8,0:1:0:0:
145,339,46258,5,8,0:1:0:0:
150,50,46829,1,8,0:1:0:0:
52,169,47115,6,0,L|-1:161,1,42.5,2|0,0:0|0:0,0:0:0:0:
105,315,47383,6,0,P|123:265|117:221,1,85,8|2,0:3|0:0,0:0:0:0:
248,142,47954,2,0,P|247:184|263:223,1,85,8|2,0:3|0:0,0:0:0:0:
405,329,48525,1,8,0:3:0:0:
375,176,48811,1,2,0:0:0:0:
496,262,49097,6,0,P|488:294|484:318,1,42.5,0|0,3:0|0:0,3:0:0:0:
486,114,49383,2,0,P|448:92|386:99,1,85,4|0,3:0|0:0,0:0:0:0:
351,146,49668,6,0,L|266:161,1,85,8|2,0:3|0:0,0:0:0:0:
126,102,50240,1,8,0:3:0:0:
137,263,50525,1,2,0:0:0:0:
126,102,50811,2,0,L|29:95,1,85,8|2,0:3|0:0,0:0:0:0:
203,21,51383,5,0,3:0:0:0:
351,104,51573,1,8,0:0:0:0:
351,104,51668,2,0,P|322:164|345:234,1,127.5,4|0,3:0|0:0,0:0:0:0:
394,273,51954,5,8,3:0:0:0:
172,141,52430,5,0,3:0:0:0:
172,141,52525,1,8,0:0:0:0:
412,37,53097,5,8,3:0:0:0:
470,131,53287,1,8,0:0:0:0:
470,131,53383,2,0,L|462:225,1,85,2|0,3:2|0:0,0:0:0:0:
316,289,53668,2,0,L|308:204,1,85,8|0,0:0|0:0,0:0:0:0:
492,317,53954,2,0,P|452:332|393:320,1,85,2|0,3:2|0:0,0:0:0:0:
223,256,54240,5,2,3:0:0:0:
373,128,54525,1,2,0:0:0:0:
203,42,54811,2,0,L|95:31,1,85,12|0,0:0|0:0,0:0:0:0:
83,170,55097,2,0,L|167:161,1,85,2|0,0:0|0:0,0:0:0:0:
39,73,55383,5,8,0:0:0:0:
0,229,55525,2,0,P|-7:276|3:322,1,85,8|0,0:0|3:0,0:0:0:0:
167,161,55811,1,8,0:0:0:0:
110,361,55954,6,0,L|106:298,2,56.6666666666667,8|8|8,0:0|0:3|0:3,0:0:0:0:
199,263,56240,6,0,L|195:319,2,56.6666666666667,0|8|8,3:0|0:3|0:3,0:0:0:0:
266,368,56525,5,2,1:3:0:0:
416,120,56811,1,2,1:2:0:0:
433,234,56954,1,0,1:0:0:0:
450,348,57097,1,2,1:3:0:0:
279,160,57383,1,2,1:2:0:0:
169,366,57668,6,0,L|134:361,5,28.3333333333333,4|2|2|2|2|2,3:2|0:1|0:1|0:1|0:1|0:1,0:0:0:0:
113,342,57954,2,0,L|78:347,5,28.3333333333333,2|2|2|2|2|2,3:1|0:1|0:1|0:1|0:1|0:1,0:0:0:0:
53,323,58240,5,8,0:0:0:0:
33,295,58311,1,8,0:0:0:0:
29,260,58383,1,8,0:0:0:0:
42,229,58454,1,8,0:0:0:0:
66,205,58525,1,8,0:0:0:0:
79,173,58597,1,8,0:0:0:0:
72,139,58668,1,8,0:0:0:0:
47,114,58740,1,8,0:0:0:0:
12,99,58811,6,0,L|5:197,1,93.5000028533936,6|8,3:2|0:0,0:0:0:0:
214,88,59097,1,0,3:0:0:0:
112,33,59240,1,10,0:0:0:0:
163,196,59383,2,0,P|230:208|270:194,1,93.5000028533936,2|10,3:2|0:2,0:0:0:0:
395,66,59668,1,2,3:2:0:0:
356,265,59811,1,8,0:0:0:0:
497,112,59954,5,2,3:2:0:0:
299,105,60097,1,8,0:0:0:0:
476,226,60240,2,0,P|487:286|475:337,1,93.5000028533936,2|8,3:2|0:0,0:0:0:0:
262,270,60525,2,0,L|359:264,1,93.5000028533936,2|10,3:2|0:0,0:0:0:0:
197,358,60811,1,2,3:2:0:0:
184,187,60954,1,8,0:0:0:0:
92,351,61097,6,0,P|43:358|-5:344,1,93.5000028533936,2|8,3:2|0:0,0:0:0:0:
61,138,61383,1,0,3:0:0:0:
58,257,61525,1,10,0:0:0:0:
113,48,61668,2,0,P|67:36|22:44,1,93.5000028533936,2|10,3:2|0:0,0:0:0:0:
162,260,61954,1,2,3:2:0:0:
197,133,62097,1,10,0:0:0:0:
264,331,62240,6,0,L|273:225,1,93.5000028533936,10|0,1:2|0:0,0:0:0:0:
294,9,62525,1,10,1:2:0:0:
381,291,62811,1,10,1:2:0:0:
401,113,62954,1,0,3:0:0:0:
401,113,63025,1,0,3:0:0:0:
401,113,63097,1,8,0:0:0:0:
496,245,63240,6,0,P|505:307|493:349,1,93.5000028533936,12|0,0:0|0:0,0:0:0:0:
332,189,63525,1,8,0:0:0:0:
231,370,63668,2,0,L|354:358,1,93.5000028533936,0|8,3:0|0:0,0:0:0:0:
329,162,63954,2,0,L|206:150,1,93.5000028533936,0|8,3:0|0:0,0:0:0:0:
67,281,64240,2,0,P|116:294|179:283,1,93.5000028533936,0|8,3:0|0:0,0:0:0:0:
128,70,64525,6,0,L|122:177,1,93.5000028533936,2|10,3:2|0:0,0:0:0:0:
110,374,64811,1,2,3:2:0:0:
267,254,64954,2,0,P|313:250|373:268,1,93.5000028533936,10|2,0:0|3:2,0:0:0:0:
508,378,65240,1,10,0:0:0:0:
314,358,65383,1,0,3:0:0:0:
440,128,65525,6,0,B|470:170|470:170|450:320,1,187.000005706787,12|8,0:0|0:0,0:0:0:0:
266,164,65954,2,0,L|362:178,1,93.5000028533936,0|8,3:0|0:0,0:0:0:0:
224,346,66240,2,0,L|128:360,1,93.5000028533936,2|8,3:2|0:0,0:0:0:0:
175,135,66525,1,0,3:0:0:0:
175,135,66597,1,0,3:0:0:0:
175,135,66668,1,8,3:2:0:0:
317,313,66811,5,8,0:0:0:0:
71,200,66954,1,0,3:0:0:0:
279,51,67097,1,8,0:0:0:0:
194,262,67240,2,0,P|186:317|191:364,1,93.5000028533936,8|0,0:0|0:0,0:0:0:0:
219,370,67454,1,0,3:0:0:0:
219,370,67525,1,8,0:0:0:0:
286,173,67668,1,8,0:0:0:0:
71,200,67811,1,8,0:0:0:0:
182,41,67954,6,0,L|174:140,1,93.5000028533936,6|8,3:2|0:0,0:0:0:0:
317,277,68240,1,0,3:0:0:0:
342,92,68383,1,10,0:0:0:0:
490,213,68525,2,0,P|432:194|377:202,1,93.5000028533936,2|10,3:2|0:0,0:0:0:0:
245,354,68811,1,2,3:2:0:0:
433,307,68954,1,8,0:0:0:0:
298,177,69097,5,2,3:2:0:0:
348,372,69240,1,8,0:0:0:0:
141,268,69383,2,0,L|246:254,1,93.5000028533936,2|8,3:2|0:0,0:0:0:0:
51,376,69668,2,0,P|34:324|42:272,1,93.5000028533936,2|10,3:2|0:0,0:0:0:0:
148,141,69954,1,2,3:2:0:0:
174,350,70097,1,8,0:0:0:0:
49,172,70240,6,0,L|46:75,1,93.5000028533936,2|0,3:2|0:0,0:0:0:0:
256,151,70525,1,0,3:0:0:0:
150,248,70668,1,10,0:2:0:0:
207,53,70811,2,0,P|265:43|323:60,1,93.5000028533936,2|10,3:2|0:0,0:0:0:0:
388,249,71097,1,2,3:2:0:0:
256,151,71240,1,8,0:0:0:0:
471,79,71383,6,0,L|461:188,1,93.5000028533936,10|0,1:2|0:0,0:0:0:0:
439,381,71668,1,10,1:2:0:0:
354,98,71954,1,2,1:2:0:0:
202,254,72097,1,0,3:0:0:0:
202,254,72168,1,0,3:0:0:0:
202,254,72240,1,8,0:0:0:0:
247,57,72383,6,0,L|256:155,1,93.5000028533936,12|0,0:0|0:0,0:0:0:0:
274,332,72668,1,8,0:0:0:0:
156,165,72811,2,0,P|105:159|56:177,1,93.5000028533936,0|8,3:0|0:0,0:0:0:0:
82,361,73097,2,0,P|133:367|182:349,1,93.5000028533936,0|8,3:0|0:0,0:0:0:0:
327,244,73383,2,0,L|218:238,1,93.5000028533936,0|8,3:0|0:0,0:0:0:0:
417,379,73668,6,0,P|423:332|419:303,1,68,0|0,3:0|3:0,0:0:0:0:
231,130,73954,2,0,B|222:181|222:181|237:257,1,110.499994941712,12|0,0:0|0:0,0:0:0:0:
400,151,74240,6,0,L|322:155,1,68,0|0,3:0|3:0,0:0:0:0:
134,17,74525,2,0,B|188:15|188:15|187:11|187:11|188:15|188:15|255:14,1,110.499994941712,12|0,0:0|0:0,0:0:0:0:
64,155,74811,6,0,P|55:117|58:83,1,68,0|0,3:0|3:0,0:0:0:0:
233,238,75097,2,8,B|222:293|222:293|234:360,1,110.499994941712,12|0,0:0|0:0,0:0:0:0:
358,275,75383,6,0,L|355:346,1,68,0|0,3:0|3:0,0:0:0:0:
494,75,75668,2,0,B|443:88|443:88|382:82,1,110.499994941712,12|0,0:0|0:0,0:0:0:0:
177,25,75954,5,8,3:2:0:0:
402,186,76240,1,8,3:2:0:0:
134,292,76525,1,8,3:2:0:0:
92,276,76597,1,0,3:0:0:0:
49,285,76668,1,0,3:0:0:0:
20,319,76740,1,0,3:0:0:0:
20,362,76811,1,8,3:2:0:0:
175,207,76954,1,8,0:0:0:0:
175,207,77025,1,8,0:0:0:0:
175,207,77097,6,0,B|210:115|148:117|191:29,1,170,4|2,3:2|0:0,0:0:0:0:
371,152,78240,2,0,L|379:315,1,148.75,2|0,0:0|0:0,0:0:0:0:
328,362,78811,5,2,3:2:0:0:
291,371,78883,1,4,3:0:0:0:
254,363,78954,1,0,3:0:0:0:
227,336,79025,1,0,3:0:0:0:
218,299,79097,2,0,P|225:251|218:204,1,85,8|0,0:0|0:0,0:0:0:0:
112,87,79383,6,0,L|101:269,1,170,2|2,3:0|0:0,0:0:0:0:
400,87,79954,2,0,L|411:269,1,170,0|2,3:0|0:0,0:0:0:0:
101,69,80525,6,0,L|90:251,1,170,2|2,3:0|0:0,0:0:0:0:
389,69,81097,2,0,L|400:251,1,170,0|2,3:0|0:0,0:0:0:0:
83,53,81668,5,2,3:0:0:0:
406,50,81954,1,2,3:0:0:0:
409,373,82240,1,2,3:0:0:0:
86,376,82525,1,2,3:0:0:0:
257,117,82811,5,8,3:2:0:0:
233,141,82883,1,8,0:0:0:0:
224,173,82954,1,8,0:0:0:0:
226,206,83025,1,8,0:0:0:0:
244,235,83097,2,0,L|311:241,1,42.5,8|8,3:2|0:0,0:0:0:0:
437,140,83240,1,8,0:0:0:0:
437,140,83311,1,8,0:0:0:0:
437,140,83383,2,0,L|386:135,1,42.5,8|8,3:2|0:0,0:0:0:0:
245,19,83525,1,8,0:0:0:0:
245,19,83597,1,8,0:0:0:0:
245,19,83668,2,0,L|251:71,1,42.5,8|8,3:2|0:0,0:0:0:0:
378,278,83811,2,0,L|382:235,1,42.5,8|8,0:0|0:0,0:0:0:0:
233,141,83954,6,0,P|165:141|111:195,1,136,4|0,3:2|3:0,0:0:0:0:
88,275,84383,1,2,0:0:0:0:
213,365,84525,2,0,B|232:332|228:289|228:289|206:265|201:221,1,136,0|0,3:0|3:0,0:0:0:0:
295,216,84954,1,2,0:0:0:0:
228,56,85097,6,0,L|233:143,1,85,0|0,3:0|0:0,0:0:0:0:
317,0,85383,1,8,0:0:0:0:
127,16,85525,1,0,3:0:0:0:
338,104,85668,1,8,0:0:0:0:
115,138,85811,1,0,3:0:0:0:
115,138,85883,1,0,3:0:0:0:
115,138,85954,1,4,0:3:0:0:
228,56,86097,1,4,3:0:0:0:
158,274,86240,5,10,0:0:0:0:
127,16,86383,1,10,0:0:0:0:
354,274,86811,5,10,0:0:0:0:
385,16,86954,1,10,0:0:0:0:
158,274,87383,5,10,0:0:0:0:
373,135,87525,1,10,0:0:0:0:
121,80,87668,1,10,0:0:0:0:
373,135,87811,1,10,0:0:0:0:
85,177,88097,5,2,0:0:0:0:
248,0,88240,2,0,L|242:125,1,110.499994941712,10|0,0:0|0:0,0:0:0:0:
