osu file format v14

[General]
AudioFilename: audio.mp3
AudioLeadIn: 0
PreviewTime: 58740
Countdown: 0
SampleSet: Soft
StackLeniency: 0.3
Mode: 0
LetterboxInBreaks: 0
WidescreenStoryboard: 1

[Editor]
DistanceSpacing: 1.3
BeatDivisor: 4
GridSize: 8
TimelineZoom: 1.8

[Metadata]
Title:Acchi de Kocchi de (TV Size)
TitleUnicode:あっちでこっちで (TV Size)
Artist:Acchi<->Kocchi
ArtistUnicode:あっち⇔こっち
Creator:Bazz B
Version:Hoinya
Source:あっちこっち
Tags:-Mikan Mikan Bazz_B Matha Petal Blizs Fantastica Uta fluffy hair sahuang My Angel Azusa Nelliel Time Capsule Chihara Minori PaRaDogi Ducky- Taeyang Agatsu anime japanese Place to here and there fantastica op opening つみき tsumiki 大久保瑠美 ookubo rumi 伊御 io 岡本信彦 okamoto nobuhiko 姫 hime 福原香織 fukuhara kaori 真宵 mayoi 生天目仁美 nabatame hitomi 榊 sakaki 浅沼晋太郎 asanuma shintaro pop jpop j-pop time
BeatmapID:2316087
BeatmapSetID:1108211

[Difficulty]
HPDrainRate:6
CircleSize:4
OverallDifficulty:9.2
ApproachRate:9.5
SliderMultiplier:1.85
SliderTickRate:1

[Events]
//Background and Video events
0,0,"backg kawaii desu.jpg",0,0
Video,-210,"Nyaw.avi"
//Break Periods
//Storyboard Layer 0 (Background)
//Storyboard Layer 1 (Fail)
//Storyboard Layer 2 (Pass)
//Storyboard Layer 3 (Foreground)
//Storyboard Layer 4 (Overlay)
//Storyboard Sound Samples

[TimingPoints]
1669,285.714285714286,4,2,1,50,1,0
1669,-142.857142857143,4,2,1,50,0,0
2097,-142.857142857143,4,2,1,5,0,0
2169,-142.857142857143,4,2,1,50,0,0
2240,-100,4,2,1,50,0,0
2383,-100,4,2,1,5,0,0
2454,-142.857142857143,4,2,1,50,0,0
2669,-142.857142857143,4,2,1,5,0,0
2740,-142.857142857143,4,2,1,50,0,0
2954,-142.857142857143,4,2,1,5,0,0
3026,-142.857142857143,4,2,1,50,0,0
3240,-142.857142857143,4,2,1,5,0,0
3311,-142.857142857143,4,2,1,50,0,0
3883,-142.857142857143,4,2,1,5,0,0
3954,-142.857142857143,4,2,1,50,0,0
4097,-142.857142857143,4,2,1,5,0,0
4169,-117.647058823529,4,2,1,50,0,0
4383,-117.647058823529,4,2,1,5,0,0
4454,-117.647058823529,4,2,1,50,0,0
4669,-117.647058823529,4,2,1,5,0,0
4740,-117.647058823529,4,2,1,50,0,0
4954,-117.647058823529,4,2,1,5,0,0
5026,-117.647058823529,4,2,1,50,0,0
5240,-117.647058823529,4,2,1,5,0,0
5311,-117.647058823529,4,2,1,50,0,0
5526,-117.647058823529,4,2,1,5,0,0
5597,-117.647058823529,4,2,1,50,0,0
5669,-100,4,2,1,50,0,0
6169,-100,4,2,1,5,0,0
6240,-125,4,2,1,55,0,0
6811,-74.0740740740741,4,2,1,55,0,0
7026,-74.0740740740741,4,2,1,5,0,0
7097,-74.0740740740741,4,2,1,55,0,0
7669,-58.8235294117647,4,2,1,55,0,0
7883,-58.8235294117647,4,2,1,5,0,0
7954,-222.222222222221,4,2,1,45,0,0
8169,-222.222222222221,4,2,1,5,0,0
8240,-153.846153846153,4,2,1,45,0,0
8454,-153.846153846153,4,2,1,5,0,0
8526,-166.666666666667,4,2,1,55,0,0
8907,-166.666666666667,4,2,1,5,0,0
9002,-166.666666666667,4,2,1,55,0,0
9669,-100,4,2,1,55,0,0
10097,-100,4,2,1,5,0,0
10240,-100,4,2,1,65,0,0
10811,-100,4,2,1,60,0,1
16240,-76.9230769230769,4,2,1,60,0,1
18097,-71.4285714285714,4,2,1,60,0,1
18311,-71.4285714285714,4,2,1,5,0,1
18383,-71.4285714285714,4,2,1,60,0,1
18597,-71.4285714285714,4,2,1,5,0,1
18669,-71.4285714285714,4,2,1,60,0,1
18954,-142.857142857143,4,2,1,30,0,0
19097,-142.857142857143,4,2,1,35,0,0
19240,-142.857142857143,4,2,1,40,0,0
19383,-142.857142857143,4,2,1,45,0,0
19526,-142.857142857143,4,2,1,50,0,0
19669,-142.857142857143,4,2,1,55,0,0
19811,-142.857142857143,4,2,1,60,0,0
19954,-117.647058823529,4,2,1,50,0,0
20169,-117.647058823529,4,2,1,5,0,0
20240,-117.647058823529,4,2,1,50,0,0
21883,-117.647058823529,4,2,1,5,0,0
21954,-117.647058823529,4,2,1,50,0,0
22240,-105.263157894737,4,2,1,50,0,0
22454,-105.263157894737,4,2,1,5,0,0
22526,-105.263157894737,4,2,1,50,0,0
23454,-105.263157894737,4,2,1,5,0,0
23526,-105.263157894737,4,2,1,50,0,0
24526,-117.64705882353,4,2,1,50,0,0
26811,-166.666666666667,4,2,1,40,0,0
28526,-153.846153846154,4,2,1,40,0,0
29097,-117.647058823529,4,2,1,50,0,0
29311,-117.647058823529,4,2,1,5,0,0
29383,-117.647058823529,4,2,1,50,0,0
32597,-117.647058823529,4,2,1,5,0,0
32669,-117.647058823529,4,2,1,50,0,0
33669,-117.647058823529,4,2,1,55,0,0
33883,-117.647058823529,4,2,1,5,0,0
33954,-117.647058823529,4,2,1,55,0,0
34669,-117.647058823529,4,2,1,60,0,0
35954,-117.647058823529,4,2,1,65,0,0
37647,285.714285714286,4,2,1,35,1,0
37647,-250,4,2,1,35,0,0
38258,285.714285714286,4,2,1,35,1,0
38258,-250,4,2,1,35,0,0
39615,-250,4,2,1,5,0,0
39686,-250,4,2,1,35,0,0
41900,-250,4,2,1,5,0,0
41972,-250,4,2,1,35,0,0
42829,-222.222222222222,4,2,1,40,0,0
43043,-222.222222222222,4,2,1,5,0,0
43115,-222.222222222222,4,2,1,40,0,0
43900,-222.222222222222,4,2,1,5,0,0
43972,-222.222222222222,4,2,1,40,0,0
45115,-200,4,2,1,45,0,0
47115,267.857142857143,4,2,1,45,1,0
47115,-200,4,2,1,45,0,0
47383,285.714285714286,4,2,1,50,1,0
47383,-181.818181818182,4,2,1,50,0,0
49097,-250.000000000001,4,2,1,60,0,0
49311,-250.000000000001,4,2,1,5,0,0
49383,-100,4,2,1,60,0,0
49597,-100,4,2,1,5,0,0
49668,-181.818181818182,4,2,1,45,0,0
51383,-100,4,2,1,60,0,0
51883,-100,4,2,1,5,0,0
51954,-142.857142857143,4,2,1,50,0,0
53954,-83.3333333333333,4,2,1,50,0,0
54240,-133.333333333333,4,2,1,60,0,0
55383,-125,4,2,1,60,0,0
55740,-125,4,2,1,5,0,0
55811,-125,4,2,1,60,0,0
55954,-100,4,2,1,60,0,0
56525,-83.3333333333333,4,2,1,50,0,0
56740,-83.3333333333333,4,2,1,5,0,0
56811,-83.3333333333333,4,2,1,50,0,0
57311,-83.3333333333333,4,2,1,5,0,0
57383,-83.3333333333333,4,2,1,50,0,0
57597,-83.3333333333333,4,2,1,5,0,0
57668,-66.6666666666667,4,2,1,60,0,0
58811,-100,4,2,1,65,0,1
65740,-100,4,2,1,5,0,1
65811,-100,4,2,1,65,0,1
67525,-76.9230769230769,4,2,1,65,0,1
67668,-66.6666666666667,4,2,1,65,0,0
67883,-66.6666666666667,4,2,1,5,0,0
67954,-100,4,2,1,65,0,1
73954,-83.3333333333333,4,2,1,65,0,1
74168,-83.3333333333333,4,2,1,5,0,1
74240,-83.3333333333333,4,2,1,65,0,1
74740,-83.3333333333333,4,2,1,5,0,1
74811,-83.3333333333333,4,2,1,65,0,1
75311,-83.3333333333333,4,2,1,5,0,1
75383,-83.3333333333333,4,2,1,65,0,1
75883,-83.3333333333333,4,2,1,5,0,1
75954,-83.3333333333333,4,2,1,65,0,1
77097,-200,4,2,1,45,0,0
78811,-142.857142857143,4,2,1,55,0,0
79097,-333.333333333334,4,2,1,55,0,0
79311,-333.333333333334,4,2,1,5,0,0
79383,-142.857142857143,4,2,1,50,0,0
80525,-125,4,2,1,55,0,0
81668,-111.111111111111,4,2,1,60,0,0
82811,-100,4,2,1,65,0,0
83954,-125,4,2,1,55,0,0
85597,-125,4,2,1,5,0,0
85668,-125,4,2,1,55,0,0
86240,-100,4,2,1,70,0,0
88025,-100,4,2,1,5,0,0
88097,-100,4,2,1,55,0,0
88168,-100,4,2,1,5,0,0
88240,-100,4,2,1,40,0,0
88383,-100,4,2,1,5,0,0

[Colours]
Combo1 : 255,128,128
Combo2 : 128,128,255
Combo3 : 255,128,255
Combo4 : 207,207,207

[HitObjects]
95,142,1669,6,0,P|79:86|62:51,2,97.1249970359803,4|2|0,3:2|0:0|0:0,0:0:0:0:
49,233,2169,5,2,0:0:0:0:
42,233,2240,2,0,P|47:186|90:159,1,92.5,8|0,0:1|0:0,0:0:0:0:
95,142,2454,6,0,P|148:147|181:195,1,97.1249970359803,2|0,0:0|0:0,0:0:0:0:
272,255,2740,1,2,0:0:0:0:
262,251,2811,2,0,P|253:208|283:173,1,64.7499980239869,8|0,0:1|0:0,0:0:0:0:
295,62,3026,2,0,P|264:105|206:109,1,97.1249970359803,2|0,0:0|0:0,0:0:0:0:
263,191,3311,5,2,0:0:0:0:
286,196,3383,2,0,P|325:181|337:180,1,43.1666653493246,8|0,0:1|0:0,0:0:0:0:
470,300,3573,5,0,3:0:0:0:
495,224,3669,2,0,B|436:215|451:254|376:230,1,97.1249970359803,4|0,0:3|0:0,0:0:0:0:
304,283,3954,6,0,P|343:331|370:339,1,64.7499980239869,4|0,3:2|0:0,0:0:0:0:
359,325,4169,6,0,P|319:278|249:278,1,117.937502249479,2|0,0:0|0:0,0:0:0:0:
200,218,4454,1,2,0:0:0:0:
192,211,4526,2,0,P|146:237|135:280,1,78.6250014996529,8|0,0:1|0:0,0:0:0:0:
30,355,4740,6,0,P|14:284|-4:232,1,117.937502249479,2|0,0:0|0:0,0:0:0:0:
24,146,5026,1,2,0:0:0:0:
32,139,5098,2,0,P|78:165|89:208,1,78.6250014996529,8|0,0:1|0:0,0:0:0:0:
200,218,5311,6,0,P|216:147|234:95,1,117.937502249479,2|0,0:0|0:0,0:0:0:0:
165,19,5597,1,0,3:0:0:0:
146,31,5669,2,0,P|155:65|163:100,1,46.25,8|0,0:0|0:0,0:0:0:0:
313,139,5859,5,0,3:0:0:0:
360,76,5954,2,0,P|320:31|227:30,1,138.75,8|0,0:0|0:0,0:0:0:0:
241,32,6240,5,2,3:2:0:0:
446,185,6430,1,2,0:0:0:0:
463,113,6526,1,2,0:0:0:0:
199,218,6716,1,2,0:0:0:0:
217,289,6811,2,0,B|250:269|278:269|278:269|287:301|324:313|324:313|349:286|383:279,1,187.31250071454,12|0,0:0|0:0,0:0:0:0:
384,290,7097,5,2,3:2:0:0:
285,99,7288,1,2,0:0:0:0:
360,76,7383,1,2,0:0:0:0:
145,337,7573,1,2,0:0:0:0:
70,313,7669,2,0,B|68:262|26:216|26:216|84:156|84:156|115:190|100:217,1,235.875004498959,12|0,0:0|0:0,0:0:0:0:
199,218,7954,6,0,P|213:202|193:213,1,62.4374980945588,2|0,0:0|0:0,0:0:0:0:
31,52,8240,6,0,P|12:40|34:51,1,90.1874958715441,2|0,0:0|0:0,0:0:0:0:
5,122,8526,5,10,0:0:0:0:
328,22,8716,2,0,P|315:49|308:102,1,73.9999977416993,2|0,3:2|0:0,0:0:0:0:
332,171,9002,5,2,3:2:0:0:
177,125,9288,1,10,3:2:0:0:
20,81,9573,1,10,0:0:0:0:
20,81,9669,2,0,B|51:58|62:35|62:35|48:89|23:182|97:215|144:189,1,277.5,2|0,3:0|0:0,0:0:0:0:
332,171,10240,5,8,0:0:0:0:
286,168,10311,1,8,0:0:0:0:
241,181,10383,1,8,0:0:0:0:
213,218,10454,1,8,0:0:0:0:
201,263,10526,1,8,0:0:0:0:
174,300,10597,1,8,0:0:0:0:
128,309,10669,1,8,0:0:0:0:
82,301,10740,1,8,0:0:0:0:
68,318,10811,6,0,P|57:260|44:221,1,92.5,6|8,3:2|0:0,0:0:0:0:
286,168,11097,2,0,P|297:110|310:71,1,92.5,0|8,3:0|0:0,0:0:0:0:
457,317,11383,6,0,P|394:288|354:288,1,92.5,0|8,3:0|0:0,0:0:0:0:
111,143,11669,2,0,P|174:114|214:114,1,92.5,2|10,3:2|0:0,0:0:0:0:
395,26,11954,5,2,3:2:0:0:
295,247,12097,1,8,0:0:0:0:
258,19,12240,5,2,3:2:0:0:
450,195,12383,1,8,0:0:0:0:
502,89,12526,5,2,3:2:0:0:
351,166,12669,1,8,0:0:0:0:
351,166,12740,1,2,0:0:0:0:
351,166,12811,1,2,3:2:0:0:
461,220,12954,1,8,0:0:0:0:
269,365,13097,6,0,P|256:307|257:258,1,92.5,2|8,3:2|0:0,0:0:0:0:
370,57,13383,2,0,P|383:115|382:164,1,92.5,0|8,3:0|0:0,0:0:0:0:
201,163,13669,6,0,P|157:150|97:142,1,92.5,0|8,3:0|0:0,0:0:0:0:
376,271,13954,2,0,P|420:258|480:250,1,92.5,2|10,3:2|0:0,0:0:0:0:
489,266,14169,1,2,0:0:0:0:
490,266,14240,5,2,3:2:0:0:
269,365,14383,1,8,0:0:0:0:
310,195,14526,5,2,3:2:0:0:
434,376,14669,1,8,0:0:0:0:
470,123,14811,5,2,3:2:0:0:
376,271,14954,1,8,0:0:0:0:
310,195,15097,5,2,3:2:0:0:
490,266,15240,1,8,0:0:0:0:
269,365,15383,5,0,3:0:0:0:
250,361,15454,1,0,3:0:0:0:
231,358,15526,1,0,3:0:0:0:
212,355,15597,1,0,3:0:0:0:
193,352,15669,2,0,P|142:361|124:369,1,46.25,0|0,3:0|3:0,0:0:0:0:
0,261,15811,2,0,P|22:255|45:253,1,46.25,0|0,3:0|3:0,0:0:0:0:
201,163,15954,5,0,3:0:0:0:
223,116,16026,1,0,3:0:0:0:
209,67,16097,1,10,0:0:0:0:
168,35,16169,1,8,0:0:0:0:
114,38,16240,2,0,P|125:76|129:105,1,60.1249972476961,10|8,0:0|0:0,0:0:0:0:
309,194,16383,2,0,P|315:164|324:136,1,60.1249972476961,10|8,0:0|0:0,0:0:0:0:
45,253,16526,5,8,3:2:0:0:
69,247,16597,1,8,0:0:0:0:
94,249,16669,1,8,0:0:0:0:
116,258,16740,1,8,0:0:0:0:
133,275,16811,1,8,0:0:0:0:
144,297,16883,1,8,0:0:0:0:
150,320,16954,1,8,3:2:0:0:
163,340,17026,1,8,0:0:0:0:
184,353,17097,1,8,0:0:0:0:
208,358,17169,1,8,0:0:0:0:
232,357,17240,1,8,0:0:0:0:
255,348,17311,1,8,0:0:0:0:
263,332,17383,6,0,P|243:270|234:248,1,60.1249972476961,8|0,3:2|3:0,0:0:0:0:
406,54,17526,2,0,P|417:92|421:121,1,60.1249972476961,8|0,3:2|3:0,0:0:0:0:
479,177,17669,5,8,0:0:0:0:
158,50,17811,1,8,0:0:0:0:
488,161,17954,1,8,0:0:0:0:
23,327,18097,6,0,B|58:285|112:298|112:298|136:356|210:354,1,194.249994071961,8|0,0:0|0:0,0:0:0:0:
251,220,18383,6,0,B|255:200|254:179|254:179|163:232|163:232|194:261|186:293,1,194.249994071961,8|0,0:0|0:0,0:0:0:0:
350,376,18669,5,8,0:0:0:0:
350,376,18954,5,2,0:0:0:0:
371,343,19097,1,2,0:0:0:0:
407,329,19240,1,2,0:0:0:0:
445,329,19383,1,2,0:0:0:0:
479,346,19526,1,2,0:0:0:0:
412,290,19669,1,2,3:2:0:0:
385,191,19811,1,2,0:0:0:0:
460,73,19954,6,0,P|417:66|341:46,1,117.937502249479,2|0,3:0|0:0,0:0:0:0:
329,30,20240,2,0,P|305:89|317:128,1,78.6250014996529,8|0,0:0|3:0,0:0:0:0:
461,240,20526,2,0,P|485:181|473:142,1,78.6250014996529,0|0,3:0|0:0,0:0:0:0:
385,191,20811,1,8,0:0:0:0:
437,353,20954,6,0,P|391:299|291:310,1,157.250002999306,2|0,3:0|3:0,0:0:0:0:
183,352,21383,1,8,0:0:0:0:
255,182,21526,2,0,B|251:204|251:204|253:207|253:207|249:228,1,39.3125007498264,0|0,3:0|0:0,0:0:0:0:
177,265,21669,6,0,B|125:260|125:260|115:250|115:250|55:243,1,117.937502249479,0|0,3:0|0:0,0:0:0:0:
54,255,21954,1,8,0:0:0:0:
183,352,22097,1,0,0:0:0:0:
255,182,22240,6,0,P|235:106|227:36,1,131.812496480227,2|0,3:0|0:0,0:0:0:0:
301,12,22526,2,0,P|329:21|296:23,1,87.8749976534844,8|0,0:0|3:0,0:0:0:0:
131,161,22811,2,0,P|89:135|20:142,1,87.8749976534844,0|0,3:2|0:0,0:0:0:0:
64,225,23097,6,0,B|113:178|178:209|178:209|204:270|284:263,1,219.687494133711,10|0,0:0|0:0,0:0:0:0:
263,258,23526,1,2,0:0:0:0:
247,339,23669,1,10,0:0:0:0:
343,236,23811,1,2,3:2:0:0:
372,343,23954,1,2,3:2:0:0:
255,182,24097,1,2,3:2:0:0:
255,182,24169,1,0,3:0:0:0:
255,182,24240,1,10,0:0:0:0:
468,37,24383,1,2,3:2:0:0:
366,5,24526,6,0,P|376:62|380:101,1,78.6250014996529,2|0,3:0|0:0,0:0:0:0:
512,193,24811,2,0,P|502:136|498:97,1,78.6250014996529,8|0,0:0|3:0,0:0:0:0:
387,228,25097,2,0,B|348:199|348:199|270:209|256:281,1,157.250002999306,0|8,3:0|0:0,0:0:0:0:
51,132,25526,5,2,3:0:0:0:
51,132,25811,1,0,0:0:0:0:
123,81,25954,2,0,P|172:98|212:108,1,78.6250014996529,8|0,0:0|3:0,0:0:0:0:
0,0,26240,5,0,3:0:0:0:
136,194,26383,1,8,0:0:0:0:
136,194,26454,1,8,0:0:0:0:
136,194,26526,1,8,0:0:0:0:
47,255,26669,1,0,3:0:0:0:
373,361,26811,6,0,P|369:320|364:295,1,55.4999983062745,14|2,0:0|0:0,0:0:0:0:
448,342,27097,2,0,P|444:301|439:276,1,55.4999983062745,2|2,0:1|0:0,0:0:0:0:
288,255,27383,6,0,P|284:283|282:311,1,55.4999983062745,2|2,0:1|0:0,0:0:0:0:
213,236,27669,2,0,P|209:264|207:292,1,55.4999983062745,2|2,0:1|0:0,0:0:0:0:
365,202,27954,5,2,0:1:0:0:
365,202,28097,1,2,0:0:0:0:
421,148,28240,1,2,0:3:0:0:
378,82,28383,1,2,0:0:0:0:
470,37,28526,6,0,P|488:35|469:41,1,60.1249972476961,8|2,0:1|0:0,0:0:0:0:
278,119,28811,6,0,P|260:117|279:123,1,60.1249972476961,8|2,0:1|0:0,0:0:0:0:
480,285,29097,6,0,B|411:272|429:316|341:303,1,117.937502249479,2|0,3:0|0:0,0:0:0:0:
353,291,29383,1,8,0:0:0:0:
156,352,29526,1,0,3:0:0:0:
213,236,29669,2,0,B|235:272|235:272|228:337,1,78.6250014996529,0|0,3:0|0:0,0:0:0:0:
161,360,29954,1,8,0:0:0:0:
278,119,30097,6,0,B|367:128|367:128|399:163|370:194,1,157.250002999306,2|0,3:0|3:0,0:0:0:0:
213,236,30526,1,8,0:0:0:0:
315,42,30669,1,0,3:0:0:0:
201,0,30811,5,0,3:0:0:0:
278,119,30954,1,0,0:0:0:0:
130,154,31097,2,0,P|79:146|42:143,1,78.6250014996529,8|0,0:0|0:0,0:0:0:0:
337,364,31383,5,8,3:2:0:0:
337,364,31669,5,8,3:2:0:0:
213,236,31811,1,0,0:0:0:0:
341,242,31954,5,8,3:2:0:0:
213,366,32096,1,0,0:0:0:0:
490,238,32240,6,0,P|395:231|349:149,1,196.562503749132,10|0,3:2|0:0,0:0:0:0:
353,138,32669,1,2,3:2:0:0:
441,66,32811,1,10,0:0:0:0:
303,40,32954,1,2,3:2:0:0:
388,0,33097,5,2,3:2:0:0:
224,117,33240,1,2,3:2:0:0:
224,117,33311,1,8,0:0:0:0:
224,117,33383,1,10,0:0:0:0:
490,238,33526,1,2,3:2:0:0:
382,346,33669,6,0,P|301:303|249:307,1,117.937502249479,2|0,3:0|0:0,0:0:0:0:
270,318,33954,1,8,0:0:0:0:
432,186,34097,1,0,3:0:0:0:
349,149,34240,2,0,P|345:195|365:240,1,78.6250014996529,0|0,3:0|0:0,0:0:0:0:
276,302,34526,5,8,0:0:0:0:
144,194,34669,2,0,P|227:209|253:212,1,78.6250014996529,6|0,3:0|0:0,0:0:0:0:
1,358,34954,2,0,P|84:343|110:340,1,78.6250014996529,0|8,3:0|0:0,0:0:0:0:
188,368,35240,5,0,3:0:0:0:
52,100,35383,2,0,P|36:150|40:186,1,78.6250014996529,8|0,0:0|0:0,0:0:0:0:
269,335,35669,2,0,P|285:285|281:249,1,78.6250014996529,8|0,0:0|0:0,0:0:0:0:
221,208,35954,5,8,0:0:0:0:
402,316,36097,1,8,0:0:0:0:
204,221,36240,5,8,0:0:0:0:
492,147,36383,1,8,0:0:0:0:
187,235,36526,5,8,0:0:0:0:
380,6,36669,1,8,0:0:0:0:
36,363,36954,5,2,3:0:0:0:
36,363,37647,5,2,0:0:0:0:
81,300,37932,1,2,0:0:0:0:
158,309,38258,2,0,P|153:339|148:386,1,74,0|2,0:0|0:0,0:0:0:0:
246,218,38829,2,0,P|251:248|256:295,1,74,0|2,0:0|0:0,0:0:0:0:
64,140,39400,2,0,P|59:170|57:208,1,55.5
66,212,39686,5,2,0:0:0:0:
145,200,39829,1,2,0:0:0:0:
224,188,39972,1,2,0:0:0:0:
301,176,40115,1,2,0:0:0:0:
380,162,40258,1,2,0:0:0:0:
456,149,40400,1,2,0:0:0:0:
364,48,40543,6,0,P|311:40|290:36,1,74,0|2,0:0|0:0,0:0:0:0:
253,48,40924,1,2,0:0:0:0:
239,83,41019,1,2,0:0:0:0:
256,119,41115,2,0,P|284:126|301:129,2,24.6666666666667,0|2|2,0:0|0:0|0:0,0:0:0:0:
168,193,41400,2,0,P|140:200|123:203,2,24.6666666666667,2|2|2,0:0|0:0|0:0,0:0:0:0:
230,266,41686,2,0,P|224:302|222:334,1,55.5
231,341,41972,5,2,0:0:0:0:
158,363,42115,1,2,0:0:0:0:
82,344,42258,1,2,0:0:0:0:
40,280,42400,1,2,0:0:0:0:
48,206,42543,1,2,0:0:0:0:
108,159,42686,1,2,0:0:0:0:
22,23,42829,6,0,P|15:70|18:103,1,62.4374980945588
24,98,43115,2,0,L|68:89,1,41.6249987297059,2|0,0:0|0:0,0:0:0:0:
144,144,43400,2,0,L|188:135,1,41.6249987297059
338,39,43686,6,0,L|271:25,1,62.4374980945588,2|0,0:0|0:0,0:0:0:0:
261,34,43972,2,0,P|248:80|248:92,1,41.6249987297059
184,135,44258,2,0,P|199:180|206:189,1,41.6249987297059,2|0,0:0|0:0,0:0:0:0:
178,261,44543,2,0,P|216:288|228:293,1,41.6249987297059
245,367,44829,2,0,P|292:367|304:364,1,41.6249987297059,2|0,0:0|0:0,0:0:0:0:
346,317,45115,5,8,0:1:0:0:
346,317,45400,2,0,L|353:273,2,30.8333333333333,2|2|2,0:0|0:0|0:0,0:0:0:0:
279,223,45686,5,8,0:1:0:0:
279,223,45972,2,0,L|272:181,2,30.8333333333333,2|2|2,0:0|0:0|0:0,0:0:0:0:
415,139,46258,5,8,0:1:0:0:
415,139,46543,2,0,L|422:97,2,30.8333333333333,0|2|2,0:0|0:0|0:0,0:0:0:0:
276,26,46829,6,0,L|283:68,2,30.8333333333333,8|2|2,0:1|0:0|0:0,0:0:0:0:
225,112,47115,1,2,0:0:0:0:
179,137,47204,1,2,0:0:0:0:
122,126,47293,1,2,0:0:0:0:
84,59,47382,5,8,0:3:0:0:
177,50,47668,1,2,0:0:0:0:
245,117,47954,1,8,0:3:0:0:
214,213,48240,1,2,0:0:0:0:
121,230,48525,1,8,0:3:0:0:
56,158,48811,1,2,0:0:0:0:
122,126,49097,6,0,P|155:136|168:158,1,55.5,0|0,3:0|0:0,3:0:0:0:
121,230,49383,6,0,P|165:187|268:200,1,138.75,4|0,3:0|0:0,0:0:0:0:
294,240,49668,5,8,0:3:0:0:
366,310,49954,1,2,0:0:0:0:
460,292,50240,1,8,0:3:0:0:
491,198,50526,1,2,0:0:0:0:
420,125,50811,1,8,0:3:0:0:
322,143,51097,1,2,0:0:0:0:
383,211,51383,6,0,P|350:220|326:254,1,61.6666666666667,0|0,3:0|0:0,0:0:0:0:
303,347,51573,5,8,0:0:0:0:
378,320,51668,2,0,P|327:272|242:293,1,138.75,4|0,3:0|0:0,0:0:0:0:
192,359,51954,5,8,3:0:0:0:
122,126,52240,1,2,0:0:0:0:
37,244,52430,1,0,3:0:0:0:
52,253,52525,5,8,0:0:0:0:
420,125,52811,1,2,0:0:0:0:
237,32,53002,1,0,0:0:0:0:
244,54,53097,1,8,3:0:0:0:
324,128,53287,5,8,0:0:0:0:
330,107,53382,1,2,3:2:0:0:
197,178,53573,5,0,3:0:0:0:
213,197,53668,2,0,B|265:203|248:224|297:228,1,86.3333306986492,8|0,0:0|0:0,0:0:0:0:
392,228,53954,6,0,P|329:252|288:327,1,147.999995483399,2|0,3:2|0:0,0:0:0:0:
355,384,54240,6,0,P|361:344|373:313,1,69.3750026464463,2|0,3:0|0:0,0:0:0:0:
229,130,54525,2,0,P|217:165|212:198,1,69.3750026464463,2|0,0:0|3:0,0:0:0:0:
131,366,54811,6,0,P|125:326|113:295,1,69.3750026464463,12|0,0:0|0:0,0:0:0:0:
314,39,55097,2,0,P|325:71|329:105,1,69.3750026464463,2|0,0:0|0:0,0:0:0:0:
212,196,55383,5,8,0:0:0:0:
0,51,55525,2,0,B|36:36|36:36|78:47|106:110,1,111,8|0,0:0|0:0,0:0:0:0:
79,100,55811,1,8,0:0:0:0:
270,266,55954,6,0,P|299:255|346:253,1,61.6666666666667,8|8,0:0|0:3,0:0:0:0:
174,314,56144,1,8,0:3:0:0:
174,314,56240,2,0,P|144:303|98:301,1,61.6666666666667,0|8,3:0|0:3,0:0:0:0:
251,367,56430,1,8,0:3:0:0:
251,367,56525,6,0,P|240:257|222:184,1,166.499994918823,2|0,1:3|0:0,0:0:0:0:
177,153,56811,1,2,1:2:0:0:
452,302,56954,1,0,1:0:0:0:
441,0,57097,6,0,P|452:110|470:183,1,166.499994918823,2|0,1:3|0:0,0:0:0:0:
511,243,57383,2,0,P|452:189|354:192,1,166.499994918823,2|0,1:2|0:0,0:0:0:0:
304,95,57668,6,0,L|350:102,5,46.2500017642976,4|2|2|2|2|2,3:2|0:1|0:1|0:1|0:1|0:1,0:0:0:0:
290,68,57954,2,0,L|336:75,5,46.2500017642976,2|2|2|2|2|2,3:1|0:1|0:1|0:1|0:1|0:1,0:0:0:0:
177,153,58240,5,8,0:0:0:0:
135,117,58311,1,8,0:0:0:0:
79,115,58383,1,8,0:0:0:0:
29,139,58454,1,8,0:0:0:0:
3,189,58525,1,8,0:0:0:0:
10,244,58597,1,8,0:0:0:0:
48,283,58668,1,8,0:0:0:0:
101,299,58740,1,8,0:0:0:0:
114,280,58811,6,0,P|172:291|218:308,1,92.5,6|8,3:2|0:0,0:0:0:0:
323,93,59097,1,0,3:0:0:0:
177,153,59240,1,10,0:0:0:0:
321,218,59383,2,0,P|332:160|349:114,1,92.5,2|10,3:2|0:2,0:0:0:0:
8,17,59668,6,0,P|19:75|36:121,1,92.5,2|8,3:2|0:0,0:0:0:0:
52,127,59883,1,2,0:0:0:0:
52,127,59954,1,2,3:2:0:0:
233,26,60097,1,8,0:0:0:0:
78,253,60240,1,2,3:2:0:0:
133,45,60383,1,8,0:0:0:0:
321,218,60525,6,0,P|383:202|427:195,1,92.5,2|10,3:2|0:0,0:0:0:0:
180,151,60811,1,2,3:2:0:0:
266,316,60954,5,8,0:0:0:0:
265,349,61025,1,2,0:0:0:0:
238,363,61097,2,0,P|194:346|149:338,1,92.5,2|8,3:2|0:0,0:0:0:0:
321,218,61383,1,0,3:0:0:0:
415,358,61525,1,10,0:0:0:0:
211,231,61668,6,0,P|188:169|188:125,1,92.5,2|10,3:2|0:0,0:0:0:0:
334,11,61954,2,0,P|349:60|349:83,1,46.25,2|0,3:2|0:0,0:0:0:0:
312,125,62097,1,10,0:0:0:0:
60,36,62240,5,10,1:2:0:0:
162,101,62383,1,0,0:0:0:0:
6,219,62525,1,10,1:2:0:0:
445,360,62811,5,10,1:2:0:0:
343,295,62954,1,0,3:0:0:0:
343,295,63025,1,0,3:0:0:0:
343,295,63097,1,8,0:0:0:0:
499,177,63240,1,12,0:0:0:0:
450,109,63383,6,0,B|404:104|404:104|398:108|398:108|355:105,1,92.5,0|8,0:0|0:0,0:0:0:0:
209,0,63668,1,0,3:0:0:0:
275,205,63811,1,8,0:0:0:0:
392,31,63954,2,0,B|346:26|346:26|340:30|340:30|297:27,1,92.5,0|8,3:0|0:0,0:0:0:0:
103,0,64240,1,0,3:0:0:0:
192,261,64383,1,8,0:0:0:0:
52,188,64525,5,2,3:2:0:0:
179,97,64668,1,10,0:0:0:0:
0,21,64811,1,2,3:2:0:0:
144,183,64954,1,10,0:0:0:0:
28,292,65097,1,2,3:2:0:0:
99,355,65240,2,0,P|149:340|205:332,1,92.5,10|0,0:0|3:0,0:0:0:0:
395,262,65525,6,0,P|331:250|263:186,1,138.75,12|0,0:0|0:0,0:0:0:0:
276,181,65811,1,8,0:0:0:0:
188,333,65954,1,0,3:0:0:0:
50,168,66097,1,8,0:0:0:0:
0,249,66240,5,2,3:2:0:0:
0,249,66311,1,0,3:0:0:0:
0,249,66383,1,8,0:0:0:0:
179,97,66525,1,0,3:0:0:0:
179,97,66596,1,0,3:0:0:0:
179,97,66668,1,8,3:2:0:0:
0,21,66811,5,8,0:0:0:0:
12,6,66883,1,0,3:0:0:0:
31,1,66954,1,0,3:0:0:0:
50,4,67025,1,0,3:0:0:0:
63,18,67097,2,0,L|57:67,1,46.25,8|0,0:0|0:0,0:0:0:0:
190,229,67240,2,0,L|195:179,1,46.25,8|0,0:0|0:0,0:0:0:0:
0,144,67383,5,0,3:0:0:0:
0,168,67454,1,0,3:0:0:0:
16,181,67525,2,0,P|59:170|84:170,1,60.1249972476961,8|0,0:0|0:0,0:0:0:0:
399,42,67668,6,0,B|364:16|338:16|338:16|316:56|279:57|279:57|255:23|213:22,1,208.125007939339,8|0,0:0|0:0,0:0:0:0:
197,39,67954,6,0,P|210:118|213:152,1,92.5,6|8,3:2|0:0,0:0:0:0:
295,311,68240,1,0,3:0:0:0:
429,151,68383,1,10,0:0:0:0:
190,229,68525,2,0,P|257:215|292:213,1,92.5,2|10,3:2|0:0,0:0:0:0:
512,47,68811,6,0,P|466:42|421:31,1,92.5,2|8,3:2|0:0,0:0:0:0:
407,18,69025,1,2,0:0:0:0:
407,18,69097,1,2,3:2:0:0:
510,218,69240,1,8,0:0:0:0:
280,213,69383,1,2,3:2:0:0:
389,129,69525,1,8,0:0:0:0:
276,340,69668,6,0,P|267:283|250:231,1,92.5,2|10,3:2|0:0,0:0:0:0:
480,373,69954,1,2,3:2:0:0:
490,150,70097,5,8,0:0:0:0:
457,139,70168,1,2,0:0:0:0:
429,151,70240,2,0,P|420:208|403:260,1,92.5,2|8,3:2|0:0,0:0:0:0:
211,130,70525,1,0,3:0:0:0:
407,18,70668,1,10,0:2:0:0:
189,110,70811,6,0,P|261:102|308:91,1,92.5,2|10,3:2|0:0,0:0:0:0:
454,255,71097,2,0,P|402:240|382:239,1,46.25,2|0,3:2|0:0,0:0:0:0:
284,339,71240,1,8,0:0:0:0:
429,151,71383,5,10,1:2:0:0:
280,97,71525,1,0,0:0:0:0:
502,323,71668,1,10,1:2:0:0:
20,377,71954,5,2,1:2:0:0:
183,272,72097,1,0,3:0:0:0:
183,272,72168,1,0,3:0:0:0:
183,272,72240,1,8,0:0:0:0:
48,199,72383,1,12,0:0:0:0:
264,381,72525,6,0,P|278:307|291:264,1,92.5,0|8,0:0|0:0,0:0:0:0:
158,79,72811,2,0,P|144:153|131:196,1,92.5,0|8,3:0|0:0,0:0:0:0:
87,275,73097,6,0,P|16:295|-5:291,1,92.5,0|8,3:0|0:0,0:0:0:0:
256,177,73383,2,0,P|301:175|343:194,1,92.5,0|8,3:0|0:0,0:0:0:0:
51,34,73668,5,0,3:0:0:0:
51,34,73811,1,0,3:0:0:0:
215,264,73954,2,0,P|201:171|180:99,1,166.499994918823,12|0,0:0|0:0,0:0:0:0:
237,41,74240,5,0,3:0:0:0:
237,41,74383,1,0,3:0:0:0:
135,350,74525,2,0,P|197:312|313:326,1,166.499994918823,12|0,0:0|0:0,0:0:0:0:
354,363,74811,5,0,3:0:0:0:
354,363,74954,1,0,3:0:0:0:
183,195,75097,2,8,B|146:205|93:175|139:147|71:111|18:143,1,166.499994918823,12|0,0:0|0:0,0:0:0:0:
0,197,75383,5,0,3:0:0:0:
0,197,75525,1,0,3:0:0:0:
266,229,75668,2,0,P|343:198|459:183,1,166.499994918823,12|0,0:0|0:0,0:0:0:0:
487,221,75954,5,8,3:2:0:0:
280,70,76097,2,0,P|325:75|352:86,1,55.4999983062745,0|0,0:0|3:0,0:0:0:0:
421,294,76240,5,8,3:2:0:0:
386,17,76383,2,0,P|414:53|425:79,1,55.4999983062745,0|0,3:0|3:0,0:0:0:0:
324,329,76525,5,8,3:2:0:0:
509,35,76668,2,0,P|503:80|493:106,1,55.4999983062745,0|0,3:0|3:0,0:0:0:0:
227,326,76811,5,8,3:2:0:0:
468,161,76954,1,8,0:0:0:0:
494,191,77025,1,8,0:0:0:0:
487,221,77097,6,0,P|404:203|297:193,3,185,4|2|2|2,3:2|0:0|0:0|3:2,0:0:0:0:
228,297,78883,5,4,3:0:0:0:
228,297,78954,1,0,3:0:0:0:
228,297,79025,1,0,3:0:0:0:
228,297,79097,2,0,P|263:287|273:286,1,41.6249987297059,8|0,0:0|0:0,0:0:0:0:
399,346,79383,5,2,3:0:0:0:
399,346,79668,1,2,0:0:0:0:
31,206,79954,5,0,3:0:0:0:
84,154,80097,1,0,0:0:0:0:
158,159,80240,1,2,0:0:0:0:
457,39,80525,5,2,3:0:0:0:
457,39,80811,1,2,0:0:0:0:
265,300,81097,5,0,3:0:0:0:
191,305,81240,1,0,0:0:0:0:
138,253,81383,1,2,0:0:0:0:
283,35,81668,5,2,3:0:0:0:
298,111,81954,1,2,3:0:0:0:
314,184,82240,1,2,3:0:0:0:
330,258,82525,1,2,3:0:0:0:
283,35,82811,5,8,3:2:0:0:
241,27,82883,1,8,0:0:0:0:
201,40,82954,1,8,0:0:0:0:
176,73,83025,1,8,0:0:0:0:
158,111,83097,1,8,3:2:0:0:
123,133,83168,1,8,0:0:0:0:
81,140,83240,1,8,0:0:0:0:
40,133,83311,1,8,0:0:0:0:
35,114,83383,5,8,3:2:0:0:
76,93,83454,1,8,0:0:0:0:
121,95,83525,1,8,0:0:0:0:
162,115,83597,1,8,0:0:0:0:
194,152,83668,1,8,3:2:0:0:
206,196,83740,1,8,0:0:0:0:
196,241,83811,1,8,0:0:0:0:
167,277,83883,1,8,0:0:0:0:
147,265,83954,6,0,P|88:266|-1:300,1,148,4|0,3:2|3:0,0:0:0:0:
298,107,84525,2,0,B|339:131|339:131|395:127|433:88,1,148,0|0,3:0|3:0,0:0:0:0:
421,13,84954,1,2,0:0:0:0:
206,196,85097,6,0,P|192:136|183:107,1,74,0|0,3:0|0:0,0:0:0:0:
379,285,85383,2,0,B|340:272|340:272|296:289|276:328,1,111,8|0,0:0|0:0,0:0:0:0:
286,331,85668,1,8,0:0:0:0:
429,91,85811,5,0,3:0:0:0:
451,112,85883,1,0,3:0:0:0:
447,140,85954,1,4,0:3:0:0:
382,184,86097,1,4,3:0:0:0:
259,34,86240,5,10,0:0:0:0:
510,281,86383,1,10,0:0:0:0:
392,362,86525,6,0,P|404:306|409:259,1,92.5,2|0,0:0|0:0,0:0:0:0:
347,104,86811,5,10,0:0:0:0:
181,375,86954,1,10,0:0:0:0:
70,300,87097,6,0,P|131:287|165:276,1,92.5,2|0,0:0|0:0,0:0:0:0:
294,347,87383,5,10,0:0:0:0:
10,216,87525,1,10,0:0:0:0:
347,104,87668,1,10,0:0:0:0:
10,216,87811,6,0,P|64:159|148:169,1,138.75,10|0,0:0|0:0,0:0:0:0:
168,232,88097,6,0,P|162:263|158:289,1,46.25,2|0,0:0|0:0,0:0:0:0:
0,70,88240,2,0,P|0:35|12:64,1,92.5,10|0,0:0|0:0,0:0:0:0:
