osu file format v14

[General]
AudioFilename: audio.mp3
AudioLeadIn: 0
PreviewTime: 58740
Countdown: 0
SampleSet: Soft
StackLeniency: 0.3
Mode: 0
LetterboxInBreaks: 0
WidescreenStoryboard: 1

[Editor]
DistanceSpacing: 1.3
BeatDivisor: 6
GridSize: 8
TimelineZoom: 1.8

[Metadata]
Title:Acchi de Kocchi de (TV Size)
TitleUnicode:あっちでこっちで (TV Size)
Artist:Acchi<->Kocchi
ArtistUnicode:あっち⇔こっち
Creator:Bazz B
Version:Ducky-'s Hard
Source:あっちこっち
Tags:-Mikan Mikan Bazz_B Matha Petal Blizs Fantastica Uta fluffy hair sahuang My Angel Azusa Nelliel Time Capsule Chihara Minori PaRaDogi Ducky- Taeyang Agatsu anime japanese Place to here and there fantastica op opening つみき tsumiki 大久保瑠美 ookubo rumi 伊御 io 岡本信彦 okamoto nobuhiko 姫 hime 福原香織 fukuhara kaori 真宵 mayoi 生天目仁美 nabatame hitomi 榊 sakaki 浅沼晋太郎 asanuma shintaro pop jpop j-pop time
BeatmapID:2316795
BeatmapSetID:1108211

[Difficulty]
HPDrainRate:4
CircleSize:3.4
OverallDifficulty:6
ApproachRate:8
SliderMultiplier:1.3
SliderTickRate:1

[Events]
//Background and Video events
0,0,"backg kawaii desu.jpg",0,0
Video,-210,"Nyaw.avi"
//Break Periods
2,38458,44365
//Storyboard Layer 0 (Background)
//Storyboard Layer 1 (Fail)
//Storyboard Layer 2 (Pass)
//Storyboard Layer 3 (Foreground)
//Storyboard Layer 4 (Overlay)
//Storyboard Sound Samples

[TimingPoints]
1669,285.714285714286,4,2,1,50,1,0
6240,-100,4,2,1,55,0,0
7954,-100,4,2,1,45,0,0
8526,-100,4,2,1,55,0,0
8811,-100,4,2,1,5,0,0
9002,-100,4,2,1,55,0,0
9097,-100,4,2,1,5,0,0
9288,-100,4,2,1,55,0,0
9383,-100,4,2,1,5,0,0
9574,-100,4,2,1,55,0,0
9669,-166.666666666667,4,2,1,55,0,0
10240,-125,4,2,1,65,0,0
10811,-90.9090909090909,4,2,1,60,0,1
18811,-90.9090909090909,4,2,1,60,0,0
18954,-90.9090909090909,4,2,1,30,0,0
19097,-90.9090909090909,4,2,1,35,0,0
19240,-90.9090909090909,4,2,1,40,0,0
19383,-90.9090909090909,4,2,1,45,0,0
19526,-90.9090909090909,4,2,1,50,0,0
19669,-90.9090909090909,4,2,1,55,0,0
19811,-90.9090909090909,4,2,1,60,0,0
19954,-111.111111111111,4,2,1,50,0,0
26811,-111.111111111111,4,2,1,40,0,0
29097,-111.111111111111,4,2,1,50,0,0
33669,-111.111111111111,4,2,1,55,0,0
34669,-111.111111111111,4,2,1,60,0,0
35954,-111.111111111111,4,2,1,65,0,0
37647,285.714285714286,4,2,1,35,1,0
38258,285.714285714286,4,2,1,35,1,0
42829,-100,4,2,1,40,0,0
45115,-100,4,2,1,45,0,0
47115,267.857142857143,4,2,1,45,1,0
47383,285.714285714286,4,2,1,50,1,0
47383,-133.333333333333,4,2,1,50,0,0
49097,-133.333333333333,4,2,1,60,0,0
49668,-133.333333333333,4,2,1,45,0,0
51383,-133.333333333333,4,2,1,60,0,0
51954,-133.333333333333,4,2,1,50,0,0
54240,-133.333333333333,4,2,1,60,0,0
56525,-133.333333333333,4,2,1,50,0,0
57668,-133.333333333333,4,2,1,60,0,0
58240,-111.111111111111,4,2,1,60,0,0
58811,-90.9090909090909,4,2,1,65,0,1
77097,-90.9090909090909,4,2,1,45,0,0
78811,-90.9090909090909,4,2,1,55,0,0
79383,-90.9090909090909,4,2,1,50,0,0
80525,-90.9090909090909,4,2,1,55,0,0
81668,-90.9090909090909,4,2,1,60,0,0
82811,-90.9090909090909,4,2,1,65,0,0
83954,-100,4,2,1,55,0,0
86240,-100,4,2,1,70,0,0
88025,-100,4,2,1,5,0,0
88097,-100,4,2,1,55,0,0
88168,-100,4,2,1,5,0,0
88240,-100,4,2,1,40,0,0
88383,-100,4,2,1,5,0,0

[Colours]
Combo1 : 255,128,128
Combo2 : 128,128,255
Combo3 : 255,128,255
Combo4 : 207,207,207

[HitObjects]
43,157,1669,5,4,3:2:0:0:
117,121,1859,1,0,0:0:0:0:
203,192,2145,2,0,B|293:200|237:241|325:262,1,130
445,200,2716,2,0,B|413:192|413:192|387:68,1,130
264,119,3288,5,0,0:0:0:0:
264,119,3383,2,0,L|157:143,1,86.6666666666666,8|0,0:1|3:0,0:0:0:0:
158,166,3669,2,0,L|51:158,1,86.6666666666666,4|0,0:3|0:0,0:0:0:0:
36,181,3954,5,4,3:2:0:0:
0,259,4145,1,0,0:0:0:0:
107,335,4430,2,0,P|200:297|256:290,1,130
340,272,5002,2,0,B|329:254|304:242|304:242|274:128,1,130
225,63,5573,1,2,3:2:0:0:
225,63,5669,1,8,0:0:0:0:
129,86,5859,1,0,3:0:0:0:
129,86,5954,2,0,P|119:141|156:161,1,86.6666666666666,8|0,0:0|0:0,0:0:0:0:
181,171,6240,5,2,3:2:0:0:
128,249,6430,1,2,0:0:0:0:
128,249,6526,1,2,0:0:0:0:
197,309,6716,1,2,0:0:0:0:
197,309,6811,6,0,P|243:316|301:338,1,86.6666666666666,12|0,0:0|0:0,0:0:0:0:
301,365,7097,1,2,3:2:0:0:
381,300,7288,1,2,0:0:0:0:
381,300,7383,2,0,P|388:240|397:201,1,86.6666666666666,2|2,0:0|0:0,0:0:0:0:
375,188,7669,6,0,B|358:109|419:139|398:47,2,130,12|2|2,0:0|0:0|0:0,0:0:0:0:
498,209,8526,5,10,0:0:0:0:
512,309,8716,2,0,L|501:372,1,43.3333333333333,2|0,3:2|0:0,0:0:0:0:
398,279,9002,2,0,L|409:342,1,43.3333333333333,2|0,3:2|0:0,0:0:0:0:
307,313,9288,2,0,L|296:376,1,43.3333333333333,10|0,3:2|0:0,0:0:0:0:
207,277,9573,1,10,0:0:0:0:
207,277,9669,2,0,P|197:215|182:131,1,129.999996032715,2|0,3:0|0:0,0:0:0:0:
224,118,10240,6,0,L|263:110,3,26,8|8|8|8,0:0|0:0|0:0|0:0,0:0:0:0:
293,79,10526,2,0,L|324:85,3,26,8|8|8|8,0:0|0:0|0:0|0:0,0:0:0:0:
361,57,10811,6,0,L|460:40,1,71.5000021820069,6|0,3:2|0:0,0:0:0:0:
473,147,11097,2,0,L|386:132,1,71.5000021820069,0|8,3:0|0:0,0:0:0:0:
385,242,11383,2,0,L|484:225,1,71.5000021820069,0|8,3:0|0:0,0:0:0:0:
510,296,11669,1,2,3:2:0:0:
465,367,11811,1,10,0:0:0:0:
377,338,11954,6,0,P|309:321|211:307,1,143.000004364014,2|2,3:2|3:2,0:0:0:0:
169,223,12526,2,0,P|219:206|338:189,1,143.000004364014,2|2,3:2|3:2,0:0:0:0:
399,136,13097,6,0,P|407:82|416:36,1,71.5000021820069,2|0,3:2|0:0,0:0:0:0:
288,6,13383,2,0,P|295:49|302:92,1,71.5000021820069,0|8,3:0|0:0,0:0:0:0:
186,136,13669,2,0,P|194:82|203:36,1,71.5000021820069,0|8,3:0|0:0,0:0:0:0:
75,6,13955,2,0,P|82:49|89:92,1,71.5000021820069,2|10,3:2|0:0,0:0:0:0:
65,164,14240,6,0,P|11:174|25:250,1,143.000004364014,2|2,3:2|3:2,0:0:0:0:
102,338,14811,2,0,P|186:318|257:312,1,143.000004364014,2|2,3:2|3:2,0:0:0:0:
463,369,15383,6,0,L|451:316,3,35.7500010910034,0|0|0|0,3:0|3:0|3:0|3:0,0:0:0:0:
422,316,15669,2,0,L|434:259,3,35.7500010910034,0|0|0|0,3:0|3:0|3:0|3:0,0:0:0:0:
461,244,15954,2,0,L|449:187,3,35.7500010910034,0|0|10|8,3:0|3:0|0:0|0:0,0:0:0:0:
487,171,16240,1,10,0:0:0:0:
485,87,16383,1,10,0:0:0:0:
391,91,16526,6,0,L|371:19,1,71.5000021820069,8|8,3:2|0:0,0:0:0:0:
289,1,16811,1,8,0:0:0:0:
245,78,16954,2,0,B|224:99|216:123|216:123|113:167,1,143.000004364014,8|8,3:2|0:0,0:0:0:0:
114,153,17311,1,8,0:0:0:0:
98,150,17383,2,0,P|39:167|14:194,1,71.5000021820069,8|8,3:2|3:2,0:0:0:0:
32,263,17669,5,8,0:0:0:0:
32,263,17811,1,8,0:0:0:0:
112,310,17954,1,8,0:0:0:0:
112,310,18097,1,8,0:0:0:0:
256,368,18383,1,8,0:0:0:0:
402,313,18669,1,8,0:0:0:0:
505,13,19954,6,0,P|495:39|493:87,1,58.4999982147217,2|0,3:0|0:0,0:0:0:0:
512,148,20240,1,8,0:0:0:0:
391,194,20526,1,0,3:0:0:0:
302,90,20811,1,8,0:0:0:0:
231,131,20954,6,0,P|186:128|128:117,1,58.4999982147217,2|0,3:0|0:0,0:0:0:0:
116,70,21240,1,0,3:0:0:0:
3,133,21526,1,0,3:0:0:0:
34,209,21669,2,0,P|77:214|114:225,1,58.4999982147217,0|0,3:0|0:0,0:0:0:0:
144,283,21954,1,8,0:0:0:0:
244,377,22240,6,0,P|257:306|275:236,2,116.999996429443,2|8|0,3:0|0:0|3:2,0:0:0:0:
144,283,23097,2,0,P|119:214|113:135,1,116.999996429443,10|0,0:0|0:0,0:0:0:0:
167,103,23526,1,2,0:0:0:0:
228,168,23669,2,0,P|261:155|296:145,1,58.4999982147217,10|2,0:0|3:2,0:0:0:0:
334,81,23954,2,0,P|369:82|405:88,1,58.4999982147217,2|2,3:2|3:2,0:0:0:0:
457,136,24240,1,10,0:0:0:0:
396,242,24526,6,0,B|319:211|372:193|293:168,1,116.999996429443,2|8,3:0|0:0,0:0:0:0:
215,59,25097,2,0,P|186:66|159:77,1,58.4999982147217,0|0,3:0|0:0,0:0:0:0:
106,135,25383,1,8,0:0:0:0:
33,102,25526,1,2,3:0:0:0:
0,218,25811,1,0,0:0:0:0:
59,322,26097,1,0,3:0:0:0:
137,330,26240,1,0,3:0:0:0:
250,267,26454,1,8,0:0:0:0:
250,267,26526,2,0,L|319:279,1,58.4999982147217,8|0,0:0|3:0,0:0:0:0:
385,291,26811,5,14,0:0:0:0:
511,384,29097,6,0,P|502:321|498:291,1,58.4999982147217,2|0,3:0|0:0,0:0:0:0:
438,275,29383,2,0,P|447:212|451:182,1,58.4999982147217,8|0,0:0|3:0,0:0:0:0:
411,148,29669,1,0,3:0:0:0:
306,188,29954,1,8,0:0:0:0:
246,130,30097,2,0,P|184:122|147:115,1,58.4999982147217,2|0,3:0|0:0,0:0:0:0:
131,67,30383,1,0,3:0:0:0:
8,133,30669,1,0,3:0:0:0:
69,186,30811,2,0,P|80:239|85:276,1,58.4999982147217,0|0,3:0|0:0,0:0:0:0:
133,304,31097,1,8,0:0:0:0:
221,213,31383,6,0,P|316:188|387:181,2,116.999996429443,8|8|8,3:2|3:2|3:2,0:0:0:0:
133,304,32240,2,0,P|212:316|277:359,1,116.999996429443,10|0,3:2|0:0,0:0:0:0:
314,384,32669,1,2,3:2:0:0:
372,324,32811,2,0,P|382:264|388:229,1,58.4999982147217,10|2,0:0|3:2,0:0:0:0:
427,196,33097,1,2,3:2:0:0:
396,121,33240,1,2,3:2:0:0:
396,121,33311,1,8,0:0:0:0:
396,121,33383,2,0,P|398:60|411:34,1,58.4999982147217,10|2,0:0|3:2,0:0:0:0:
325,22,33669,6,0,L|225:34,1,58.4999982147217,2|0,3:0|0:0,0:0:0:0:
205,85,33954,2,0,L|122:80,1,58.4999982147217,8|0,0:0|3:0,0:0:0:0:
93,19,34240,1,0,3:0:0:0:
7,127,34526,1,8,0:0:0:0:
72,178,34669,2,0,P|85:226|92:255,1,58.4999982147217,6|0,3:0|0:0,0:0:0:0:
43,304,34954,1,0,3:0:0:0:
147,377,35241,1,0,3:0:0:0:
194,316,35383,2,0,P|279:295|342:291,1,116.999996429443,8|8,0:0|0:0,0:0:0:0:
445,384,35954,6,0,P|434:337|448:307,1,58.4999982147217,8|8,0:0|0:0,0:0:0:0:
485,253,36240,2,0,P|496:206|482:176,1,58.4999982147217,8|8,0:0|0:0,0:0:0:0:
445,113,36526,1,8,0:0:0:0:
487,38,36669,1,8,0:0:0:0:
342,0,36954,1,2,3:0:0:0:
134,12,37647,5,2,0:0:0:0:
238,6,37932,1,2,0:0:0:0:
342,0,38258,1,0,0:0:0:0:
0,352,45115,5,8,0:1:0:0:
176,352,45686,1,8,0:1:0:0:
336,352,46258,1,8,0:1:0:0:
512,352,46829,1,8,0:1:0:0:
464,273,47115,1,2,0:0:0:0:
512,189,47383,6,0,P|503:136|491:58,2,97.50000371933,8|2|8,0:3|0:0|0:3,0:0:0:0:
464,273,48240,1,2,0:0:0:0:
390,213,48525,2,0,P|322:220|248:240,1,97.50000371933,8|2,0:3|0:0,0:0:0:0:
205,289,49097,1,0,3:0:0:0:
293,226,49383,1,4,3:0:0:0:
220,161,49668,6,0,P|244:109|251:30,2,97.50000371933,8|2|8,0:3|0:0|0:3,0:0:0:0:
133,187,50525,1,2,0:0:0:0:
148,272,50811,2,0,P|211:286|276:317,1,97.50000371933,8|2,0:3|0:0,0:0:0:0:
302,377,51383,1,0,3:0:0:0:
381,320,51597,1,0,0:0:0:0:
381,320,51668,2,0,P|428:324|463:318,1,73.1250027894975,4|0,3:0|0:0,0:0:0:0:
491,306,51954,6,0,P|502:249|512:175,1,97.50000371933,8|2,3:0|0:0,0:0:0:0:
427,130,52430,1,0,3:0:0:0:
427,130,52525,2,0,P|418:189|407:248,1,97.50000371933,8|2,0:0|0:0,0:0:0:0:
318,161,53002,1,0,0:0:0:0:
318,161,53097,2,0,P|329:102|337:42,1,97.50000371933,8|2,3:0|3:2,0:0:0:0:
244,0,53573,1,0,3:0:0:0:
243,0,53668,2,0,P|234:59|223:118,1,97.50000371933,8|2,0:0|3:2,0:0:0:0:
140,184,54240,5,2,3:0:0:0:
45,272,54525,2,0,P|38:317|34:359,2,48.750001859665,2|0|12,0:0|3:0|0:0,0:0:0:0:
0,154,55097,1,2,0:0:0:0:
140,184,55383,6,0,P|187:195|221:202,1,48.750001859665,8|8,0:0|0:0,0:0:0:0:
261,245,55668,1,0,3:0:0:0:
261,245,55811,1,8,0:0:0:0:
322,194,55954,2,0,P|351:188|381:183,1,48.750001859665,8|0,0:0|0:0,0:0:0:0:
440,235,56240,1,0,3:0:0:0:
440,235,56383,1,0,0:0:0:0:
506,183,56525,5,2,1:3:0:0:
484,12,56811,1,2,1:2:0:0:
441,80,56954,1,0,1:0:0:0:
392,140,57097,2,0,L|293:125,1,97.50000371933,2|2,1:3|1:2,0:0:0:0:
179,36,57668,2,0,L|93:21,1,48.750001859665,4|2,3:2|0:1,0:0:0:0:
63,69,57954,5,2,3:1:0:0:
79,197,58240,2,0,L|85:249,3,29.2499991073609,8|8|8|8,0:0|0:0|0:0|0:0,0:0:0:0:
107,266,58525,2,0,L|101:318,3,29.2499991073609,8|8|8|8,0:0|0:0|0:0|0:0,0:0:0:0:
111,344,58811,6,0,P|165:347|204:353,1,71.5000021820069,6|8,3:2|0:0,0:0:0:0:
252,288,59097,2,0,P|295:282|339:280,1,71.5000021820069,0|10,3:0|0:0,0:0:0:0:
401,230,59383,2,0,P|455:233|494:239,1,71.5000021820069,2|10,3:2|0:2,0:0:0:0:
461,325,59668,1,2,3:2:0:0:
461,325,59811,1,8,0:0:0:0:
362,383,59954,6,0,P|358:305|393:214,2,143.000004364014,2|2|2,3:2|3:2|3:2,0:0:0:0:
267,345,60668,1,10,0:0:0:0:
267,345,60811,1,2,3:2:0:0:
149,365,61097,6,0,P|105:355|38:344,1,71.5000021820069,2|8,3:2|0:0,0:0:0:0:
20,269,61383,2,0,P|64:259|131:248,1,71.5000021820069,0|10,3:0|0:0,0:0:0:0:
152,175,61668,2,0,P|108:165|41:154,1,71.5000021820069,2|10,3:2|0:0,0:0:0:0:
30,71,61954,1,2,3:2:0:0:
30,71,62097,1,10,0:0:0:0:
114,30,62240,6,0,P|216:14|321:-6,2,143.000004364014,10|10|10,1:2|1:2|1:2,0:0:0:0:
30,71,62954,2,0,L|24:118,2,35.7500010910034,0|0|8,3:0|3:0|0:0,0:0:0:0:
89,172,63240,6,0,L|98:242,1,71.5000021820069,12|0,0:0|0:0,0:0:0:0:
191,318,63525,1,8,0:0:0:0:
191,318,63668,2,0,L|202:230,1,71.5000021820069,0|8,3:0|0:0,0:0:0:0:
282,170,63954,2,0,L|295:267,1,71.5000021820069,0|8,3:0|0:0,0:0:0:0:
354,320,64240,1,0,3:0:0:0:
429,261,64383,1,8,0:0:0:0:
429,261,64525,6,0,P|413:201|425:171,1,71.5000021820069,2|10,3:2|0:0,0:0:0:0:
402,117,64811,1,2,3:2:0:0:
402,117,64954,2,0,B|362:70|362:70|257:55,1,143.000004364014,10|10,0:0|0:0,0:0:0:0:
213,132,65383,1,0,3:0:0:0:
213,132,65525,6,0,P|149:122|107:120,1,71.5000021820069,12|0,0:0|0:0,0:0:0:0:
71,179,65811,1,8,0:0:0:0:
112,265,65954,2,0,P|155:268|199:276,1,71.5000021820069,0|8,3:0|0:0,0:0:0:0:
241,334,66240,2,0,P|284:326|328:322,1,71.5000021820069,2|8,3:2|0:0,0:0:0:0:
355,354,66454,1,0,0:0:0:0:
355,354,66525,1,0,3:0:0:0:
459,311,66811,6,0,P|469:253|473:229,2,71.5000021820069,8|0|8,0:0|3:0|0:0,0:0:0:0:
376,255,67240,2,0,P|352:155|351:120,1,71.5000021820069,8|0,0:0|0:0,0:0:0:0:
383,95,67525,1,8,0:0:0:0:
314,34,67668,2,0,P|272:47|196:52,1,107.25000327301,8|0,0:0|0:0,0:0:0:0:
177,48,67954,6,0,P|137:69|147:114,1,71.5000021820069,6|8,3:2|0:0,0:0:0:0:
190,177,68240,2,0,P|239:187|293:205,1,71.5000021820069,0|10,3:0|0:0,0:0:0:0:
360,157,68525,2,0,P|400:178|390:223,1,71.5000021820069,2|10,3:2|0:0,0:0:0:0:
404,299,68811,1,2,3:2:0:0:
404,299,68954,1,8,0:0:0:0:
260,341,69097,6,0,P|237:256|258:158,2,143.000004364014,2|2|2,3:2|3:2|3:2,0:0:0:0:
355,384,69811,1,10,0:0:0:0:
355,384,69954,1,2,3:2:0:0:
334,287,70240,6,0,P|385:291|421:308,1,71.5000021820069,2|0,3:2|0:0,0:0:0:0:
486,240,70525,2,0,L|503:145,1,71.5000021820069,0|10,3:0|0:2,0:0:0:0:
450,92,70811,2,0,P|399:88|363:71,1,71.5000021820069,2|10,3:2|0:0,0:0:0:0:
292,44,71097,1,2,3:2:0:0:
292,44,71240,1,8,0:0:0:0:
210,103,71383,6,0,L|86:122,1,71.5000021820069,10|0,1:2|0:0,0:0:0:0:
165,199,71668,2,0,L|41:218,1,71.5000021820069,10|0,1:2|0:0,0:0:0:0:
120,295,71954,2,0,L|-4:314,1,71.5000021820069,2|0,1:2|3:0,0:0:0:0:
13,281,72168,1,0,3:0:0:0:
13,281,72240,1,8,0:0:0:0:
78,212,72383,6,0,P|88:153|95:124,1,71.5000021820069,12|0,0:0|0:0,0:0:0:0:
69,58,72668,1,8,0:0:0:0:
136,0,72811,2,0,P|189:12|225:17,1,71.5000021820069,0|8,3:0|0:0,0:0:0:0:
265,92,73097,2,0,P|312:78|356:74,1,71.5000021820069,0|8,3:0|0:0,0:0:0:0:
411,131,73383,1,0,3:0:0:0:
318,202,73668,6,0,P|330:275|345:388,1,143.000004364014,0|12,3:0|0:0,0:0:0:0:
480,252,74240,2,0,P|491:164|505:77,1,143.000004364014,0|12,3:0|0:0,0:0:0:0:
308,191,74811,6,0,P|320:264|335:377,1,143.000004364014,0|12,3:0|0:0,0:0:0:0:
470,241,75383,2,0,P|481:153|495:66,1,143.000004364014,0|12,3:0|0:0,0:0:0:0:
383,5,75954,6,0,P|285:32|187:42,1,143.000004364014,8|8,3:2|3:2,0:0:0:0:
74,171,76525,1,8,3:2:0:0:
24,94,76668,1,0,3:0:0:0:
24,94,76740,1,0,3:0:0:0:
24,94,76811,2,0,L|29:44,3,35.7500010910034,8|0|8|8,3:2|3:0|0:0|0:0,0:0:0:0:
70,18,77097,5,4,3:2:0:0:
193,202,77668,5,2,0:0:0:0:
260,262,78240,1,2,0:0:0:0:
344,237,78811,2,0,L|360:184,3,35.7500010910034,2|4|0|0,3:2|3:0|3:0|3:0,0:0:0:0:
348,164,79097,1,8,0:0:0:0:
327,0,79383,5,2,3:0:0:0:
186,116,79668,2,0,P|144:100|102:90,1,71.5000021820069,2|0,0:0|0:0,0:0:0:0:
31,135,79954,1,0,3:0:0:0:
167,247,80240,2,0,P|208:231|250:221,1,71.5000021820069,2|0,0:0|0:0,0:0:0:0:
316,278,80525,1,2,3:0:0:0:
463,142,80811,2,0,L|488:29,1,71.5000021820069,2|0,0:0|0:0,0:0:0:0:
417,0,81097,1,0,3:0:0:0:
270,136,81383,2,0,L|245:249,1,71.5000021820069,2|0,0:0|0:0,0:0:0:0:
298,291,81668,6,0,P|347:299|395:321,1,71.5000021820069,2|0,3:0|0:0,0:0:0:0:
461,335,81954,2,0,P|473:280|488:238,1,71.5000021820069,2|0,3:0|0:0,0:0:0:0:
505,172,82240,2,0,P|450:160|408:145,1,71.5000021820069,2|0,3:0|0:0,0:0:0:0:
342,128,82525,2,0,P|330:183|315:225,1,71.5000021820069,2|0,3:0|0:0,0:0:0:0:
261,276,82811,6,0,L|204:288,3,35.7500010910034,8|8|8|8,3:2|0:0|0:0|0:0,0:0:0:0:
175,300,83097,2,0,L|131:290,3,35.7500010910034,8|8|8|8,3:2|0:0|0:0|0:0,0:0:0:0:
95,309,83383,1,8,3:2:0:0:
43,223,83525,1,8,0:0:0:0:
43,223,83597,1,8,0:0:0:0:
43,223,83668,2,0,L|57:158,3,35.7500010910034,8|8|8|8,3:2|0:0|0:0|0:0,0:0:0:0:
82,152,83954,6,0,P|161:135|256:115,1,130,4|0,3:2|3:0,0:0:0:0:
328,9,84525,2,0,P|406:25|484:42,1,130,0|0,3:0|3:0,0:0:0:0:
501,171,85097,2,0,P|490:222|479:268,1,65,0|0,3:0|0:0,0:0:0:0:
437,303,85383,2,0,P|371:285|327:269,1,65,8|0,0:0|3:0,0:0:0:0:
293,255,85668,1,8,0:0:0:0:
245,324,85811,2,0,L|197:333,2,32.5,0|0|4,3:0|3:0|0:3,0:0:0:0:
131,374,86097,1,4,3:0:0:0:
131,374,86240,6,0,L|107:289,1,65,10|10,0:0|0:0,0:0:0:0:
260,159,86811,6,0,L|284:74,1,65,10|10,0:0|0:0,0:0:0:0:
82,156,87383,5,10,0:0:0:0:
82,156,87525,1,10,0:0:0:0:
176,186,87668,1,10,0:0:0:0:
176,186,87811,1,10,0:0:0:0:
312,267,88097,6,0,L|426:243,1,65,2|10,0:0|0:0,0:0:0:0:
