osu file format v14

[General]
AudioFilename: audio.mp3
AudioLeadIn: 0
PreviewTime: 58740
Countdown: 0
SampleSet: Soft
StackLeniency: 0.7
Mode: 0
LetterboxInBreaks: 0
WidescreenStoryboard: 1

[Editor]
DistanceSpacing: 1.1
BeatDivisor: 4
GridSize: 8
TimelineZoom: 1.5

[Metadata]
Title:Acchi de Kocchi de (TV Size)
TitleUnicode:あっちでこっちで (TV Size)
Artist:Acchi<->Kocchi
ArtistUnicode:あっち⇔こっち
Creator:Bazz B
Version:Chihara's Normal
Source:あっちこっち
Tags:-Mikan Mikan Bazz_B Matha Petal Blizs Fantastica Uta fluffy hair sahuang My Angel Azusa Nelliel Time Capsule Chihara Minori PaRaDogi Ducky- Taeyang Agatsu anime japanese Place to here and there fantastica op opening つみき tsumiki 大久保瑠美 ookubo rumi 伊御 io 岡本信彦 okamoto nobuhiko 姫 hime 福原香織 fukuhara kaori 真宵 mayoi 生天目仁美 nabatame hitomi 榊 sakaki 浅沼晋太郎 asanuma shintaro pop jpop j-pop time
BeatmapID:2316101
BeatmapSetID:1108211

[Difficulty]
HPDrainRate:4
CircleSize:3.2
OverallDifficulty:5
ApproachRate:5
SliderMultiplier:0.8
SliderTickRate:1

[Events]
//Background and Video events
0,0,"backg kawaii desu.jpg",0,0
Video,-210,"Nyaw.avi"
//Break Periods
//Storyboard Layer 0 (Background)
//Storyboard Layer 1 (Fail)
//Storyboard Layer 2 (Pass)
//Storyboard Layer 3 (Foreground)
//Storyboard Layer 4 (Overlay)
//Storyboard Sound Samples

[TimingPoints]
1669,285.714285714286,4,2,1,50,1,0
10811,-100,4,2,1,60,0,0
18954,-100,4,2,1,30,0,0
19097,-100,4,2,1,35,0,0
19240,-100,4,2,1,40,0,0
19383,-100,4,2,1,45,0,0
19526,-100,4,2,1,50,0,0
19669,-100,4,2,1,55,0,0
19811,-100,4,2,1,60,0,0
19954,-100,4,2,1,50,0,0
26811,-100,4,2,1,40,0,0
29097,-100,4,2,1,50,0,0
33669,-100,4,2,1,55,0,0
34669,-100,4,2,1,60,0,0
35954,-100,4,2,1,65,0,0
37647,285.714285714286,4,2,1,35,1,0
38258,285.714285714286,4,2,1,35,1,0
47115,267.857142857143,4,2,1,45,1,0
47383,285.714285714286,4,2,1,50,1,0
58811,-99.9999999999999,4,2,1,65,0,1
77097,-100,4,2,1,45,0,0
78811,-100,4,2,1,55,0,0
79383,-100,4,2,1,50,0,0
80525,-100,4,2,1,55,0,0
81668,-100,4,2,1,60,0,0
82811,-100,4,2,1,65,0,0
83954,-100,4,2,1,55,0,0
86240,-100,4,2,1,70,0,0
88025,-100,4,2,1,5,0,0
88097,-100,4,2,1,55,0,0
88168,-100,4,2,1,5,0,0
88240,-100,4,2,1,40,0,0
88383,-100,4,2,1,5,0,0
88656,-100,4,2,1,5,0,0

[Colours]
Combo1 : 255,128,128
Combo2 : 128,128,255
Combo3 : 255,128,255
Combo4 : 207,207,207

[HitObjects]
0,133,1669,6,0,P|31:112|94:103,1,80,4|0,3:2|0:0,0:0:0:0:
129,35,2240,2,0,P|160:56|223:65,1,80,8|0,0:1|0:0,0:0:0:0:
258,132,2811,2,0,P|279:101|288:38,1,80,8|0,0:1|0:0,0:0:0:0:
372,31,3383,1,8,0:1:0:0:
429,98,3669,1,4,0:3:0:0:
405,182,3954,6,0,L|325:190,1,80,4|0,3:2|0:0,0:0:0:0:
279,265,4526,2,0,L|199:257,1,80,8|0,0:1|0:0,0:0:0:0:
117,288,5097,2,0,L|109:208,1,80,8|0,0:1|0:0,0:0:0:0:
32,163,5669,1,8,0:0:0:0:
22,75,5954,1,8,0:0:0:0:
102,39,6240,6,0,L|184:47,1,80,2|2,3:2|0:0,0:0:0:0:
266,22,6811,1,12,0:0:0:0:
332,80,7097,2,0,P|353:104|359:159,1,80,2|2,3:2|0:0,0:0:0:0:
368,238,7669,2,0,L|288:245,1,80,12|2,0:0|0:0,0:0:0:0:
254,326,8240,1,2,0:0:0:0:
328,372,8526,6,0,L|387:365,1,53.3333333333333,10|2,0:0|3:2,0:0:0:0:
463,335,9002,2,0,P|491:301|497:263,1,80,2|10,3:2|3:2,0:0:0:0:
461,154,9669,2,0,B|421:185|383:163|383:163|317:208|263:134|311:85,1,240,2|8,3:0|0:0,0:0:0:0:
358,27,10811,6,0,P|323:8|283:10,1,80,6|0,3:2|3:0,0:0:0:0:
208,55,11383,1,0,3:0:0:0:
131,10,11669,1,2,3:2:0:0:
63,65,11954,2,0,L|55:144,1,80,2|2,3:2|3:2,0:0:0:0:
26,178,12383,1,8,0:0:0:0:
26,178,12526,2,0,L|33:257,1,80,2|2,3:2|3:2,0:0:0:0:
86,327,13097,6,0,B|128:298|176:330|176:330|204:358|259:349,1,160,2|0,3:2|3:0,0:0:0:0:
320,365,13954,1,2,3:2:0:0:
394,318,14240,2,0,P|412:283|410:243,1,80,2|2,3:2|3:2,0:0:0:0:
410,198,14669,1,8,0:0:0:0:
410,198,14811,2,0,L|330:191,1,80,2|2,3:2|3:2,0:0:0:0:
263,248,15383,6,0,P|229:230|189:232,1,80,0|0,3:0|3:0,0:0:0:0:
145,231,15811,2,0,P|111:250|71:248,1,80,0|10,3:0|0:0,0:0:0:0:
29,232,16240,1,10,0:0:0:0:
5,147,16526,2,0,L|12:68,1,80,8|8,3:2|0:0,0:0:0:0:
43,36,16954,2,0,L|122:29,1,80,8|8,3:2|0:0,0:0:0:0:
153,61,17383,1,8,3:2:0:0:
240,51,17669,6,0,L|279:47,1,40,8|8,0:0|0:0,0:0:0:0:
322,36,17954,1,8,0:0:0:0:
322,36,18097,2,0,L|330:116,1,80,8|8,0:0|0:0,0:0:0:0:
380,188,18669,2,0,L|372:268,1,80,8|2,0:0|0:0,0:0:0:0:
338,296,19097,1,2,0:0:0:0:
253,319,19383,2,0,P|210:318|176:337,1,80,2|2,0:0|3:2,0:0:0:0:
90,340,19954,6,0,L|82:260,1,80,2|8,3:0|0:0,0:0:0:0:
20,196,20526,2,0,P|20:156|38:120,1,80,0|8,3:0|0:0,0:0:0:0:
59,82,20954,2,0,L|139:90,1,80,2|0,3:0|3:0,0:0:0:0:
206,31,21526,1,0,3:0:0:0:
206,31,21669,2,0,L|286:23,1,80,0|8,3:0|0:0,0:0:0:0:
355,78,22240,5,2,3:0:0:0:
435,41,22526,1,8,0:0:0:0:
494,105,22811,1,0,3:2:0:0:
472,190,23097,2,0,B|429:205|429:205|331:195,1,120,10|2,0:0|0:0,0:0:0:0:
319,224,23669,1,10,0:0:0:0:
235,197,23954,2,0,P|195:197|159:215,1,80,2|10,3:2|0:0,0:0:0:0:
71,216,24526,6,0,L|79:296,1,80,2|8,3:0|0:0,0:0:0:0:
144,354,25097,2,0,L|224:362,1,80,0|8,3:0|0:0,0:0:0:0:
267,359,25526,2,0,P|305:341|347:342,1,80,2|0,3:0|0:0,0:0:0:0:
427,362,26097,1,0,3:0:0:0:
427,362,26240,2,0,P|445:324|444:282,1,80,0|8,3:0|0:0,0:0:0:0:
505,222,26811,5,14,0:0:0:0:
437,165,27097,1,2,0:1:0:0:
476,86,27383,2,0,L|468:6,1,80,2|2,0:1|0:1,0:0:0:0:
380,11,27954,2,0,L|388:91,1,80,2|2,0:1|0:3,0:0:0:0:
437,165,28526,1,8,0:1:0:0:
296,59,29097,6,0,L|216:51,1,80,2|8,3:0|0:0,0:0:0:0:
140,96,29669,2,0,P|102:78|60:79,1,80,0|8,3:0|0:0,0:0:0:0:
24,61,30097,2,0,L|16:141,1,80,2|0,3:0|3:0,0:0:0:0:
77,203,30669,1,0,3:0:0:0:
77,203,30811,2,0,L|85:283,1,80,0|8,3:0|0:0,0:0:0:0:
141,350,31383,5,8,3:2:0:0:
217,306,31669,1,8,3:2:0:0:
287,358,31954,1,8,3:2:0:0:
362,313,32240,2,0,B|377:270|377:270|367:172,1,120,10|2,3:2|3:2,0:0:0:0:
392,157,32812,1,10,0:0:0:0:
351,79,33097,2,0,P|315:61|275:60,1,80,2|10,3:2|0:0,0:0:0:0:
193,27,33669,6,0,P|157:44|117:45,1,80,2|8,3:0|0:0,0:0:0:0:
29,37,34240,2,0,L|21:117,1,80,0|8,3:0|0:0,0:0:0:0:
8,159,34669,1,6,3:0:0:0:
71,220,34954,1,0,3:0:0:0:
149,180,35240,1,0,3:0:0:0:
149,180,35383,2,0,L|229:188,1,80,8|8,0:0|0:0,0:0:0:0:
288,252,35954,6,0,L|327:249,1,40,8|8,0:0|0:0,0:0:0:0:
361,219,36240,2,0,L|400:222,1,40,8|8,0:0|0:0,0:0:0:0:
443,233,36526,2,0,P|476:185|459:130,1,120,8|2,0:0|3:0,0:0:0:0:
512,51,37647,6,0,P|476:33|436:32,1,80,2|2,0:0|0:0,0:0:0:0:
339,56,38258,2,0,B|268:39|225:82|225:82|184:122|115:109,1,240,0|2,0:0|0:0,0:0:0:0:
45,56,39400,2,0,P|27:91|26:131,1,80,0|2,0:0|0:0,0:0:0:0:
4,216,39972,1,2,0:0:0:0:
53,288,40258,1,2,0:0:0:0:
137,312,40543,2,0,B|177:343|215:321|215:321|281:366|335:292|287:243,1,240,0|2,0:0|0:0,0:0:0:0:
351,185,41686,2,0,P|315:167|275:166,1,80,0|2,0:0|0:0,0:0:0:0:
227,91,42258,2,0,P|187:92|151:110,1,80,2|2,0:0|0:0,0:0:0:0:
107,186,42829,6,0,L|118:266,2,80,0|2|0,0:0|0:0|0:0,0:0:0:0:
44,124,43686,1,2,0:0:0:0:
80,44,43972,2,0,L|159:34,1,80,0|2,0:0|0:0,0:0:0:0:
227,91,44542,1,0,0:0:0:0:
292,31,44829,1,2,0:0:0:0:
364,81,45115,6,0,B|368:103|379:124|379:124|367:159|369:222,1,120,8|0,0:1|0:0,0:0:0:0:
374,240,45686,2,0,P|319:221|271:253,1,120,8|0,0:1|0:0,0:0:0:0:
263,297,46258,2,0,B|222:259|172:292|172:292|139:279|139:279|81:334|17:293,1,240,8|2,0:1|0:0,0:0:0:0:
1,235,47383,2,0,P|2:195|20:159,1,80,8|2,0:3|0:0,0:0:0:0:
58,80,47954,2,0,L|137:70,1,80,8|2,0:3|0:0,0:0:0:0:
219,102,48525,1,8,0:3:0:0:
276,35,48811,1,2,0:0:0:0:
448,71,49383,5,4,3:0:0:0:
484,151,49668,2,0,L|474:230,1,80,8|2,0:3|0:0,0:0:0:0:
400,278,50240,2,0,P|365:260|325:258,1,80,8|2,0:3|0:0,0:0:0:0:
246,218,50811,1,8,0:3:0:0:
182,279,51097,1,2,0:0:0:0:
345,344,51668,5,4,3:0:0:0:
400,278,51954,2,0,B|406:194,1,80,8|2,3:0|0:0,0:0:0:0:
463,131,52525,2,0,P|427:113|387:111,1,80,8|2,0:0|0:0,0:0:0:0:
345,33,53097,2,0,P|309:50|269:52,1,80,8|2,3:0|3:2,0:0:0:0:
203,110,53668,2,0,L|124:100,1,80,8|2,0:0|3:2,0:0:0:0:
67,31,54240,1,2,3:0:0:0:
256,192,54383,12,2,56525,1:3:0:0:
174,268,57668,5,4,3:2:0:0:
251,225,57954,2,0,P|268:189|270:149,1,80,2|8,3:1|0:0,0:0:0:0:
224,74,58525,1,8,0:0:0:0:
292,18,58811,6,0,L|371:28,1,80,6|0,3:2|3:0,0:0:0:0:
415,24,59240,1,10,0:0:0:0:
415,24,59383,2,0,P|432:59|434:99,1,80,2|2,3:2|3:2,0:0:0:0:
474,177,59954,2,0,L|395:187,1,80,2|2,3:2|3:2,0:0:0:0:
316,227,60525,1,2,3:2:0:0:
243,177,60811,1,2,3:2:0:0:
177,236,61097,6,0,P|159:271|157:311,1,80,2|0,3:2|3:0,0:0:0:0:
170,353,61525,1,10,0:0:0:0:
170,353,61668,2,0,L|249:363,1,80,2|2,3:2|3:2,0:0:0:0:
322,314,62240,1,10,1:2:0:0:
405,346,62525,1,10,1:2:0:0:
463,279,62811,2,0,P|461:239|443:203,1,80,10|8,1:2|0:0,0:0:0:0:
424,163,63240,6,0,B|402:167|381:178|381:178|346:166|283:168,1,120,12|0,0:0|3:0,0:0:0:0:
222,145,63954,1,0,3:0:0:0:
157,205,64240,1,0,3:0:0:0:
81,159,64525,2,0,L|71:80,1,80,2|2,3:2|3:2,0:0:0:0:
39,48,64954,2,0,P|78:46|114:28,1,80,10|10,0:0|0:0,0:0:0:0:
201,35,65525,6,0,B|223:39|244:50|244:50|279:38|342:40,1,120,12|0,0:0|3:0,0:0:0:0:
395,81,66240,2,0,L|385:160,1,80,2|0,3:2|3:0,0:0:0:0:
441,227,66811,2,0,L|451:306,1,80,8|8,0:0|0:0,0:0:0:0:
409,320,67240,2,0,P|373:301|333:300,1,80,8|8,0:0|0:0,0:0:0:0:
295,321,67668,1,8,0:0:0:0:
215,359,67954,6,0,L|136:349,1,80,6|0,3:2|3:0,0:0:0:0:
92,353,68383,1,10,0:0:0:0:
92,353,68526,2,0,P|75:318|73:278,1,80,2|2,3:2|3:2,0:0:0:0:
31,199,69097,2,0,L|110:189,1,80,2|2,3:2|3:2,0:0:0:0:
192,156,69668,1,2,3:2:0:0:
266,203,69954,1,2,3:2:0:0:
335,148,70240,6,0,P|353:113|355:73,1,80,2|0,3:2|3:0,0:0:0:0:
342,31,70668,1,10,0:2:0:0:
342,31,70811,2,0,L|263:21,1,80,2|2,3:2|3:2,0:0:0:0:
194,76,71383,1,10,1:2:0:0:
120,26,71668,1,10,1:2:0:0:
71,101,71954,2,0,P|72:140|90:176,1,80,2|8,1:2|0:0,0:0:0:0:
88,221,72383,6,0,B|110:217|131:206|131:206|166:218|229:216,1,120,12|0,0:0|3:0,0:0:0:0:
290,239,73097,1,0,3:0:0:0:
355,179,73383,1,0,3:0:0:0:
429,224,73668,2,0,P|442:171|407:111,1,120,0|0,3:0|0:0,0:0:0:0:
396,74,74240,2,0,B|374:78|353:89|353:89|318:77|255:79,1,120,0|0,3:0|0:0,0:0:0:0:
242,103,74811,6,0,L|232:24,1,80,0|12,3:0|0:0,0:0:0:0:
145,39,75383,2,0,L|135:118,1,80,0|12,3:0|0:0,0:0:0:0:
47,127,75954,2,0,L|37:48,2,80,8|8|8,3:2|3:2|3:2,0:0:0:0:
96,199,76811,1,8,3:2:0:0:
51,275,77097,6,0,B|105:339|199:333,2,160,4|2|2,3:2|0:0|0:0,0:0:0:0:
145,126,78811,2,0,P|223:147|234:155,1,80,2|8,3:2|0:0,0:0:0:0:
245,230,79383,5,2,3:0:0:0:
410,170,79954,2,0,P|454:108|432:33,1,160,0|2,3:0|3:0,0:0:0:0:
255,29,81097,2,0,P|210:35|176:45,1,80,0|2,3:0|0:0,0:0:0:0:
89,33,81668,6,0,P|76:70|85:109,1,80,2|2,3:0|3:0,0:0:0:0:
103,195,82240,1,2,3:0:0:0:
181,154,82525,1,2,3:0:0:0:
242,217,82811,2,0,L|321:207,1,80,8|8,3:2|3:2,0:0:0:0:
356,125,83383,2,0,L|435:135,1,80,8|8,3:2|3:2,0:0:0:0:
480,210,83954,1,4,3:2:0:0:
256,192,84097,12,8,85383,0:0:0:0:
430,296,86240,6,0,L|391:293,1,40,10|10,0:0|0:0,0:0:0:0:
274,230,86811,2,0,L|271:191,1,40,10|10,0:0|0:0,0:0:0:0:
275,57,87383,2,0,B|297:61|318:72|318:72|353:60|416:62,1,120,10|10,0:0|0:0,0:0:0:0:
473,96,88097,2,0,L|476:135,1,40,2|10,0:0|0:0,0:0:0:0:
