osu file format v14

[General]
AudioFilename: audio.mp3
AudioLeadIn: 0
PreviewTime: 58740
Countdown: 0
SampleSet: Soft
StackLeniency: 0.7
Mode: 0
LetterboxInBreaks: 0
WidescreenStoryboard: 1

[Editor]
DistanceSpacing: 1.3
BeatDivisor: 4
GridSize: 8
TimelineZoom: 1.5

[Metadata]
Title:Acchi de Kocchi de (TV Size)
TitleUnicode:あっちでこっちで (TV Size)
Artist:Acchi<->Kocchi
ArtistUnicode:あっち⇔こっち
Creator:Bazz B
Version:Blizs' Nyahoi
Source:あっちこっち
Tags:-Mikan Mikan Bazz_B Matha Petal Blizs Fantastica Uta fluffy hair sahuang My Angel Azusa Nelliel Time Capsule Chihara Minori PaRaDogi Ducky- Taeyang Agatsu anime japanese Place to here and there fantastica op opening つみき tsumiki 大久保瑠美 ookubo rumi 伊御 io 岡本信彦 okamoto nobuhiko 姫 hime 福原香織 fukuhara kaori 真宵 mayoi 生天目仁美 nabatame hitomi 榊 sakaki 浅沼晋太郎 asanuma shintaro pop jpop j-pop time
BeatmapID:2316100
BeatmapSetID:1108211

[Difficulty]
HPDrainRate:6.5
CircleSize:4.5
OverallDifficulty:8.5
ApproachRate:9.5
SliderMultiplier:1.85
SliderTickRate:1

[Events]
//Background and Video events
0,0,"backg kawaii desu.jpg",0,0
Video,-210,"Nyaw.avi"
//Break Periods
//Storyboard Layer 0 (Background)
//Storyboard Layer 1 (Fail)
//Storyboard Layer 2 (Pass)
//Storyboard Layer 3 (Foreground)
//Storyboard Layer 4 (Overlay)
//Storyboard Sound Samples

[TimingPoints]
1669,285.714285714286,4,2,1,50,1,0
1669,-142.857142857143,4,2,1,50,0,0
6240,-125,4,2,1,55,0,0
7954,-117.647058823529,4,2,1,45,0,0
8526,-166.666666666667,4,2,1,55,0,0
9669,-200,4,2,1,55,0,0
10240,-100,4,2,1,65,0,0
10811,-100,4,2,1,60,0,0
18954,-142.857142857143,4,2,1,30,0,0
19097,-142.857142857143,4,2,1,35,0,0
19240,-142.857142857143,4,2,1,40,0,0
19383,-142.857142857143,4,2,1,45,0,0
19526,-142.857142857143,4,2,1,50,0,0
19669,-142.857142857143,4,2,1,55,0,0
19811,-142.857142857143,4,2,1,60,0,0
19954,-117.647058823529,4,2,1,50,0,0
26811,-166.666666666667,4,2,1,40,0,0
28526,-153.846153846154,4,2,1,40,0,0
29097,-117.647058823529,4,2,1,50,0,0
33669,-117.647058823529,4,2,1,55,0,0
34669,-117.647058823529,4,2,1,60,0,0
35954,-117.647058823529,4,2,1,65,0,0
37647,285.714285714286,4,2,1,35,1,0
37647,-250,4,2,1,35,0,0
38258,285.714285714286,4,2,1,35,1,0
38258,-250,4,2,1,35,0,0
42829,-222.222222222222,4,2,1,40,0,0
45115,-200,4,2,1,45,0,0
47115,267.857142857143,4,2,1,45,1,0
47115,-200,4,2,1,45,0,0
47383,285.714285714286,4,2,1,50,1,0
47383,-181.818181818182,4,2,1,50,0,0
49097,-100,4,2,1,60,0,0
49668,-181.818181818182,4,2,1,45,0,0
51383,-100,4,2,1,60,0,0
51954,-142.857142857143,4,2,1,50,0,0
54240,-133.333333333333,4,2,1,60,0,0
55383,-125,4,2,1,60,0,0
56525,-166.666666666667,4,2,1,50,0,0
57668,-111.111111111111,4,2,1,60,0,0
58811,-100,4,2,1,65,0,1
67668,-100,4,2,1,65,0,0
67954,-100,4,2,1,65,0,1
77097,-200,4,2,1,45,0,0
78811,-142.857142857143,4,2,1,55,0,0
79383,-142.857142857143,4,2,1,50,0,0
80525,-125,4,2,1,55,0,0
81668,-111.111111111111,4,2,1,60,0,0
82811,-100,4,2,1,65,0,0
83954,-125,4,2,1,55,0,0
86240,-100,4,2,1,70,0,0
88025,-100,4,2,1,5,0,0
88097,-100,4,2,1,55,0,0
88168,-100,4,2,1,5,0,0
88240,-100,4,2,1,40,0,0
88383,-100,4,2,1,5,0,0

[Colours]
Combo1 : 255,128,128
Combo2 : 128,128,255
Combo3 : 255,128,255
Combo4 : 207,207,207

[HitObjects]
37,169,1669,5,4,3:2:0:0:
94,357,1883,2,0,L|112:229,1,129.499996047974,2|2,0:0|0:0,0:0:0:0:
125,134,2240,5,8,0:1:0:0:
182,322,2454,2,0,L|200:194,1,129.499996047974,2|2,0:0|0:0,0:0:0:0:
213,99,2811,5,8,0:1:0:0:
270,287,3026,2,0,L|288:159,1,129.499996047974,2|2,0:0|0:0,0:0:0:0:
301,64,3383,5,8,0:1:0:0:
460,116,3573,1,0,3:0:0:0:
460,116,3669,2,0,P|419:129|377:123,1,86.3333306986492,4|0,0:3|0:0,0:0:0:0:
301,64,3954,5,4,3:2:0:0:
85,117,4169,2,0,L|213:99,1,129.499996047974,2|2,0:0|0:0,0:0:0:0:
288,159,4526,5,8,0:1:0:0:
72,212,4740,2,0,L|200:194,1,129.499996047974,2|2,0:0|0:0,0:0:0:0:
275,254,5097,5,8,0:1:0:0:
59,307,5311,2,0,L|183:289,1,118.708329710643,2|2,0:0|3:2,0:0:0:0:
262,349,5669,5,8,0:0:0:0:
432,320,5859,1,0,3:0:0:0:
432,320,5954,2,0,P|391:307|349:314,1,86.3333306986492,8|0,0:0|0:0,0:0:0:0:
262,349,6240,5,2,3:2:0:0:
69,273,6430,1,2,0:0:0:0:
59,307,6526,1,2,0:0:0:0:
272,315,6716,1,2,0:0:0:0:
262,349,6811,2,0,L|248:251,1,98.6666666666667,12|0,0:0|0:0,0:0:0:0:
317,179,7097,5,2,3:2:0:0:
124,103,7288,1,2,0:0:0:0:
114,137,7384,1,2,0:0:0:0:
327,145,7574,1,2,0:0:0:0:
317,179,7669,2,0,L|303:81,1,98.6666666666667,12|0,0:0|0:0,0:0:0:0:
372,8,7954,6,0,P|400:41|410:0,1,104.833335332871,2|0,0:0|0:0,0:0:0:0:
503,126,8240,2,0,P|474:93|464:135,1,104.833335332871,2|0,0:0|0:0,0:0:0:0:
511,224,8526,5,10,0:0:0:0:
511,224,8716,2,0,L|493:345,2,110.999996612549,2|2|10,3:2|3:2|3:2,0:0:0:0:
317,179,9573,1,10,0:0:0:0:
307,213,9669,6,0,B|284:181|293:135|293:135|302:89|279:57,1,161.875,2|0,3:0|0:0,0:0:0:0:
204,26,10240,5,8,0:0:0:0:
173,51,10311,1,8,0:0:0:0:
134,63,10383,1,8,0:0:0:0:
94,58,10454,1,8,0:0:0:0:
60,38,10526,5,8,0:0:0:0:
39,72,10597,1,8,0:0:0:0:
35,112,10669,1,8,0:0:0:0:
46,151,10740,1,8,0:0:0:0:
72,182,10811,6,0,P|113:226|88:320,1,138.75,6|0,3:2|0:0,0:0:0:0:
86,326,11097,2,0,P|129:312|177:314,1,92.5,0|8,3:0|0:0,0:0:0:0:
439,371,11383,1,0,3:0:0:0:
265,265,11526,1,8,0:0:0:0:
426,248,11669,1,2,3:2:0:0:
263,367,11811,1,10,0:0:0:0:
510,293,11954,6,0,B|520:248|520:248|508:199,1,92.5,2|8,3:2|0:0,0:0:0:0:
281,71,12240,2,0,B|275:164,1,92.5,2|8,3:2|0:0,0:0:0:0:
265,265,12526,1,2,3:2:0:0:
186,112,12669,1,8,0:0:0:0:
371,124,12811,2,0,B|463:117,1,92.5,2|8,3:2|0:0,0:0:0:0:
477,350,13097,6,0,P|456:286|488:227,1,138.75,2|0,3:2|0:0,0:0:0:0:
509,203,13383,2,0,B|416:209,1,92.5,0|8,3:0|0:0,0:0:0:0:
99,157,13669,1,0,3:0:0:0:
265,265,13811,1,8,0:0:0:0:
186,112,13954,1,2,3:2:0:0:
93,257,14097,1,10,0:0:0:0:
12,102,14240,6,0,B|6:9,1,92.5,2|8,3:2|0:0,0:0:0:0:
182,211,14526,2,0,B|176:304,1,92.5,2|8,3:2|0:0,0:0:0:0:
186,112,14811,1,2,3:2:0:0:
265,265,14954,1,8,0:0:0:0:
371,124,15097,2,0,P|418:111|463:121,1,92.5,2|8,3:2|0:0,0:0:0:0:
428,379,15383,5,0,3:0:0:0:
420,362,15454,1,0,3:0:0:0:
416,344,15526,1,0,3:0:0:0:
415,325,15597,1,0,3:0:0:0:
417,307,15669,1,0,3:0:0:0:
423,290,15740,1,0,3:0:0:0:
429,273,15811,1,0,3:0:0:0:
431,255,15883,1,0,3:0:0:0:
430,236,15954,1,0,3:0:0:0:
426,218,16026,1,0,3:0:0:0:
419,202,16097,6,0,L|340:186,1,46.25,10|8,0:0|0:0,0:0:0:0:
264,252,16240,2,0,L|317:192,1,46.25,10|8,0:0|0:0,0:0:0:0:
298,94,16383,2,0,L|323:170,1,46.25,10|8,0:0|0:0,0:0:0:0:
233,162,16526,5,8,3:2:0:0:
204,136,16597,1,8,0:0:0:0:
167,130,16669,1,8,0:0:0:0:
132,145,16740,1,8,0:0:0:0:
97,161,16811,1,8,0:0:0:0:
60,155,16883,1,8,0:0:0:0:
31,129,16954,5,8,3:2:0:0:
46,165,17026,1,8,0:0:0:0:
56,202,17097,1,8,0:0:0:0:
62,240,17169,1,8,0:0:0:0:
64,279,17240,1,8,0:0:0:0:
61,317,17311,1,8,0:0:0:0:
54,355,17383,6,0,L|99:360,1,46.25,8|0,3:2|3:0,0:0:0:0:
192,279,17526,2,0,L|237:284,1,46.25,8|0,3:2|3:0,0:0:0:0:
329,371,17669,5,8,0:0:0:0:
298,94,17811,1,8,0:0:0:0:
400,311,17954,1,8,0:0:0:0:
314,81,18097,5,8,0:0:0:0:
332,71,18383,1,8,0:0:0:0:
351,64,18669,1,8,0:0:0:0:
351,64,18954,5,2,0:0:0:0:
394,150,19097,1,2,0:0:0:0:
363,242,19240,1,2,0:0:0:0:
461,305,19383,5,2,0:0:0:0:
350,270,19526,1,2,0:0:0:0:
246,323,19669,2,0,L|170:318,1,64.7499980239869,2|2,3:2|0:0,0:0:0:0:
56,343,19954,6,0,P|3:291|28:221,1,157.250002999306,2|8,3:0|0:0,0:0:0:0:
191,96,20383,1,0,3:0:0:0:
92,70,20526,2,0,P|93:109|102:148,1,78.6250014996529,0|0,3:0|0:0,0:0:0:0:
289,224,20811,1,8,0:0:0:0:
327,55,20954,6,0,P|251:48|191:96,1,157.250002999306,2|0,3:0|3:0,0:0:0:0:
195,265,21383,1,8,0:0:0:0:
102,147,21526,1,0,3:0:0:0:
279,146,21669,2,0,P|287:184|289:224,1,78.6250014996529,0|0,3:0|0:0,0:0:0:0:
110,384,21954,2,0,P|101:345|100:306,1,78.6250014996529,8|0,0:0|0:0,0:0:0:0:
277,325,22240,6,0,B|329:319|329:319|379:334|379:334|432:329,1,157.250002999306,2|8,3:0|0:0,0:0:0:0:
492,245,22669,1,0,3:0:0:0:
380,156,22811,2,0,B|389:235,1,78.6250014996529,0|0,3:2|0:0,0:0:0:0:
509,139,23097,2,0,P|454:86|463:11,1,157.250002999306,10|0,0:0|0:0,0:0:0:0:
380,156,23526,5,2,0:0:0:0:
380,156,23669,2,0,B|301:147,1,78.6250014996529,10|2,0:0|3:2,0:0:0:0:
149,256,23954,2,0,B|228:247,1,78.6250014996529,2|2,3:2|3:2,0:0:0:0:
248,245,24169,1,0,3:0:0:0:
268,243,24240,1,10,0:0:0:0:
114,352,24383,1,2,3:2:0:0:
84,176,24526,6,0,B|74:137|98:101|98:101|122:65|112:26,1,157.250002999306,2|8,3:0|0:0,0:0:0:0:
11,45,24954,1,0,3:0:0:0:
185,157,25097,2,0,B|264:148,1,78.6250014996529,0|0,3:0|0:0,0:0:0:0:
452,103,25383,1,8,0:0:0:0:
366,47,25526,6,0,B|349:204,1,157.250002999306,2|0,3:0|0:0,0:0:0:0:
452,103,25954,1,8,0:0:0:0:
263,148,26097,1,0,3:0:0:0:
464,321,26240,2,0,B|456:243,1,78.6250014996529,0|8,3:0|0:0,0:0:0:0:
453,223,26454,1,8,0:0:0:0:
451,203,26526,1,8,0:0:0:0:
337,305,26669,1,0,3:0:0:0:
263,148,26811,5,14,0:0:0:0:
263,148,26954,2,0,B|269:88,1,55.4999983062745,2|2,0:0|0:1,0:0:0:0:
168,163,27240,1,2,0:0:0:0:
168,163,27383,2,0,B|174:108,1,55.4999983062745,2|2,0:1|0:0,0:0:0:0:
93,223,27669,2,0,B|102:288,1,55.4999983062745,2|2,0:1|0:0,0:0:0:0:
144,359,27954,1,2,0:1:0:0:
190,294,28097,1,2,0:0:0:0:
267,349,28240,2,0,B|322:343,1,55.4999983062745,2|2,0:3|0:0,0:0:0:0:
511,233,28526,6,0,B|509:203|509:203|496:231,1,60.1249972476961,8|2,0:1|0:0,0:0:0:0:
322,128,28811,2,0,B|324:98|324:98|339:125,1,60.1249972476961,8|2,0:1|0:0,0:0:0:0:
395,212,29097,6,0,B|385:251|409:287|409:287|433:323|423:362,1,157.250002999306,2|8,3:0|0:0,0:0:0:0:
496,230,29526,1,0,3:0:0:0:
322,343,29669,2,0,B|243:351,1,78.6250014996529,0|0,3:0|0:0,0:0:0:0:
119,204,29954,1,8,0:0:0:0:
71,295,30097,6,0,P|147:302|207:254,1,157.250002999306,2|0,3:0|3:0,0:0:0:0:
168,115,30526,1,8,0:0:0:0:
119,204,30669,1,0,3:0:0:0:
256,165,30811,2,0,B|334:173,1,78.6250014996529,0|0,3:0|0:0,0:0:0:0:
496,230,31097,2,0,B|417:238,1,78.6250014996529,8|0,0:0|0:0,0:0:0:0:
352,321,31383,5,8,3:2:0:0:
119,204,31669,1,8,3:2:0:0:
399,90,31954,1,8,3:2:0:0:
49,30,32240,2,0,P|2:88|27:160,1,157.250002999306,10|0,3:2|0:0,0:0:0:0:
119,204,32669,5,2,3:2:0:0:
119,204,32811,2,0,L|209:194,1,78.6250014996529,10|2,0:0|3:2,0:0:0:0:
352,321,33097,2,0,L|262:311,1,78.6250014996529,2|2,3:2|3:2,0:0:0:0:
254,310,33311,1,8,0:0:0:0:
234,307,33383,1,10,0:0:0:0:
368,217,33526,1,2,3:2:0:0:
454,383,33669,6,0,P|460:304|470:226,1,157.250002999306,2|8,3:0|0:0,0:0:0:0:
497,128,34097,1,0,3:0:0:0:
359,139,34240,2,0,P|364:178|368:218,1,78.6250014996529,0|0,3:0|0:0,0:0:0:0:
352,321,34526,1,8,0:0:0:0:
113,270,34669,6,0,P|191:265|270:256,1,157.250002999306,6|0,3:0|3:0,0:0:0:0:
183,166,35097,1,8,0:0:0:0:
128,374,35240,1,0,3:0:0:0:
18,233,35383,2,0,L|11:154,1,78.6250014996529,8|0,0:0|0:0,0:0:0:0:
189,87,35669,2,0,L|183:166,1,78.6250014996529,8|0,0:0|0:0,0:0:0:0:
128,374,35954,5,8,0:0:0:0:
373,309,36097,1,8,0:0:0:0:
114,271,36240,1,8,0:0:0:0:
352,321,36383,1,8,0:0:0:0:
100,168,36526,1,8,0:0:0:0:
331,333,36669,1,8,0:0:0:0:
458,65,36954,5,2,3:0:0:0:
458,65,37647,5,2,0:0:0:0:
380,107,37932,1,2,0:0:0:0:
304,59,38258,6,0,P|268:56|232:47,1,74,0|2,0:0|0:0,0:0:0:0:
92,93,38829,2,0,P|129:97|165:106,1,74,0|2,0:0|0:0,0:0:0:0:
275,198,39400,2,0,P|238:194|203:185,1,74,0|2,0:0|0:0,0:0:0:0:
185,200,39829,1,2,0:0:0:0:
168,214,39972,2,0,L|174:265,1,37,2|2,0:0|0:0,0:0:0:0:
254,284,40258,2,0,L|260:335,1,37,2|2,0:0|0:0,0:0:0:0:
339,354,40543,6,0,P|374:340|410:333,1,74,0|2,0:0|0:0,0:0:0:0:
379,186,41115,2,0,P|373:222|362:258,1,74,0|2,0:0|0:0,0:0:0:0:
504,304,41686,2,0,P|475:280|450:253,1,74,0|2,0:0|0:0,0:0:0:0:
459,233,42115,1,2,0:0:0:0:
468,212,42258,2,0,L|463:170,1,37,2|2,0:0|0:0,0:0:0:0:
388,127,42543,2,0,L|383:85,1,37,2|2,0:0|0:0,0:0:0:0:
308,42,42829,5,0,0:0:0:0:
213,74,43115,1,2,0:0:0:0:
113,81,43400,1,0,0:0:0:0:
14,61,43686,1,2,0:0:0:0:
99,6,43972,5,0,0:0:0:0:
105,106,44258,1,2,0:0:0:0:
85,205,44544,1,0,0:0:0:0:
40,295,44829,1,2,0:0:0:0:
130,340,45115,6,0,L|293:331,1,154.166666666667,8|2,0:1|0:0,0:0:0:0:
308,304,45686,2,0,P|316:265|297:212,1,92.5,8|2,0:1|0:0,0:0:0:0:
210,146,46162,1,2,0:0:0:0:
210,146,46258,2,0,P|206:116|214:86,1,61.6666666666667,8|2,0:1|0:0,0:0:0:0:
239,60,46543,2,0,L|331:55,1,92.5,0|8,0:0|0:1,0:0:0:0:
450,47,47115,2,0,L|452:0,2,30.8333333333333,2|2|2,0:0|0:0|0:0,0:0:0:0:
464,72,47383,6,0,B|474:102|474:102|462:171,1,101.750003105164,8|2,0:3|0:0,0:0:0:0:
510,307,47954,1,8,0:3:0:0:
418,263,48240,1,2,0:0:0:0:
316,270,48525,1,8,0:3:0:0:
231,327,48811,1,2,0:0:0:0:
62,259,49097,6,0,P|104:239|80:279,1,123.333333333333,0|0,3:0|0:0,3:0:0:0:
62,259,49383,2,0,B|51:214|51:214|68:188|68:188|57:143,1,123.333333333333,4|0,3:0|0:0,0:0:0:0:
66,60,49668,5,8,0:3:0:0:
153,112,49954,1,2,0:0:0:0:
242,63,50240,1,8,0:3:0:0:
331,14,50525,1,2,0:0:0:0:
418,66,50811,2,0,L|393:167,1,101.750003105164,8|2,0:3|0:0,0:0:0:0:
452,311,51383,6,0,P|456:264|477:305,1,123.333333333333,0|8,3:0|0:0,0:0:0:0:
452,311,51668,2,0,B|407:300|407:300|381:317|381:317|336:306,1,123.333333333333,4|0,3:0|0:0,0:0:0:0:
292,231,51954,6,0,P|228:218|166:258,1,129.499996047974,8|2,3:0|0:0,0:0:0:0:
34,372,52430,1,0,3:0:0:0:
34,372,52525,2,0,L|15:244,1,129.499996047974,8|2,0:0|0:0,0:0:0:0:
114,71,53097,6,0,L|102:157,1,86.3333306986492,8|8,3:0|0:0,0:0:0:0:
96,200,53383,2,0,L|181:187,1,86.3333306986492,2|0,3:2|3:0,0:0:0:0:
224,180,53668,1,8,0:0:0:0:
388,362,53954,1,2,3:2:0:0:
386,61,54240,6,0,P|319:53|264:92,1,138.750005292893,2|2,3:0|0:0,0:0:0:0:
224,180,54668,1,0,3:0:0:0:
322,283,54811,2,0,L|343:146,1,138.750005292893,12|2,0:0|0:0,0:0:0:0:
35,31,55383,5,8,0:0:0:0:
35,31,55525,2,0,L|46:105,1,74,8|0,0:0|3:0,0:0:0:0:
224,180,55811,1,8,0:0:0:0:
140,210,55954,1,8,0:0:0:0:
127,191,56049,2,0,L|135:143,1,49.3333333333333,8|8,0:3|0:3,0:0:0:0:
34,293,56240,1,0,3:0:0:0:
45,277,56335,2,0,L|38:229,1,49.3333333333333,8|8,0:3|0:3,0:0:0:0:
126,362,56525,6,0,L|235:346,1,110.999996612549,2|2,1:3|1:2,0:0:0:0:
431,296,56954,1,0,1:0:0:0:
325,376,57097,2,0,L|341:266,1,110.999996612549,2|2,1:3|1:2,0:0:0:0:
461,39,57668,6,0,L|464:66,5,27.7499991531372,4|2|2|2|2|2,3:2|0:1|0:1|0:1|0:1|0:1,0:0:0:0:
445,73,57954,2,0,L|448:100,5,27.7499991531372,2|2|2|2|2|2,3:1|0:1|0:1|0:1|0:1|0:1,0:0:0:0:
410,161,58240,5,8,0:0:0:0:
373,180,58311,1,8,0:0:0:0:
332,181,58383,1,8,0:0:0:0:
295,162,58454,1,8,0:0:0:0:
271,129,58525,1,8,0:0:0:0:
247,96,58597,1,8,0:0:0:0:
210,77,58668,1,8,0:0:0:0:
169,78,58740,1,8,0:0:0:0:
133,96,58811,6,0,L|121:236,1,138.75,6|0,3:2|0:0,0:0:0:0:
108,263,59097,2,0,P|151:248|197:249,1,92.5,0|10,3:0|0:0,0:0:0:0:
28,322,59383,1,2,3:2:0:0:
33,158,59525,1,10,0:2:0:0:
166,348,59668,2,0,P|211:349|255:334,1,92.5,2|8,3:2|0:0,0:0:0:0:
429,192,59954,5,2,3:2:0:0:
198,249,60097,1,8,0:0:0:0:
354,362,60240,2,0,L|361:269,1,92.5,2|8,3:2|0:0,0:0:0:0:
371,106,60525,1,2,3:2:0:0:
255,334,60668,1,10,0:0:0:0:
498,351,60811,2,0,L|506:259,1,92.5,2|8,3:2|0:0,0:0:0:0:
370,106,61097,6,0,P|315:144|247:137,1,138.75,2|0,3:2|0:0,0:0:0:0:
175,91,61383,2,0,P|221:88|263:108,1,92.5,0|10,3:0|0:0,0:0:0:0:
361,269,61668,1,2,3:2:0:0:
158,232,61811,1,10,0:0:0:0:
246,137,61954,1,2,3:2:0:0:
43,175,62097,1,10,0:0:0:0:
165,324,62240,6,0,L|158:231,1,92.5,10|0,1:2|0:0,0:0:0:0:
377,14,62525,2,0,L|370:107,1,92.5,10|0,1:2|0:0,0:0:0:0:
354,362,62811,1,10,1:2:0:0:
445,232,62954,1,0,3:0:0:0:
469,230,63025,1,0,3:0:0:0:
492,228,63097,1,8,0:0:0:0:
255,334,63240,6,0,B|207:346|165:324|165:324|123:302|75:314,1,185,12|8,0:0|0:0,0:0:0:0:
222,237,63668,2,0,P|267:230|312:219,1,92.5,0|8,3:0|0:0,0:0:0:0:
467,156,63954,2,0,P|421:149|377:139,1,92.5,0|8,3:0|0:0,0:0:0:0:
222,76,64240,2,0,P|268:70|313:59,1,92.5,0|8,3:0|0:0,0:0:0:0:
132,31,64525,5,2,3:2:0:0:
222,237,64668,1,10,0:0:0:0:
115,48,64811,1,2,3:2:0:0:
137,263,64954,1,10,0:0:0:0:
98,65,65097,1,2,3:2:0:0:
49,229,65240,1,10,0:0:0:0:
81,82,65383,1,0,3:0:0:0:
295,308,65525,6,0,P|211:339|136:292,1,185,12|8,0:0|0:0,0:0:0:0:
230,144,65954,2,0,L|222:237,1,92.5,0|8,3:0|0:0,0:0:0:0:
50,347,66240,2,0,L|41:254,1,92.5,2|8,3:2|0:0,0:0:0:0:
125,177,66525,1,0,3:0:0:0:
125,177,66597,1,0,3:0:0:0:
125,177,66668,1,8,3:2:0:0:
295,308,66811,6,0,P|340:298|385:291,1,92.5,8|0,0:0|3:0,0:0:0:0:
408,298,67025,1,0,3:0:0:0:
430,304,67097,2,0,L|425:243,1,46.25,8|0,0:0|0:0,0:0:0:0:
302,125,67240,6,0,P|241:154|224:219,1,138.75,8|0,0:0|3:0,0:0:0:0:
291,354,67525,2,0,L|295:308,1,46.25,8|0,0:0|0:0,0:0:0:0:
302,206,67668,2,0,P|347:195|392:188,1,92.5,8|8,0:0|0:0,0:0:0:0:
204,328,67954,6,0,P|145:289|67:302,1,138.75,6|0,3:2|0:0,0:0:0:0:
53,314,68240,2,0,P|70:275|68:226,1,92.5,0|10,3:0|0:0,0:0:0:0:
40,54,68525,1,2,3:2:0:0:
237,111,68668,1,10,0:0:0:0:
154,171,68811,2,0,P|137:131|139:82,1,92.5,2|8,3:2|0:0,0:0:0:0:
408,68,69097,5,2,3:2:0:0:
237,111,69240,1,8,0:0:0:0:
395,269,69383,2,0,L|401:177,1,92.5,2|8,3:2|0:0,0:0:0:0:
308,31,69668,1,2,3:2:0:0:
109,172,69811,1,10,0:0:0:0:
292,309,69954,2,0,L|298:217,1,92.5,2|8,3:2|0:0,0:0:0:0:
49,245,70240,6,0,P|104:285|172:280,1,138.75,2|0,3:2|0:0,0:0:0:0:
195,257,70525,2,0,L|201:165,1,92.5,0|10,3:0|0:2,0:0:0:0:
308,31,70811,1,2,3:2:0:0:
109,172,70954,1,10,0:0:0:0:
401,167,71097,1,2,3:2:0:0:
205,276,71240,1,8,0:0:0:0:
389,361,71383,6,0,L|395:269,1,92.5,10|0,1:2|0:0,0:0:0:0:
98,21,71668,2,0,L|104:113,1,92.5,10|0,1:2|0:0,0:0:0:0:
205,276,71954,1,2,1:2:0:0:
296,108,72097,1,0,3:0:0:0:
298,85,72168,1,0,3:0:0:0:
300,62,72240,1,8,0:0:0:0:
201,165,72383,6,0,B|153:177|111:155|111:155|69:133|21:145,1,185,12|8,0:0|0:0,0:0:0:0:
113,272,72811,2,0,P|158:279|205:276,1,92.5,0|8,3:0|0:0,0:0:0:0:
250,87,73097,2,0,P|221:123|201:165,1,92.5,0|8,3:0|0:0,0:0:0:0:
340,298,73383,2,0,P|323:255|298:217,1,92.5,0|8,3:0|0:0,0:0:0:0:
21,145,73668,5,0,3:0:0:0:
113,272,73811,1,0,3:0:0:0:
201,165,73954,2,0,L|21:145,1,138.75,12|0,0:0|0:0,0:0:0:0:
21,145,74240,5,0,3:0:0:0:
114,35,74383,1,0,3:0:0:0:
250,87,74525,2,0,L|430:67,1,138.75,12|0,0:0|0:0,0:0:0:0:
430,67,74811,5,0,3:0:0:0:
203,5,74954,1,0,3:0:0:0:
334,164,75097,2,8,B|345:209|345:209|329:253|329:253|340:298,1,138.75,12|0,0:0|0:0,0:0:0:0:
355,336,75383,5,0,3:0:0:0:
462,267,75525,1,0,3:0:0:0:
247,202,75668,2,0,P|180:198|125:238,1,138.75,12|0,0:0|0:0,0:0:0:0:
108,266,75954,6,0,P|103:220|86:177,1,92.5,8|0,3:2|0:0,0:0:0:0:
203,5,76240,2,0,P|207:50|224:93,1,92.5,8|0,3:2|3:0,0:0:0:0:
244,104,76454,1,0,3:0:0:0:
265,115,76525,2,0,L|310:109,1,46.25,8|0,3:2|3:0,0:0:0:0:
489,153,76668,1,0,3:0:0:0:
470,163,76740,1,0,3:0:0:0:
449,174,76811,2,0,L|404:168,1,46.25,8|0,3:2|3:0,0:0:0:0:
323,242,76954,1,8,0:0:0:0:
323,242,77025,1,8,0:0:0:0:
323,242,77097,6,0,B|275:254|233:232|233:232|191:210|143:222,1,185,4|2,3:2|0:0,0:0:0:0:
131,243,78240,1,2,0:0:0:0:
118,264,78811,5,2,3:2:0:0:
115,236,78883,1,4,3:0:0:0:
113,208,78954,1,0,3:0:0:0:
111,181,79025,1,0,3:0:0:0:
109,153,79097,2,0,L|101:56,1,97.1249970359803,8|0,0:0|0:0,0:0:0:0:
98,27,79383,5,2,3:0:0:0:
31,224,79668,2,0,L|21:95,1,129.499996047974,2|0,0:0|3:0,0:0:0:0:
98,27,80097,1,0,0:0:0:0:
196,60,80240,2,0,L|292:67,1,97.1249970359803,2|0,0:0|0:0,0:0:0:0:
326,70,80525,5,2,3:0:0:0:
109,153,80811,2,0,L|277:166,1,148,2|0,0:0|3:0,0:0:0:0:
324,317,81240,1,0,0:0:0:0:
233,381,81383,2,0,L|224:270,1,111,2|0,0:0|0:0,0:0:0:0:
198,250,81668,6,0,L|114:243,1,83.2499974594117,2|0,3:0|0:0,0:0:0:0:
324,317,81954,2,0,L|407:310,1,83.2499974594117,2|0,3:0|0:0,0:0:0:0:
256,164,82240,2,0,P|244:124|244:83,1,83.2499974594117,2|0,3:0|0:0,0:0:0:0:
417,20,82525,2,0,P|428:59|428:101,1,83.2499974594117,2|0,3:0|0:0,0:0:0:0:
198,250,82811,5,8,3:2:0:0:
166,227,82883,1,8,0:0:0:0:
127,225,82954,1,8,0:0:0:0:
94,245,83025,1,8,0:0:0:0:
76,279,83097,1,8,3:2:0:0:
79,318,83168,1,8,0:0:0:0:
103,348,83240,1,8,0:0:0:0:
140,361,83311,1,8,0:0:0:0:
178,352,83383,5,8,3:2:0:0:
214,338,83454,1,8,0:0:0:0:
253,332,83525,1,8,0:0:0:0:
292,332,83597,1,8,0:0:0:0:
331,340,83668,1,8,3:2:0:0:
369,349,83740,1,8,0:0:0:0:
408,352,83811,1,8,0:0:0:0:
447,347,83883,1,8,0:0:0:0:
485,335,83954,6,0,L|472:187,1,148,4|0,3:2|3:0,0:0:0:0:
463,91,84383,1,2,0:0:0:0:
328,172,84525,2,0,B|289:181|256:164|256:164|222:146|184:156,1,148,0|0,3:0|3:0,0:0:0:0:
91,182,84954,1,2,0:0:0:0:
204,323,85097,6,0,L|211:249,1,74,0|0,3:0|0:0,0:0:0:0:
301,79,85383,1,8,0:0:0:0:
91,182,85525,1,0,3:0:0:0:
306,267,85668,1,8,0:0:0:0:
115,88,85811,1,0,3:0:0:0:
113,69,85882,1,0,3:0:0:0:
111,51,85954,1,4,0:3:0:0:
211,249,86097,1,4,3:0:0:0:
395,102,86240,5,10,0:0:0:0:
91,182,86383,1,10,0:0:0:0:
211,249,86525,1,2,0:0:0:0:
222,266,86811,5,10,0:0:0:0:
121,30,86954,1,10,0:0:0:0:
80,165,87097,1,2,0:0:0:0:
91,182,87383,5,10,0:0:0:0:
395,102,87525,1,10,0:0:0:0:
110,13,87668,1,10,0:0:0:0:
294,176,87811,6,0,P|358:182|435:195,1,138.75,10|0,0:0|0:0,0:0:0:0:
406,318,88097,2,0,L|393:251,1,46.25,2|0,0:0|0:0,0:0:0:0:
395,102,88240,2,0,P|439:108|484:120,1,92.5,10|0,0:0|0:0,0:0:0:0:
