osu file format v14

[General]
AudioFilename: audio.Mp3
AudioLeadIn: 0
PreviewTime: 67508
Countdown: 1
SampleSet: Normal
StackLeniency: 0.7
Mode: 0
LetterboxInBreaks: 0
WidescreenStoryboard: 0

[Editor]
DistanceSpacing: 3.2
BeatDivisor: 4
GridSize: 4
TimelineZoom: 1.3

[Metadata]
Title:lian ran se
TitleUnicode:恋染色
Artist:AcAcia
ArtistUnicode:AcAcia
Creator:dingzhiaishang
Version:Hard
Source:
Tags:三色绘恋 墨小菊 恋染色 lianranse
BeatmapID:1555130
BeatmapSetID:736897

[Difficulty]
HPDrainRate:5
CircleSize:4
OverallDifficulty:5
ApproachRate:7
SliderMultiplier:1.4
SliderTickRate:1

[Events]
//Background and Video events
0,0,"4G}OQ]UGGW()FV31A9{K1%X.png",0,0
Video,-1547,"0.flv"
//Break Periods
2,19527,38436
2,96493,113502
2,170912,190468
//Storyboard Layer 0 (Background)
//Storyboard Layer 1 (Fail)
//Storyboard Layer 2 (Pass)
//Storyboard Layer 3 (Foreground)
//Storyboard Sound Samples

[TimingPoints]
1217.60098522167,565.926502463056,4,1,0,100,1,0

[HitObjects]
160,104,1153,6,0,P|256:104|256:104,1,70
336,104,1642,1,0,0:0:0:0:
336,104,1783,1,0,0:0:0:0:
336,104,2066,1,0,0:0:0:0:
336,208,2349,6,0,L|256:208,1,70
168,216,2773,1,0,0:0:0:0:
168,216,2915,1,0,0:0:0:0:
168,216,3198,1,0,0:0:0:0:
344,288,3481,6,0,L|264:288,1,70
160,296,3905,1,0,0:0:0:0:
160,296,4047,1,0,0:0:0:0:
160,296,4330,1,0,0:0:0:0:
424,112,4613,6,0,L|424:192|424:192,1,70
424,264,5037,1,0,0:0:0:0:
424,264,5179,1,0,0:0:0:0:
424,264,5462,1,0,0:0:0:0:
120,80,5745,5,0,0:0:0:0:
360,80,6027,1,0,0:0:0:0:
360,256,6310,1,0,0:0:0:0:
136,256,6593,1,0,0:0:0:0:
248,176,6876,1,0,0:0:0:0:
248,176,7159,1,0,0:0:0:0:
248,176,7442,1,0,0:0:0:0:
248,176,7725,1,0,0:0:0:0:
248,176,8008,1,0,0:0:0:0:
192,80,10272,6,0,L|264:80|264:80,1,70
376,80,10838,2,0,P|376:160|376:144,1,70
288,240,11404,2,0,L|208:240|208:240,1,70
120,200,11970,2,0,L|64:144|64:144,1,70
176,80,12536,5,0,0:0:0:0:
184,80,12819,1,0,0:0:0:0:
192,80,13102,1,0,0:0:0:0:
392,72,13385,1,0,0:0:0:0:
400,72,13667,1,0,0:0:0:0:
408,72,13950,1,0,0:0:0:0:
400,224,14233,1,0,0:0:0:0:
408,224,14516,1,0,0:0:0:0:
416,224,14799,1,0,0:0:0:0:
320,288,15365,1,0,0:0:0:0:
216,264,15931,1,0,0:0:0:0:
280,192,16356,1,0,0:0:0:0:
208,48,16780,1,0,0:0:0:0:
256,128,17063,1,0,0:0:0:0:
272,128,17487,1,0,0:0:0:0:
288,128,17912,1,0,0:0:0:0:
256,192,18195,12,0,19327,0:0:0:0:
96,88,39700,6,0,L|168:88|168:88,1,70
256,64,40125,5,0,0:0:0:0:
384,40,40408,1,0,0:0:0:0:
424,152,40690,1,0,0:0:0:0:
296,192,40832,1,0,0:0:0:0:
336,120,41115,1,0,0:0:0:0:
344,120,41398,1,0,0:0:0:0:
144,176,41964,6,0,L|216:176|216:176,1,70
312,72,42388,1,0,0:0:0:0:
448,48,42671,1,0,0:0:0:0:
472,232,42954,1,0,0:0:0:0:
328,256,43096,1,0,0:0:0:0:
376,152,43379,1,0,0:0:0:0:
376,152,43662,1,0,0:0:0:0:
120,48,44228,6,0,L|192:48|192:48,1,70
200,48,44652,1,0,0:0:0:0:
208,48,45076,1,0,0:0:0:0:
112,144,45359,2,0,L|192:144|192:144,1,70
192,144,45784,1,0,0:0:0:0:
312,80,46208,1,0,0:0:0:0:
456,88,46491,1,0,0:0:0:0:
456,240,46916,1,0,0:0:0:0:
304,240,47340,1,0,0:0:0:0:
376,160,47623,1,0,0:0:0:0:
404,76,48755,6,0,B|440:64|452:80|452:80,1,35
444,148,49038,2,0,B|408:160|396:144|396:144,1,35
296,80,49321,2,0,B|332:68|344:84|344:84,1,35
336,148,49604,2,0,B|300:160|288:144|288:144,1,35
224,96,49887,2,0,L|224:184|224:184,1,70
144,168,50453,2,0,L|144:96|144:96,1,70
144,272,51019,2,0,L|232:272|232:272,1,70
296,216,51443,1,0,0:0:0:0:
408,264,51585,1,0,0:0:0:0:
296,336,51868,1,0,0:0:0:0:
408,112,52150,2,0,L|344:112|344:112,4,35
248,112,52999,1,0,0:0:0:0:
248,112,53282,1,0,0:0:0:0:
176,176,54131,5,0,0:0:0:0:
176,176,54273,1,0,0:0:0:0:
176,176,54414,1,0,0:0:0:0:
352,64,54839,1,0,0:0:0:0:
216,296,55263,1,0,0:0:0:0:
296,184,55546,1,0,0:0:0:0:
176,176,55970,1,0,0:0:0:0:
176,176,56395,1,0,0:0:0:0:
440,32,57527,1,0,0:0:0:0:
440,40,57668,1,0,0:0:0:0:
440,48,57810,1,0,0:0:0:0:
432,168,58093,1,0,0:0:0:0:
432,176,58234,1,0,0:0:0:0:
320,36,58659,1,0,0:0:0:0:
320,44,58800,1,0,0:0:0:0:
320,52,58942,1,0,0:0:0:0:
320,136,59225,1,0,0:0:0:0:
320,144,59366,1,0,0:0:0:0:
152,296,59790,1,0,0:0:0:0:
232,88,60073,1,0,0:0:0:0:
312,304,60498,5,0,0:0:0:0:
120,152,60922,1,0,0:0:0:0:
272,72,61205,1,0,0:0:0:0:
240,168,62054,5,0,0:0:0:0:
248,168,62196,1,0,0:0:0:0:
256,168,62337,2,0,L|360:168|360:168,1,105
112,76,63186,1,0,0:0:0:0:
380,76,63469,1,0,0:0:0:0:
232,216,64318,5,0,0:0:0:0:
232,216,64459,1,0,0:0:0:0:
240,216,64601,2,0,L|324:216|324:216,1,70
368,68,65167,2,0,L|440:128|440:128,1,70
136,64,65733,2,0,L|72:136|72:136,1,70
220,184,66299,2,0,L|260:184|260:184,1,35
268,184,66582,1,0,0:0:0:0:
256,192,66865,12,0,67996,0:0:0:0:
264,260,69128,5,0,0:0:0:0:
340,52,69411,1,0,0:0:0:0:
408,264,69694,1,0,0:0:0:0:
228,140,69977,1,0,0:0:0:0:
336,152,70260,1,0,0:0:0:0:
336,160,70402,1,0,0:0:0:0:
336,168,70543,1,0,0:0:0:0:
336,176,70685,1,0,0:0:0:0:
136,64,70826,1,0,0:0:0:0:
400,304,71109,1,0,0:0:0:0:
216,252,71392,5,0,0:0:0:0:
140,56,71675,1,0,0:0:0:0:
64,252,71958,1,0,0:0:0:0:
236,96,72241,1,0,0:0:0:0:
144,132,72524,1,0,0:0:0:0:
144,140,72665,1,0,0:0:0:0:
144,148,72807,1,0,0:0:0:0:
144,156,72948,1,0,0:0:0:0:
388,80,73090,1,0,0:0:0:0:
208,264,73373,1,0,0:0:0:0:
164,264,73656,5,0,0:0:0:0:
248,48,73939,1,0,0:0:0:0:
332,272,74222,1,0,0:0:0:0:
120,132,74505,1,0,0:0:0:0:
312,152,74788,1,0,0:0:0:0:
312,160,74929,1,0,0:0:0:0:
312,168,75071,1,0,0:0:0:0:
312,176,75212,1,0,0:0:0:0:
416,60,75353,1,0,0:0:0:0:
272,264,75636,1,0,0:0:0:0:
336,264,75919,5,0,0:0:0:0:
248,56,76202,1,0,0:0:0:0:
184,260,76485,1,0,0:0:0:0:
344,136,76768,1,0,0:0:0:0:
248,56,77051,1,0,0:0:0:0:
248,64,77193,1,0,0:0:0:0:
248,72,77334,1,0,0:0:0:0:
248,80,77476,1,0,0:0:0:0:
84,64,77617,1,0,0:0:0:0:
408,68,77900,1,0,0:0:0:0:
128,64,78183,5,0,0:0:0:0:
392,324,78466,1,0,0:0:0:0:
392,64,78749,1,0,0:0:0:0:
120,316,79032,1,0,0:0:0:0:
212,112,79315,1,0,0:0:0:0:
332,112,79456,1,0,0:0:0:0:
332,236,79598,1,0,0:0:0:0:
208,232,79739,1,0,0:0:0:0:
116,180,79881,1,0,0:0:0:0:
396,188,80164,1,0,0:0:0:0:
376,60,80447,5,0,0:0:0:0:
144,292,80730,1,0,0:0:0:0:
152,64,81013,1,0,0:0:0:0:
388,288,81296,1,0,0:0:0:0:
208,128,81579,1,0,0:0:0:0:
208,240,81720,1,0,0:0:0:0:
340,240,81862,1,0,0:0:0:0:
336,128,82003,1,0,0:0:0:0:
428,176,82145,1,0,0:0:0:0:
112,176,82428,1,0,0:0:0:0:
340,88,82711,6,0,B|348:116|340:156|340:156,1,35
264,88,82993,2,0,B|252:124|268:148|264:148,1,35
416,84,83276,6,0,B|424:112|416:152|416:152,1,35
192,84,83559,2,0,B|180:120|196:144|192:144,1,35
440,248,83842,1,0,0:0:0:0:
436,256,83984,1,0,0:0:0:0:
360,240,84125,1,0,0:0:0:0:
360,248,84267,1,0,0:0:0:0:
288,232,84408,1,0,0:0:0:0:
288,240,84550,1,0,0:0:0:0:
220,212,84691,1,0,0:0:0:0:
220,220,84833,1,0,0:0:0:0:
140,196,84974,1,0,0:0:0:0:
236,60,85399,1,0,0:0:0:0:
360,148,85823,1,0,0:0:0:0:
84,68,87238,6,0,L|452:320|452:320,1,420
80,312,89502,6,0,L|432:44|432:44,1,420
156,96,91765,6,0,L|252:96|252:96,1,70
328,100,92190,1,0,0:0:0:0:
328,108,92331,1,0,0:0:0:0:
328,116,92614,1,0,0:0:0:0:
236,200,92897,2,0,L|236:252|236:252,1,35
308,240,93180,2,0,L|308:192|308:192,1,35
416,168,93746,1,0,0:0:0:0:
416,256,93888,1,0,0:0:0:0:
412,76,94029,1,0,0:0:0:0:
256,192,94736,12,0,96293,0:0:0:0:
360,32,114402,6,0,L|360:104|360:104,1,70
384,192,114827,5,0,0:0:0:0:
408,320,115110,1,0,0:0:0:0:
296,360,115392,1,0,0:0:0:0:
256,232,115534,1,0,0:0:0:0:
328,272,115817,1,0,0:0:0:0:
328,280,116100,1,0,0:0:0:0:
152,352,116666,6,0,L|152:280|152:280,1,70
128,192,117091,5,0,0:0:0:0:
104,64,117374,1,0,0:0:0:0:
216,24,117656,1,0,0:0:0:0:
256,152,117798,1,0,0:0:0:0:
184,112,118081,1,0,0:0:0:0:
184,104,118364,1,0,0:0:0:0:
392,336,118930,6,0,L|320:336|320:336,1,70
312,336,119354,1,0,0:0:0:0:
304,336,119778,1,0,0:0:0:0:
400,240,120061,2,0,L|320:240|320:240,1,70
320,240,120486,1,0,0:0:0:0:
200,304,120910,1,0,0:0:0:0:
56,296,121193,1,0,0:0:0:0:
56,144,121618,1,0,0:0:0:0:
208,144,122042,1,0,0:0:0:0:
136,224,122325,1,0,0:0:0:0:
108,308,123457,6,0,B|72:320|60:304|60:304,1,35
68,236,123740,2,0,B|104:224|116:240|116:240,1,35
216,304,124023,2,0,B|180:316|168:300|168:300,1,35
176,236,124306,2,0,B|212:224|224:240|224:240,1,35
288,288,124589,2,0,L|288:200|288:200,1,70
368,216,125155,2,0,L|368:288|368:288,1,70
368,112,125721,2,0,L|280:112|280:112,1,70
216,168,126145,1,0,0:0:0:0:
104,120,126287,1,0,0:0:0:0:
216,48,126570,1,0,0:0:0:0:
104,272,126852,2,0,L|168:272|168:272,4,35
304,172,127702,1,0,0:0:0:0:
304,172,127985,1,0,0:0:0:0:
416,128,128834,1,0,0:0:0:0:
416,128,128975,1,0,0:0:0:0:
416,128,129116,1,0,0:0:0:0:
276,32,129541,1,0,0:0:0:0:
144,120,129965,1,0,0:0:0:0:
344,100,130248,1,0,0:0:0:0:
344,108,130390,1,0,0:0:0:0:
344,116,130531,1,0,0:0:0:0:
344,124,130673,1,0,0:0:0:0:
344,132,130814,1,0,0:0:0:0:
344,140,130956,1,0,0:0:0:0:
344,148,131097,1,0,0:0:0:0:
72,352,132229,5,0,0:0:0:0:
72,344,132370,1,0,0:0:0:0:
72,336,132512,1,0,0:0:0:0:
80,216,132795,1,0,0:0:0:0:
80,208,132936,1,0,0:0:0:0:
192,348,133361,1,0,0:0:0:0:
192,340,133502,1,0,0:0:0:0:
192,332,133644,1,0,0:0:0:0:
192,248,133927,1,0,0:0:0:0:
192,240,134068,1,0,0:0:0:0:
360,88,134492,1,0,0:0:0:0:
280,296,134775,1,0,0:0:0:0:
200,80,135200,1,0,0:0:0:0:
392,232,135624,1,0,0:0:0:0:
240,312,135907,1,0,0:0:0:0:
272,216,136756,5,0,0:0:0:0:
264,216,136898,1,0,0:0:0:0:
256,216,137039,2,0,L|152:216|152:216,1,105
400,308,137888,1,0,0:0:0:0:
132,308,138171,1,0,0:0:0:0:
280,168,139020,1,0,0:0:0:0:
280,168,139161,1,0,0:0:0:0:
272,168,139303,2,0,L|188:168|188:168,1,70
144,316,139869,2,0,L|72:256|72:256,1,70
376,320,140435,2,0,L|440:248|440:248,1,70
256,192,141001,2,0,L|216:192|216:192,1,35
144,92,141284,1,0,0:0:0:0:
256,192,141567,12,0,142698,0:0:0:0:
248,124,143831,5,0,0:0:0:0:
172,332,144114,1,0,0:0:0:0:
104,120,144397,1,0,0:0:0:0:
284,244,144680,1,0,0:0:0:0:
176,232,144963,1,0,0:0:0:0:
176,224,145105,1,0,0:0:0:0:
176,216,145246,1,0,0:0:0:0:
176,208,145388,1,0,0:0:0:0:
376,320,145529,1,0,0:0:0:0:
112,80,145812,1,0,0:0:0:0:
296,132,146095,5,0,0:0:0:0:
372,328,146378,1,0,0:0:0:0:
448,132,146661,1,0,0:0:0:0:
276,288,146944,1,0,0:0:0:0:
368,252,147227,1,0,0:0:0:0:
368,244,147368,1,0,0:0:0:0:
368,236,147510,1,0,0:0:0:0:
368,228,147651,1,0,0:0:0:0:
124,304,147793,1,0,0:0:0:0:
304,120,148076,1,0,0:0:0:0:
348,120,148359,5,0,0:0:0:0:
264,336,148642,1,0,0:0:0:0:
180,112,148925,1,0,0:0:0:0:
392,252,149208,1,0,0:0:0:0:
200,232,149491,1,0,0:0:0:0:
200,224,149632,1,0,0:0:0:0:
200,216,149774,1,0,0:0:0:0:
200,208,149915,1,0,0:0:0:0:
96,324,150056,1,0,0:0:0:0:
240,120,150339,1,0,0:0:0:0:
176,120,150622,5,0,0:0:0:0:
264,328,150905,1,0,0:0:0:0:
328,124,151188,1,0,0:0:0:0:
168,248,151471,1,0,0:0:0:0:
264,328,151754,1,0,0:0:0:0:
264,320,151896,1,0,0:0:0:0:
264,312,152037,1,0,0:0:0:0:
264,304,152179,1,0,0:0:0:0:
428,320,152320,1,0,0:0:0:0:
104,316,152603,1,0,0:0:0:0:
384,320,152886,5,0,0:0:0:0:
120,60,153169,1,0,0:0:0:0:
120,320,153452,1,0,0:0:0:0:
392,68,153735,1,0,0:0:0:0:
300,272,154018,1,0,0:0:0:0:
180,272,154159,1,0,0:0:0:0:
180,148,154301,1,0,0:0:0:0:
304,152,154442,1,0,0:0:0:0:
396,204,154584,1,0,0:0:0:0:
116,196,154867,1,0,0:0:0:0:
136,324,155150,5,0,0:0:0:0:
368,92,155433,1,0,0:0:0:0:
360,320,155716,1,0,0:0:0:0:
124,96,155999,1,0,0:0:0:0:
304,256,156282,1,0,0:0:0:0:
304,144,156423,1,0,0:0:0:0:
172,144,156565,1,0,0:0:0:0:
176,256,156706,1,0,0:0:0:0:
84,208,156848,1,0,0:0:0:0:
400,208,157131,1,0,0:0:0:0:
172,296,157414,6,0,B|164:268|172:228|172:228,1,35
248,296,157696,2,0,B|260:260|244:236|248:236,1,35
96,300,157979,6,0,B|88:272|96:232|96:232,1,35
320,300,158262,2,0,B|332:264|316:240|320:240,1,35
72,136,158545,1,0,0:0:0:0:
76,128,158687,1,0,0:0:0:0:
152,144,158828,1,0,0:0:0:0:
152,136,158970,1,0,0:0:0:0:
224,152,159111,1,0,0:0:0:0:
224,144,159253,1,0,0:0:0:0:
292,172,159394,1,0,0:0:0:0:
292,164,159536,1,0,0:0:0:0:
372,188,159677,1,0,0:0:0:0:
276,324,160102,1,0,0:0:0:0:
152,236,160526,1,0,0:0:0:0:
124,288,161940,6,0,B|88:300|76:284|76:284,1,35
92,216,162223,6,0,B|128:204|140:220|140:220,1,35
128,140,162506,6,0,B|92:152|80:136|80:136,1,35
96,72,162789,6,0,B|132:60|144:76|144:76,1,35
200,68,163072,1,0,0:0:0:0:
208,68,163214,1,0,0:0:0:0:
216,68,163355,1,0,0:0:0:0:
224,68,163497,1,0,0:0:0:0:
320,84,163638,1,0,0:0:0:0:
448,100,163779,1,0,0:0:0:0:
356,212,163921,1,0,0:0:0:0:
388,96,164204,6,0,B|424:84|436:100|436:100,1,35
420,168,164487,6,0,B|384:180|372:164|372:164,1,35
384,244,164770,6,0,B|420:232|432:248|432:248,1,35
416,312,165053,6,0,B|380:324|368:308|368:308,1,35
312,316,165336,1,0,0:0:0:0:
304,316,165478,1,0,0:0:0:0:
296,316,165619,1,0,0:0:0:0:
288,316,165761,1,0,0:0:0:0:
192,300,165902,1,0,0:0:0:0:
64,284,166043,1,0,0:0:0:0:
156,172,166185,1,0,0:0:0:0:
116,104,166468,6,0,B|104:68|120:56|120:56,1,35
188,72,166751,6,0,B|200:108|184:120|184:120,1,35
264,108,167034,6,0,B|252:72|268:60|268:60,1,35
332,76,167317,6,0,B|344:112|328:124|328:124,1,35
336,180,167600,1,0,0:0:0:0:
336,188,167742,1,0,0:0:0:0:
336,196,167883,1,0,0:0:0:0:
336,204,168025,1,0,0:0:0:0:
320,300,168166,1,0,0:0:0:0:
240,264,168307,1,0,0:0:0:0:
152,276,168449,1,0,0:0:0:0:
140,184,168590,1,0,0:0:0:0:
240,172,168731,1,0,0:0:0:0:
128,120,169580,5,0,0:0:0:0:
124,288,169863,1,0,0:0:0:0:
268,180,170288,1,0,0:0:0:0:
276,180,170712,1,0,0:0:0:0:
196,52,191368,5,0,0:0:0:0:
344,56,191510,1,0,0:0:0:0:
272,164,191651,1,0,0:0:0:0:
200,56,191793,1,0,0:0:0:0:
316,332,193632,5,0,0:0:0:0:
168,328,193774,1,0,0:0:0:0:
240,220,193915,1,0,0:0:0:0:
312,328,194057,1,0,0:0:0:0:
176,124,195896,5,0,0:0:0:0:
368,108,196037,1,0,0:0:0:0:
288,300,196179,1,0,0:0:0:0:
276,188,196320,1,0,0:0:0:0:
336,260,198160,5,0,0:0:0:0:
144,276,198301,1,0,0:0:0:0:
224,84,198443,1,0,0:0:0:0:
236,196,198584,1,0,0:0:0:0:
256,120,200423,5,0,0:0:0:0:
376,72,200565,1,0,0:0:0:0:
388,216,200706,1,0,0:0:0:0:
256,284,200848,1,0,0:0:0:0:
256,120,202687,5,0,0:0:0:0:
128,72,202828,1,0,0:0:0:0:
136,216,202970,1,0,0:0:0:0:
256,284,203111,1,0,0:0:0:0:
252,144,204951,6,0,L|296:144|296:144,7,35
284,216,206082,6,0,L|240:216|240:216,7,35
80,76,207214,5,0,0:0:0:0:
252,120,207497,1,0,0:0:0:0:
252,128,207639,1,0,0:0:0:0:
252,136,207780,1,0,0:0:0:0:
372,92,208063,2,0,P|416:92|416:92,8,35
144,88,209478,5,0,0:0:0:0:
376,56,209761,1,0,0:0:0:0:
260,288,210044,1,0,0:0:0:0:
264,172,210327,1,0,0:0:0:0:
404,184,210610,1,0,0:0:0:0:
404,192,210752,1,0,0:0:0:0:
144,172,210893,1,0,0:0:0:0:
148,180,211035,1,0,0:0:0:0:
272,48,211176,1,0,0:0:0:0:
268,304,211459,1,0,0:0:0:0:
372,256,211742,5,0,0:0:0:0:
140,288,212025,1,0,0:0:0:0:
256,56,212308,1,0,0:0:0:0:
252,172,212591,1,0,0:0:0:0:
112,160,212874,1,0,0:0:0:0:
112,152,213016,1,0,0:0:0:0:
372,172,213157,1,0,0:0:0:0:
368,164,213299,1,0,0:0:0:0:
244,296,213440,1,0,0:0:0:0:
248,40,213723,1,0,0:0:0:0:
376,80,214005,5,0,0:0:0:0:
468,168,214288,1,0,0:0:0:0:
372,256,214571,1,0,0:0:0:0:
288,160,214854,1,0,0:0:0:0:
288,168,214996,1,0,0:0:0:0:
288,176,215137,1,0,0:0:0:0:
180,72,215279,1,0,0:0:0:0:
180,80,215420,1,0,0:0:0:0:
180,88,215562,1,0,0:0:0:0:
92,156,215703,1,0,0:0:0:0:
180,252,215986,1,0,0:0:0:0:
136,304,216269,5,0,0:0:0:0:
44,216,216552,1,0,0:0:0:0:
140,128,216835,1,0,0:0:0:0:
224,224,217118,1,0,0:0:0:0:
224,216,217260,1,0,0:0:0:0:
224,208,217401,1,0,0:0:0:0:
332,312,217543,1,0,0:0:0:0:
332,304,217684,1,0,0:0:0:0:
332,296,217826,1,0,0:0:0:0:
420,228,217967,1,0,0:0:0:0:
332,132,218250,1,0,0:0:0:0:
140,100,218533,5,0,0:0:0:0:
336,52,218816,1,0,0:0:0:0:
336,60,218957,1,0,0:0:0:0:
336,68,219099,1,0,0:0:0:0:
440,176,219382,1,0,0:0:0:0:
440,184,219523,1,0,0:0:0:0:
440,192,219665,1,0,0:0:0:0:
352,252,219806,1,0,0:0:0:0:
352,260,219948,1,0,0:0:0:0:
352,268,220089,1,0,0:0:0:0:
208,192,220231,1,0,0:0:0:0:
252,80,220514,1,0,0:0:0:0:
372,284,220797,5,0,0:0:0:0:
176,332,221080,1,0,0:0:0:0:
176,324,221221,1,0,0:0:0:0:
176,316,221363,1,0,0:0:0:0:
72,208,221646,1,0,0:0:0:0:
72,200,221787,1,0,0:0:0:0:
72,192,221929,1,0,0:0:0:0:
160,132,222070,1,0,0:0:0:0:
160,124,222212,1,0,0:0:0:0:
160,116,222353,1,0,0:0:0:0:
304,192,222495,1,0,0:0:0:0:
260,304,222778,1,0,0:0:0:0:
56,304,223060,6,0,L|136:296|136:296,1,70
260,164,223485,1,0,0:0:0:0:
384,56,223626,2,0,L|456:60|456:60,1,70
456,80,224192,6,0,L|376:88|376:88,1,70
252,220,224617,1,0,0:0:0:0:
128,328,224758,2,0,L|56:324|56:324,1,70
56,52,225324,5,0,0:0:0:0:
472,56,225748,1,0,0:0:0:0:
248,324,226173,1,0,0:0:0:0:
388,96,227588,6,0,B|424:84|436:100|436:100,1,35
420,168,227871,6,0,B|384:180|372:164|372:164,1,35
384,244,228154,6,0,B|420:232|432:248|432:248,1,35
416,312,228437,6,0,B|380:324|368:308|368:308,1,35
312,316,228720,1,0,0:0:0:0:
304,316,228862,1,0,0:0:0:0:
296,316,229003,1,0,0:0:0:0:
288,316,229145,1,0,0:0:0:0:
192,300,229286,1,0,0:0:0:0:
64,284,229427,1,0,0:0:0:0:
156,172,229569,1,0,0:0:0:0:
124,288,229852,6,0,B|88:300|76:284|76:284,1,35
92,216,230135,6,0,B|128:204|140:220|140:220,1,35
128,140,230418,6,0,B|92:152|80:136|80:136,1,35
96,72,230701,6,0,B|132:60|144:76|144:76,1,35
200,68,230984,1,0,0:0:0:0:
208,68,231126,1,0,0:0:0:0:
216,68,231267,1,0,0:0:0:0:
224,68,231409,1,0,0:0:0:0:
320,84,231550,1,0,0:0:0:0:
448,100,231691,1,0,0:0:0:0:
356,212,231833,1,0,0:0:0:0:
396,280,232116,6,0,B|408:316|392:328|392:328,1,35
324,312,232399,6,0,B|312:276|328:264|328:264,1,35
248,276,232682,6,0,B|260:312|244:324|244:324,1,35
180,308,232965,6,0,B|168:272|184:260|184:260,1,35
176,204,233248,1,0,0:0:0:0:
176,196,233390,1,0,0:0:0:0:
176,188,233531,1,0,0:0:0:0:
176,180,233673,1,0,0:0:0:0:
192,84,233814,1,0,0:0:0:0:
272,120,233955,1,0,0:0:0:0:
360,108,234097,1,0,0:0:0:0:
372,200,234238,1,0,0:0:0:0:
272,212,234379,1,0,0:0:0:0:
84,64,235228,5,0,0:0:0:0:
428,56,235511,1,0,0:0:0:0:
332,120,235794,1,0,0:0:0:0:
332,128,235935,1,0,0:0:0:0:
332,136,236077,1,0,0:0:0:0:
364,252,236360,1,0,0:0:0:0:
208,316,236643,1,0,0:0:0:0:
88,240,237067,1,0,0:0:0:0:
216,228,237491,6,0,B|184:192|164:160|168:124|176:92|196:60|224:44|248:52|256:80|256:116|264:136|296:132|308:104|312:84|324:60|380:72|392:92|380:136|360:168|332:192|308:216|288:228|260:240|260:244|248:256,1,490
