osu file format v14

[General]
AudioFilename: audio.mp3
AudioLeadIn: 0
PreviewTime: 49336
Countdown: 0
SampleSet: Normal
StackLeniency: 0.7
Mode: 1
LetterboxInBreaks: 0
WidescreenStoryboard: 1

[Editor]
DistanceSpacing: 1
BeatDivisor: 3
GridSize: 32
TimelineZoom: 1.900001

[Metadata]
Title:Seishun no Archive (TV Size)
TitleUnicode:青春のアーカイブ (TV Size)
Artist:Abydos High School Foreclosure Task Force
ArtistUnicode:アビドス高等学校対策委員会
Creator:ler1211
Version:layxa's Muzukashii
Source:ブルーアーカイブ The Animation
Tags:waribashi layxa komasy _gt ktyn アビドス廃校対策委員会 Countermeasure Council Committee Blue Archive 블루 아카이브 蔚藍檔案 蔚蓝档案 小鳥遊ホシノ Takanashi Hoshino 花守ゆみり Hanamori yumiri 砂狼シロコ Sunaookami Shiroko 小倉唯 Ogura yui 十六夜ノノミ Izayoi Nonomi 三浦千幸 miura chiyuki 黒見セリカ Kuromi Serika 大橋彩香 ohashi ayaka 奥空アヤネ Okusora Ayane 原田彩楓 sayaka harada ブルアカ BuruAka Buru Aka NAT Games NEXON Yostar 40mp 40meterp 40meter-p japanese pop jpop j-pop anime opening op
BeatmapID:4563309
BeatmapSetID:2163686

[Difficulty]
HPDrainRate:6
CircleSize:5
OverallDifficulty:5
ApproachRate:5
SliderMultiplier:1.4
SliderTickRate:1

[Events]
//Background and Video events
0,0,"arona.png",0,0
Video,-90,"seishun.mp4"
//Break Periods
//Storyboard Layer 0 (Background)
//Storyboard Layer 1 (Fail)
//Storyboard Layer 2 (Pass)
//Storyboard Layer 3 (Foreground)
//Storyboard Layer 4 (Overlay)
//Storyboard Sound Samples

[TimingPoints]
819,265.486725663717,4,1,0,60,1,0
819,-166.666666666667,4,1,0,60,0,0
4270,-100,4,1,0,70,0,0
4934,-100,4,1,0,95,0,0
5995,-100,4,1,0,80,0,0
7124,-100,4,1,0,95,0,0
8518,-100,4,1,0,80,0,0
9248,-100,4,1,0,95,0,0
10243,-100,4,1,0,80,0,0
11372,-100,4,1,0,95,0,0
12898,-111.111111111111,4,1,0,80,0,0
13429,-111.111111111111,4,1,0,65,0,0
13562,-125,4,1,0,65,0,0
21526,-111.111111111111,4,1,0,80,0,0
22057,-100,4,1,0,90,0,0
23053,-90.9090909090909,4,1,0,95,0,0
23584,-100,4,1,0,30,0,0
24115,-100,4,1,0,90,0,0
25044,-90.9090909090909,4,1,0,95,0,0
25177,-100,4,1,0,60,0,0
26239,-100,4,1,0,90,0,0
27301,-90.9090909090909,4,1,0,95,0,0
27832,-100,4,1,0,30,0,0
28363,-100,4,1,0,90,0,0
29292,-90.9090909090909,4,1,0,95,0,0
29425,-100,4,1,0,60,0,0
30420,-125,4,1,0,70,0,0
30553,-125,4,1,0,70,0,0
38982,-111.111111111111,4,1,0,80,0,0
39049,-111.111111111111,4,1,0,80,0,0
43230,-111.111111111111,4,1,0,70,0,0
45354,-100,4,1,0,80,0,0
47478,-95.2380952380952,4,1,0,95,0,0
47876,-90.9090909090909,4,1,0,95,0,0
48274,-86.9565217391304,4,1,0,95,0,0
48606,-84.7457627118644,4,1,0,95,0,0
48672,-83.3333333333333,4,1,0,95,0,0
48872,-100,4,1,0,55,0,0
49336,-100,4,1,0,100,0,0
49668,265.486725663717,4,1,0,100,1,1
49668,-100,4,1,0,100,0,1
64468,-95.2380952380952,4,1,0,100,0,1
64867,-90.9090909090909,4,1,0,100,0,1
65265,-86.9565217391304,4,1,0,100,0,1
65597,-84.7457627118644,4,1,0,100,0,1
65663,-83.3333333333333,4,1,0,100,0,1
65862,-100,4,1,0,100,0,1
75154,-100,4,1,0,100,0,1
75420,-111.111111111111,4,1,0,90,0,1
79336,-100,4,1,0,100,0,1
79402,-90.9090909090909,4,1,0,100,0,1
81526,-83.3333333333333,4,1,0,100,0,1
83517,-100,4,1,0,95,0,1
83650,-100,4,1,0,95,0,0
84579,-100,4,1,0,80,0,0
85707,-100,4,1,0,95,0,0
86703,-100,4,1,0,55,0,0

[HitObjects]
314,220,819,5,0,0:0:0:0:
313,220,1615,1,0,0:0:0:0:
256,192,2146,12,8,4004,0:0:0:0:
332,190,5066,5,4,0:0:0:0:
335,176,5464,1,4,0:0:0:0:
335,176,5862,1,12,0:0:0:0:
366,209,6260,1,0,0:0:0:0:
417,266,6393,1,0,0:0:0:0:
417,266,6526,1,8,0:0:0:0:
417,266,6659,1,0,0:0:0:0:
386,212,6924,1,8,0:0:0:0:
386,212,7057,1,8,0:0:0:0:
335,176,7190,1,4,0:0:0:0:
335,176,7588,1,12,0:0:0:0:
335,176,7986,1,4,0:0:0:0:
296,190,8385,1,12,0:0:0:0:
226,157,8650,1,0,0:0:0:0:
265,215,8916,1,0,0:0:0:0:
311,189,9049,1,8,0:0:0:0:
311,189,9181,1,8,0:0:0:0:
311,166,9314,1,4,0:0:0:0:
296,172,9712,1,4,0:0:0:0:
296,172,10111,1,12,0:0:0:0:
289,228,10509,1,0,0:0:0:0:
289,228,10642,1,0,0:0:0:0:
289,228,10774,1,8,0:0:0:0:
289,228,10907,1,0,0:0:0:0:
289,228,11172,1,8,0:0:0:0:
289,228,11305,1,8,0:0:0:0:
296,172,11438,1,4,0:0:0:0:
296,172,11836,1,12,0:0:0:0:
256,192,12234,12,0,12765,0:0:0:0:
353,198,13031,5,0,0:0:0:0:
349,117,13562,1,0,0:0:0:0:
349,117,13960,1,0,0:0:0:0:
325,217,14358,1,0,0:0:0:0:
325,217,14491,1,0,0:0:0:0:
349,117,14624,1,8,0:0:0:0:
326,178,15686,1,0,0:0:0:0:
326,178,16084,1,0,0:0:0:0:
325,217,16482,1,0,0:0:0:0:
326,178,16748,1,8,0:0:0:0:
386,260,17544,1,8,0:0:0:0:
326,178,17810,1,0,0:0:0:0:
326,178,18208,1,0,0:0:0:0:
325,217,18606,1,0,0:0:0:0:
325,217,18739,1,0,0:0:0:0:
326,178,18872,1,8,0:0:0:0:
326,178,19934,1,0,0:0:0:0:
326,178,20332,1,0,0:0:0:0:
189,231,20730,1,0,0:0:0:0:
387,260,20863,1,8,0:0:0:0:
387,260,20995,1,0,0:0:0:0:
327,179,21659,1,8,0:0:0:0:
327,179,21726,1,8,0:0:0:0:
327,179,21792,1,8,0:0:0:0:
327,179,21925,1,8,0:0:0:0:
368,160,22057,1,4,0:0:0:0:
325,217,22323,1,8,0:0:0:0:
343,179,22588,1,0,0:0:0:0:
343,179,22721,1,0,0:0:0:0:
327,217,22854,1,8,0:0:0:0:
323,189,23119,1,12,0:0:0:0:
323,189,23252,1,4,0:0:0:0:
321,183,23518,1,4,0:0:0:0:
331,191,24181,1,4,0:0:0:0:
229,199,24447,1,8,0:0:0:0:
229,199,24580,1,8,0:0:0:0:
229,199,24712,1,0,0:0:0:0:
229,199,24845,1,0,0:0:0:0:
331,191,25111,1,12,0:0:0:0:
330,183,25376,1,0,0:0:0:0:
330,183,25509,1,0,0:0:0:0:
330,183,25642,1,8,0:0:0:0:
330,183,25774,1,8,0:0:0:0:
430,156,26305,1,4,0:0:0:0:
234,66,26571,1,8,0:0:0:0:
234,66,26836,1,0,0:0:0:0:
234,66,26969,1,0,0:0:0:0:
352,167,27102,1,8,0:0:0:0:
430,156,27367,1,12,0:0:0:0:
430,156,27500,1,4,0:0:0:0:
430,156,27765,1,12,0:0:0:0:
430,156,28429,1,4,0:0:0:0:
348,167,28695,1,8,0:0:0:0:
348,167,28827,1,8,0:0:0:0:
348,167,28960,1,0,0:0:0:0:
348,167,29093,1,0,0:0:0:0:
430,156,29358,1,12,0:0:0:0:
430,156,30553,1,4,0:0:0:0:
269,216,30951,1,0,0:0:0:0:
269,216,31349,1,0,0:0:0:0:
334,194,31615,1,8,0:0:0:0:
269,216,31880,1,0,0:0:0:0:
269,216,32013,1,8,0:0:0:0:
334,194,32411,1,8,0:0:0:0:
334,194,32544,1,8,0:0:0:0:
334,194,32677,1,0,0:0:0:0:
282,225,33075,1,0,0:0:0:0:
282,225,33473,1,0,0:0:0:0:
282,225,33606,1,0,0:0:0:0:
334,194,33739,1,8,0:0:0:0:
474,229,34004,1,0,0:0:0:0:
474,229,34270,1,8,0:0:0:0:
334,194,34535,1,8,0:0:0:0:
334,194,34668,1,8,0:0:0:0:
334,194,34801,1,0,0:0:0:0:
474,229,35199,1,0,0:0:0:0:
474,229,35597,1,0,0:0:0:0:
334,194,35863,1,8,0:0:0:0:
474,229,36128,1,0,0:0:0:0:
474,229,36261,1,8,0:0:0:0:
334,194,36659,1,8,0:0:0:0:
334,194,36792,1,8,0:0:0:0:
334,194,36925,1,0,0:0:0:0:
279,235,37323,1,0,0:0:0:0:
279,235,37721,1,0,0:0:0:0:
334,194,37987,1,8,0:0:0:0:
279,235,38252,1,0,0:0:0:0:
334,194,38518,1,8,0:0:0:0:
334,194,38650,1,8,0:0:0:0:
334,194,38783,1,8,0:0:0:0:
334,194,38916,1,8,0:0:0:0:
334,194,39049,1,0,0:0:0:0:
334,194,39314,1,8,0:0:0:0:
279,235,39580,1,0,0:0:0:0:
279,235,39712,1,0,0:0:0:0:
268,163,39845,1,8,0:0:0:0:
268,163,39978,1,8,0:0:0:0:
268,163,40111,1,0,0:0:0:0:
268,163,40376,1,8,0:0:0:0:
268,163,40509,1,0,0:0:0:0:
278,177,40774,1,0,0:0:0:0:
268,163,40907,1,8,0:0:0:0:
268,163,41040,1,8,0:0:0:0:
268,163,41172,1,0,0:0:0:0:
278,177,41438,1,8,0:0:0:0:
278,177,41703,1,8,0:0:0:0:
278,177,41836,1,0,0:0:0:0:
278,177,41969,1,8,0:0:0:0:
185,109,42102,1,8,0:0:0:0:
278,177,42234,1,0,0:0:0:0:
191,139,42301,1,0,0:0:0:0:
191,139,42367,1,0,0:0:0:0:
320,142,42500,1,8,0:0:0:0:
320,142,42633,1,0,0:0:0:0:
320,142,42898,1,8,0:0:0:0:
320,142,43031,1,8,0:0:0:0:
320,142,43164,1,8,0:0:0:0:
320,142,43296,1,0,0:0:0:0:
299,165,43650,1,8,0:0:0:0:
299,165,43827,1,8,0:0:0:0:
299,165,44181,1,0,0:0:0:0:
299,165,44358,1,8,0:0:0:0:
299,165,44712,1,0,0:0:0:0:
299,165,44889,1,0,0:0:0:0:
299,165,45243,1,8,0:0:0:0:
309,167,45420,1,4,0:0:0:0:
294,196,45819,1,0,0:0:0:0:
294,196,45951,1,8,0:0:0:0:
343,183,46217,1,0,0:0:0:0:
257,207,46349,5,8,0:0:0:0:
370,199,46615,1,8,0:0:0:0:
370,199,46748,1,0,0:0:0:0:
257,207,47013,1,8,0:0:0:0:
257,207,47279,1,8,0:0:0:0:
374,191,47411,1,8,0:0:0:0:
296,202,47544,5,4,0:0:0:0:
296,202,47942,1,4,0:0:0:0:
296,202,48341,1,12,0:0:0:0:
296,202,48739,1,12,0:0:0:0:
267,192,49668,5,4,0:0:0:0:
271,192,49933,1,8,0:0:0:0:
314,205,50198,1,0,0:0:0:0:
314,205,50331,1,0,0:0:0:0:
272,192,50464,1,8,0:0:0:0:
314,205,50597,1,0,0:0:0:0:
314,205,50862,1,0,0:0:0:0:
272,192,50995,1,8,0:0:0:0:
314,205,51260,1,0,0:0:0:0:
314,205,51393,1,0,0:0:0:0:
272,192,51526,1,8,0:0:0:0:
316,205,51659,1,8,0:0:0:0:
316,205,51791,1,0,0:0:0:0:
272,192,52057,1,8,0:0:0:0:
316,205,52190,1,0,0:0:0:0:
316,205,52322,1,0,0:0:0:0:
272,192,52588,1,8,0:0:0:0:
316,205,52721,1,0,0:0:0:0:
316,205,52986,1,0,0:0:0:0:
272,192,53119,1,8,0:0:0:0:
316,205,53384,1,0,0:0:0:0:
361,168,53517,1,8,0:0:0:0:
272,192,53650,1,8,0:0:0:0:
361,168,53915,1,0,0:0:0:0:
272,192,54181,1,8,0:0:0:0:
318,181,54446,1,0,0:0:0:0:
318,181,54579,1,0,0:0:0:0:
272,192,54712,1,8,0:0:0:0:
318,181,54844,1,0,0:0:0:0:
318,181,55110,1,0,0:0:0:0:
272,192,55243,1,8,0:0:0:0:
318,181,55508,1,8,0:0:0:0:
308,202,55641,1,0,0:0:0:0:
272,192,55774,1,8,0:0:0:0:
308,202,55906,1,8,0:0:0:0:
308,202,56039,1,0,0:0:0:0:
272,192,56305,1,8,0:0:0:0:
342,204,56437,1,0,0:0:0:0:
342,204,56570,1,0,0:0:0:0:
272,192,56836,1,8,0:0:0:0:
342,204,56968,1,0,0:0:0:0:
342,204,57234,1,0,0:0:0:0:
272,192,57367,1,8,0:0:0:0:
342,204,57499,1,8,0:0:0:0:
342,204,57632,1,0,0:0:0:0:
342,204,57698,1,0,0:0:0:0:
342,204,57765,1,0,0:0:0:0:
342,204,57898,1,8,0:0:0:0:
318,213,58030,1,4,0:0:0:0:
318,229,58429,1,8,0:0:0:0:
303,218,58694,1,0,0:0:0:0:
303,218,58827,1,0,0:0:0:0:
320,230,58960,1,8,0:0:0:0:
303,218,59092,1,0,0:0:0:0:
303,218,59358,1,0,0:0:0:0:
320,230,59491,1,8,0:0:0:0:
320,230,59756,1,0,0:0:0:0:
320,230,59822,1,0,0:0:0:0:
320,230,59889,1,0,0:0:0:0:
320,230,60021,1,8,0:0:0:0:
318,213,60154,1,4,0:0:0:0:
318,229,60552,1,8,0:0:0:0:
303,218,60818,1,0,0:0:0:0:
303,218,60951,1,8,0:0:0:0:
318,229,61083,1,8,0:0:0:0:
303,218,61216,1,0,0:0:0:0:
303,218,61482,1,0,0:0:0:0:
318,229,61614,1,8,0:0:0:0:
241,178,61880,1,0,0:0:0:0:
241,178,62013,1,0,0:0:0:0:
241,178,62145,1,8,0:0:0:0:
164,175,62278,1,8,0:0:0:0:
323,197,62411,1,4,0:0:0:0:
294,179,62676,1,8,0:0:0:0:
303,179,62942,1,0,0:0:0:0:
303,179,63075,1,0,0:0:0:0:
303,179,63207,1,8,0:0:0:0:
303,179,63340,1,0,0:0:0:0:
308,176,63606,1,0,0:0:0:0:
308,176,63738,1,8,0:0:0:0:
308,176,63805,1,8,0:0:0:0:
308,176,63871,1,8,0:0:0:0:
308,176,64004,1,0,0:0:0:0:
308,176,64137,1,0,0:0:0:0:
308,176,64269,1,8,0:0:0:0:
219,172,64402,1,8,0:0:0:0:
306,215,64535,1,4,0:0:0:0:
306,215,64933,1,4,0:0:0:0:
306,215,65331,1,12,0:0:0:0:
306,215,65729,1,12,0:0:0:0:
212,133,65995,1,0,0:0:0:0:
212,133,66061,1,0,0:0:0:0:
212,133,66128,1,0,0:0:0:0:
306,215,66260,1,0,0:0:0:0:
306,215,66393,1,8,0:0:0:0:
218,141,66526,1,8,0:0:0:0:
267,192,66659,5,4,0:0:0:0:
271,192,66924,1,8,0:0:0:0:
314,205,67189,1,0,0:0:0:0:
314,205,67322,1,0,0:0:0:0:
272,192,67455,1,8,0:0:0:0:
314,205,67588,1,0,0:0:0:0:
314,205,67853,1,0,0:0:0:0:
272,192,67986,1,8,0:0:0:0:
314,205,68251,1,0,0:0:0:0:
314,205,68384,1,0,0:0:0:0:
272,192,68517,1,8,0:0:0:0:
316,205,68650,1,8,0:0:0:0:
316,205,68782,1,0,0:0:0:0:
272,192,69048,1,8,0:0:0:0:
316,205,69181,1,0,0:0:0:0:
316,205,69313,1,0,0:0:0:0:
272,192,69579,1,8,0:0:0:0:
316,205,69712,1,0,0:0:0:0:
316,205,69977,1,0,0:0:0:0:
272,192,70110,1,8,0:0:0:0:
316,205,70375,1,0,0:0:0:0:
361,168,70508,1,8,0:0:0:0:
272,192,70641,1,8,0:0:0:0:
361,168,70906,1,0,0:0:0:0:
272,192,71172,1,8,0:0:0:0:
318,181,71437,1,0,0:0:0:0:
318,181,71570,1,0,0:0:0:0:
272,192,71703,1,8,0:0:0:0:
318,181,71835,1,0,0:0:0:0:
318,181,72101,1,0,0:0:0:0:
272,192,72234,1,8,0:0:0:0:
318,181,72499,1,8,0:0:0:0:
308,202,72632,1,0,0:0:0:0:
272,192,72765,1,8,0:0:0:0:
308,202,72897,1,8,0:0:0:0:
308,202,73030,1,0,0:0:0:0:
272,192,73296,1,8,0:0:0:0:
342,204,73428,1,0,0:0:0:0:
342,204,73561,1,0,0:0:0:0:
272,192,73827,1,8,0:0:0:0:
342,204,73959,1,8,0:0:0:0:
342,204,74225,1,0,0:0:0:0:
272,192,74358,1,8,0:0:0:0:
342,204,74490,1,8,0:0:0:0:
298,219,74623,1,0,0:0:0:0:
298,219,74690,1,0,0:0:0:0:
298,219,74756,1,0,0:0:0:0:
298,219,74889,1,8,0:0:0:0:
298,219,75021,1,8,0:0:0:0:
298,219,75154,1,4,0:0:0:0:
300,219,75552,1,0,0:0:0:0:
300,219,75685,1,8,0:0:0:0:
300,219,75951,1,8,0:0:0:0:
300,219,76083,1,8,0:0:0:0:
305,249,76216,1,0,0:0:0:0:
305,249,76482,1,0,0:0:0:0:
396,183,76747,1,8,0:0:0:0:
305,249,77013,1,8,0:0:0:0:
305,249,77145,1,8,0:0:0:0:
305,249,77278,1,0,0:0:0:0:
305,249,77676,1,0,0:0:0:0:
396,183,77809,1,8,0:0:0:0:
305,249,78075,1,0,0:0:0:0:
305,249,78207,1,8,0:0:0:0:
351,198,78340,1,0,0:0:0:0:
351,198,78473,1,8,0:0:0:0:
351,198,78606,1,0,0:0:0:0:
396,183,78871,1,8,0:0:0:0:
316,253,79137,1,8,0:0:0:0:
316,253,79269,1,8,0:0:0:0:
305,193,79402,1,4,0:0:0:0:
307,193,79800,1,4,0:0:0:0:
307,193,80198,1,4,0:0:0:0:
307,193,80597,1,4,0:0:0:0:
307,193,80995,1,4,0:0:0:0:
345,170,81260,1,0,0:0:0:0:
345,170,81393,1,0,0:0:0:0:
307,193,81526,1,12,0:0:0:0:
307,193,81924,1,12,0:0:0:0:
307,193,82322,1,12,0:0:0:0:
307,193,82721,1,12,0:0:0:0:
307,193,83119,1,12,0:0:0:0:
332,190,83650,1,4,0:0:0:0:
335,176,84048,1,4,0:0:0:0:
335,176,84446,1,12,0:0:0:0:
366,209,84844,1,0,0:0:0:0:
417,266,84977,1,0,0:0:0:0:
417,266,85110,1,8,0:0:0:0:
417,266,85243,1,0,0:0:0:0:
386,212,85508,1,8,0:0:0:0:
386,212,85641,1,8,0:0:0:0:
335,176,85774,1,4,0:0:0:0:
335,176,86172,1,12,0:0:0:0:
335,176,86570,1,4,0:0:0:0:
