osu file format v14

[General]
AudioFilename: audio.mp3
AudioLeadIn: 0
PreviewTime: 49336
Countdown: 0
SampleSet: Normal
StackLeniency: 0.7
Mode: 1
LetterboxInBreaks: 0
WidescreenStoryboard: 1

[Editor]
Bookmarks: 13567,22062,30558,39054
DistanceSpacing: 1
BeatDivisor: 4
GridSize: 32
TimelineZoom: 1.800001

[Metadata]
Title:Seishun no Archive (TV Size)
TitleUnicode:青春のアーカイブ (TV Size)
Artist:Abydos High School Foreclosure Task Force
ArtistUnicode:アビドス高等学校対策委員会
Creator:ler1211
Version:komasy's Futsuu
Source:ブルーアーカイブ The Animation
Tags:waribashi layxa komasy _gt ktyn アビドス廃校対策委員会 Countermeasure Council Committee Blue Archive 블루 아카이브 蔚藍檔案 蔚蓝档案 小鳥遊ホシノ Takanashi Hoshino 花守ゆみり Hanamori yumiri 砂狼シロコ Sunaookami Shiroko 小倉唯 Ogura yui 十六夜ノノミ Izayoi Nonomi 三浦千幸 miura chiyuki 黒見セリカ Kuromi Serika 大橋彩香 ohashi ayaka 奥空アヤネ Okusora Ayane 原田彩楓 sayaka harada ブルアカ BuruAka Buru Aka NAT Games NEXON Yostar 40mp 40meterp 40meter-p japanese pop jpop j-pop anime opening op
BeatmapID:4563308
BeatmapSetID:2163686

[Difficulty]
HPDrainRate:7
CircleSize:5
OverallDifficulty:4
ApproachRate:5
SliderMultiplier:1.3
SliderTickRate:1

[Events]
//Background and Video events
0,0,"arona.png",0,0
Video,-90,"seishun.mp4"
//Break Periods
2,43495,44220
//Storyboard Layer 0 (Background)
//Storyboard Layer 1 (Fail)
//Storyboard Layer 2 (Pass)
//Storyboard Layer 3 (Foreground)
//Storyboard Layer 4 (Overlay)
//Storyboard Sound Samples

[TimingPoints]
819,265.486725663717,4,1,0,80,1,0
2080,-100,4,1,0,40,0,0
5000,-100,4,1,0,90,0,0
12168,-100,4,1,0,70,0,0
12500,-100,4,1,0,50,0,0
12765,-100,4,1,0,30,0,0
13495,-100,4,1,0,50,0,0
21659,-100,4,1,0,80,0,0
29491,-100,4,1,0,60,0,0
38982,-100,4,1,0,80,0,0
43363,-100,4,1,0,30,0,0
45354,-100,4,1,0,90,0,0
49336,-100,4,1,0,100,0,0
49668,265.486725663717,4,1,0,100,1,1
83583,-100,4,1,0,90,0,1
83650,-100,4,1,0,90,0,0
86504,-100,4,1,0,70,0,0
86968,-100,4,1,0,50,0,0
87367,-100,4,1,0,30,0,0
87765,-100,4,1,0,10,0,0

[HitObjects]
352,96,819,5,8,0:0:0:0:
352,96,1615,5,8,0:0:0:0:
256,192,2146,12,8,4004,0:0:0:0:
160,288,5066,5,4,0:0:0:0:
160,288,5465,5,4,0:0:0:0:
160,288,5863,5,4,0:0:0:0:
352,288,6261,5,12,0:0:0:0:
352,96,6659,5,8,0:0:0:0:
352,96,6792,5,8,0:0:0:0:
352,96,6925,5,8,0:0:0:0:
160,288,7190,5,4,0:0:0:0:
352,288,7588,5,12,0:0:0:0:
160,288,7987,5,4,0:0:0:0:
352,288,8385,5,12,0:0:0:0:
160,288,9314,5,4,0:0:0:0:
160,288,9712,5,4,0:0:0:0:
160,288,10111,5,4,0:0:0:0:
352,288,10509,5,12,0:0:0:0:
352,96,10907,5,8,0:0:0:0:
352,96,11040,5,8,0:0:0:0:
352,96,11172,5,8,0:0:0:0:
160,288,11438,5,4,0:0:0:0:
352,288,11836,5,12,0:0:0:0:
256,192,12234,12,0,13031,0:0:0:0:
160,96,13562,5,0,0:0:0:0:
160,96,13960,5,0,0:0:0:0:
352,96,14624,5,8,0:0:0:0:
160,96,15686,5,0,0:0:0:0:
160,96,16084,5,0,0:0:0:0:
160,96,16482,5,0,0:0:0:0:
352,96,16748,5,8,0:0:0:0:
352,96,17544,5,8,0:0:0:0:
160,96,17810,5,0,0:0:0:0:
160,96,18208,5,0,0:0:0:0:
352,96,18872,5,8,0:0:0:0:
160,96,19934,5,0,0:0:0:0:
160,96,20332,5,0,0:0:0:0:
352,96,20863,5,8,0:0:0:0:
160,288,22057,5,4,0:0:0:0:
352,96,22323,5,8,0:0:0:0:
160,96,22456,5,0,0:0:0:0:
352,96,22721,5,8,0:0:0:0:
160,96,22987,5,0,0:0:0:0:
352,96,23119,5,8,0:0:0:0:
160,96,23252,5,0,0:0:0:0:
352,288,23518,5,12,0:0:0:0:
160,288,24181,5,4,0:0:0:0:
352,96,24447,5,8,0:0:0:0:
160,96,24580,5,0,0:0:0:0:
160,96,24845,5,0,0:0:0:0:
352,288,25111,5,12,0:0:0:0:
352,96,25642,5,8,0:0:0:0:
352,96,25774,5,8,0:0:0:0:
160,288,26305,5,4,0:0:0:0:
352,96,26571,5,8,0:0:0:0:
160,96,26703,5,0,0:0:0:0:
352,96,26836,5,8,0:0:0:0:
160,96,27102,5,0,0:0:0:0:
352,96,27367,5,8,0:0:0:0:
160,96,27500,5,0,0:0:0:0:
352,288,27765,5,12,0:0:0:0:
160,288,28429,5,4,0:0:0:0:
352,96,28695,5,8,0:0:0:0:
160,96,28827,5,0,0:0:0:0:
160,96,29093,5,0,0:0:0:0:
352,288,29358,5,12,0:0:0:0:
160,288,30553,5,4,0:0:0:0:
160,96,31349,5,0,0:0:0:0:
352,96,31615,5,8,0:0:0:0:
352,96,32411,5,8,0:0:0:0:
352,96,32544,5,8,0:0:0:0:
160,96,32677,5,0,0:0:0:0:
160,96,33075,5,0,0:0:0:0:
160,96,33473,5,0,0:0:0:0:
352,96,33739,5,8,0:0:0:0:
160,96,34004,5,0,0:0:0:0:
352,96,34270,5,8,0:0:0:0:
352,96,34535,5,8,0:0:0:0:
352,96,34668,5,8,0:0:0:0:
160,96,34801,5,0,0:0:0:0:
160,96,35597,5,0,0:0:0:0:
352,96,35863,5,8,0:0:0:0:
352,96,36261,5,8,0:0:0:0:
352,96,36659,5,8,0:0:0:0:
352,96,36792,5,8,0:0:0:0:
160,96,36925,5,0,0:0:0:0:
160,96,37323,5,0,0:0:0:0:
160,96,37721,5,0,0:0:0:0:
352,96,37987,5,8,0:0:0:0:
352,96,38518,5,8,0:0:0:0:
352,96,38650,5,8,0:0:0:0:
352,96,38783,5,8,0:0:0:0:
160,96,39049,5,0,0:0:0:0:
352,96,39314,5,8,0:0:0:0:
160,96,39580,5,0,0:0:0:0:
352,96,39845,5,8,0:0:0:0:
160,96,40111,5,0,0:0:0:0:
352,96,40376,5,8,0:0:0:0:
160,96,40509,5,0,0:0:0:0:
352,96,40774,5,8,0:0:0:0:
160,96,41040,5,0,0:0:0:0:
352,96,41172,5,8,0:0:0:0:
352,96,41438,5,8,0:0:0:0:
352,96,41571,5,8,0:0:0:0:
160,96,41703,5,0,0:0:0:0:
352,96,41969,5,8,0:0:0:0:
235,227,42234,6,0,L|318:228,8,65
160,288,45420,5,4,0:0:0:0:
160,96,45819,5,0,0:0:0:0:
352,96,45951,5,8,0:0:0:0:
160,96,46217,5,0,0:0:0:0:
352,96,46482,5,8,0:0:0:0:
160,96,46615,5,0,0:0:0:0:
160,96,46880,5,0,0:0:0:0:
352,96,47013,5,8,0:0:0:0:
352,96,47146,5,8,0:0:0:0:
160,96,47279,5,0,0:0:0:0:
160,288,47544,5,4,0:0:0:0:
160,288,47942,5,4,0:0:0:0:
160,288,48341,5,4,0:0:0:0:
352,288,48739,5,12,0:0:0:0:
160,288,49668,5,4,0:0:0:0:
352,96,49933,5,8,0:0:0:0:
160,96,50198,5,0,0:0:0:0:
352,96,50464,5,8,0:0:0:0:
160,96,50597,5,0,0:0:0:0:
160,96,50862,5,0,0:0:0:0:
352,96,50995,5,8,0:0:0:0:
160,96,51260,5,0,0:0:0:0:
160,96,51393,5,0,0:0:0:0:
352,96,51526,5,8,0:0:0:0:
160,96,51791,5,0,0:0:0:0:
352,96,52057,5,8,0:0:0:0:
160,96,52322,5,0,0:0:0:0:
352,96,52588,5,8,0:0:0:0:
160,96,52721,5,0,0:0:0:0:
352,96,53119,5,8,0:0:0:0:
160,96,53384,5,0,0:0:0:0:
160,96,53517,5,0,0:0:0:0:
352,96,53650,5,8,0:0:0:0:
160,96,53915,5,0,0:0:0:0:
352,96,54181,5,8,0:0:0:0:
160,96,54446,5,0,0:0:0:0:
352,96,54712,5,8,0:0:0:0:
160,96,54844,5,0,0:0:0:0:
160,96,55110,5,0,0:0:0:0:
352,96,55243,5,8,0:0:0:0:
160,96,55508,5,0,0:0:0:0:
160,96,55641,5,0,0:0:0:0:
352,96,55774,5,8,0:0:0:0:
160,96,56039,5,0,0:0:0:0:
352,96,56305,5,8,0:0:0:0:
160,96,56570,5,0,0:0:0:0:
352,96,56836,5,8,0:0:0:0:
160,96,56968,5,0,0:0:0:0:
352,96,57632,5,8,0:0:0:0:
352,96,57765,5,8,0:0:0:0:
160,96,58030,5,0,0:0:0:0:
352,96,58429,5,8,0:0:0:0:
160,96,58694,5,0,0:0:0:0:
352,96,58960,5,8,0:0:0:0:
160,96,59092,5,0,0:0:0:0:
352,96,59491,5,8,0:0:0:0:
160,96,59756,5,0,0:0:0:0:
352,96,59889,5,8,0:0:0:0:
160,96,60154,5,0,0:0:0:0:
352,96,60552,5,8,0:0:0:0:
160,96,60818,5,0,0:0:0:0:
352,96,61083,5,8,0:0:0:0:
160,96,61216,5,0,0:0:0:0:
352,96,61614,5,8,0:0:0:0:
160,96,61880,5,0,0:0:0:0:
160,96,62013,5,0,0:0:0:0:
352,96,62145,5,8,0:0:0:0:
160,96,62411,5,0,0:0:0:0:
160,96,62942,5,0,0:0:0:0:
352,96,63207,5,8,0:0:0:0:
160,96,63340,5,0,0:0:0:0:
160,96,63606,5,0,0:0:0:0:
352,96,63738,5,8,0:0:0:0:
352,96,64004,5,8,0:0:0:0:
352,96,64137,5,8,0:0:0:0:
352,96,64269,5,8,0:0:0:0:
160,288,64535,5,4,0:0:0:0:
160,288,64933,5,4,0:0:0:0:
160,288,65331,5,4,0:0:0:0:
352,288,65729,5,12,0:0:0:0:
352,96,66393,5,8,0:0:0:0:
160,288,66659,5,4,0:0:0:0:
352,96,66924,5,8,0:0:0:0:
160,96,67190,5,0,0:0:0:0:
352,96,67455,5,8,0:0:0:0:
160,96,67588,5,0,0:0:0:0:
160,96,67853,5,0,0:0:0:0:
352,96,67986,5,8,0:0:0:0:
160,96,68252,5,0,0:0:0:0:
160,96,68384,5,0,0:0:0:0:
352,96,68517,5,8,0:0:0:0:
160,96,68783,5,0,0:0:0:0:
352,96,69048,5,8,0:0:0:0:
160,96,69314,5,0,0:0:0:0:
352,96,69579,5,8,0:0:0:0:
160,96,69712,5,0,0:0:0:0:
352,96,70110,5,8,0:0:0:0:
160,96,70375,5,0,0:0:0:0:
160,96,70508,5,0,0:0:0:0:
352,96,70641,5,8,0:0:0:0:
160,96,70906,5,0,0:0:0:0:
352,96,71172,5,8,0:0:0:0:
160,96,71437,5,0,0:0:0:0:
352,96,71703,5,8,0:0:0:0:
160,96,71836,5,0,0:0:0:0:
160,96,72101,5,0,0:0:0:0:
352,96,72234,5,8,0:0:0:0:
160,96,72499,5,0,0:0:0:0:
160,96,72632,5,0,0:0:0:0:
352,96,72765,5,8,0:0:0:0:
160,96,73030,5,0,0:0:0:0:
352,96,73296,5,8,0:0:0:0:
160,96,73561,5,0,0:0:0:0:
352,96,73827,5,8,0:0:0:0:
160,96,73960,5,0,0:0:0:0:
352,96,74358,5,8,0:0:0:0:
352,96,74623,5,8,0:0:0:0:
352,96,74889,5,8,0:0:0:0:
160,288,75154,5,4,0:0:0:0:
352,96,75685,5,8,0:0:0:0:
160,96,75951,5,0,0:0:0:0:
352,96,76083,5,8,0:0:0:0:
160,96,76216,5,0,0:0:0:0:
160,96,76482,5,0,0:0:0:0:
352,96,76747,5,8,0:0:0:0:
352,96,77013,5,8,0:0:0:0:
160,288,77278,5,4,0:0:0:0:
352,96,77809,5,8,0:0:0:0:
160,96,78075,5,0,0:0:0:0:
160,96,78207,5,0,0:0:0:0:
352,96,78340,5,8,0:0:0:0:
160,96,78606,5,0,0:0:0:0:
352,96,78871,5,8,0:0:0:0:
352,288,79402,5,12,0:0:0:0:
352,288,79800,5,12,0:0:0:0:
160,288,80198,5,4,0:0:0:0:
160,288,80597,5,4,0:0:0:0:
352,288,80995,5,12,0:0:0:0:
160,96,81260,5,0,0:0:0:0:
352,288,81526,5,12,0:0:0:0:
352,288,81924,5,12,0:0:0:0:
160,288,82322,5,4,0:0:0:0:
352,288,82721,5,12,0:0:0:0:
352,288,83119,5,12,0:0:0:0:
160,288,83650,5,4,0:0:0:0:
160,288,84048,5,4,0:0:0:0:
160,288,84446,5,4,0:0:0:0:
352,288,84844,5,12,0:0:0:0:
352,96,85243,5,8,0:0:0:0:
352,96,85375,5,8,0:0:0:0:
352,96,85508,5,8,0:0:0:0:
160,288,85774,5,4,0:0:0:0:
352,288,86172,5,12,0:0:0:0:
256,192,86570,12,0,87898,0:0:0:0:
