osu file format v14

[General]
AudioFilename: audio.mp3
AudioLeadIn: 0
PreviewTime: 49336
Countdown: 0
SampleSet: Normal
StackLeniency: 0.7
Mode: 1
LetterboxInBreaks: 0
WidescreenStoryboard: 0

[Editor]
DistanceSpacing: 1
BeatDivisor: 4
GridSize: 32
TimelineZoom: 3.599999

[Metadata]
Title:Seishun no Archive (TV Size)
TitleUnicode:青春のアーカイブ (TV Size)
Artist:Abydos High School Foreclosure Task Force
ArtistUnicode:アビドス高等学校対策委員会
Creator:ler1211
Version:Wish
Source:ブルーアーカイブ The Animation
Tags:waribashi layxa komasy _gt ktyn アビドス廃校対策委員会 Countermeasure Council Committee Blue Archive 블루 아카이브 蔚藍檔案 蔚蓝档案 小鳥遊ホシノ Takanashi Hoshino 花守ゆみり Hanamori yumiri 砂狼シロコ Sunaookami Shiroko 小倉唯 Ogura yui 十六夜ノノミ Izayoi Nonomi 三浦千幸 miura chiyuki 黒見セリカ Kuromi Serika 大橋彩香 ohashi ayaka 奥空アヤネ Okusora Ayane 原田彩楓 sayaka harada ブルアカ BuruAka Buru Aka NAT Games NEXON Yostar 40mp 40meterp 40meter-p japanese pop jpop j-pop anime opening op
BeatmapID:4563311
BeatmapSetID:2163686

[Difficulty]
HPDrainRate:6
CircleSize:5
OverallDifficulty:6
ApproachRate:5
SliderMultiplier:1.4
SliderTickRate:1

[Events]
//Background and Video events
0,0,"arona.png",0,0
Video,-90,"seishun.mp4"
//Break Periods
//Storyboard Layer 0 (Background)
//Storyboard Layer 1 (Fail)
//Storyboard Layer 2 (Pass)
//Storyboard Layer 3 (Foreground)
//Storyboard Layer 4 (Overlay)
//Storyboard Sound Samples

[TimingPoints]
819,265.486725663717,4,1,0,70,1,0
819,-83.3333333333333,4,1,0,70,0,0
950,-85.2260225954019,4,1,0,70,0,0
1082,-87.1616991291835,4,1,0,70,0,0
1215,-89.141339273249,4,1,0,70,0,0
1348,-91.1659415410358,4,1,0,70,0,0
1481,-93.2365271244889,4,1,0,70,0,0
1613,-95.3541404091419,4,1,0,70,0,0
1746,-97.5198495008959,4,1,0,70,0,0
1879,-99.7347467647626,4,1,0,70,0,0
2012,-101.999949375844,4,1,0,70,0,0
2144,-104.316599882827,4,1,0,70,0,0
2277,-106.685866784271,4,1,0,70,0,0
2410,-109.108945117996,4,1,0,70,0,0
2543,-111.587057063842,4,1,0,70,0,0
2675,-114.121452560129,4,1,0,70,0,0
2808,-116.713409934115,4,1,0,70,0,0
2941,-119.364236546776,4,1,0,70,0,0
3074,-122.075269452221,4,1,0,70,0,0
3206,-124.847876072097,4,1,0,70,0,0
3339,-127.683454885302,4,1,0,70,0,0
3472,-130.583436133365,4,1,0,70,0,0
3605,-133.549282541848,4,1,0,70,0,0
3737,-136.582490058136,4,1,0,70,0,0
3870,-139.684588605971,4,1,0,70,0,0
4002,-142.857142857143,4,1,0,70,0,0
4135,-138.439142730199,4,1,0,80,0,0
4267,-134.157773679107,4,1,0,80,0,0
4400,-130.008810251094,4,1,0,80,0,0
4533,-125.988157669742,4,1,0,80,0,0
4666,-122.091847793694,4,1,0,80,0,0
4798,-118.316035200335,4,1,0,80,0,0
4931,-114.656993390593,4,1,0,80,0,0
5064,-76.9230769230769,4,1,0,90,0,0
5197,-79.4876333789852,4,1,0,90,0,0
5329,-82.1376901824954,4,1,0,90,0,0
5462,-84.8760978496973,4,1,0,90,0,0
5595,-87.7058019307029,4,1,0,90,0,0
5728,-90.6298461780088,4,1,0,90,0,0
5860,-93.651375820488,4,1,0,90,0,0
5993,-96.7736409465346,4,1,0,90,0,0
6126,-100,4,1,0,90,0,0
6192,-99.1302918931595,4,1,0,90,0,0
6259,-98.2681477082301,4,1,0,90,0,0
6325,-97.4135016611696,4,1,0,90,0,0
6391,-96.5662885400652,4,1,0,90,0,0
6458,-95.7264437001573,4,1,0,90,0,0
6524,-94.8939030589069,4,1,0,90,0,0
6591,-94.0686030911063,4,1,0,90,0,0
6657,-93.2504808240313,4,1,0,90,0,0
6723,-92.439473832637,4,1,0,90,0,0
6790,-91.6355202347938,4,1,0,90,0,0
6856,-90.8385586865664,4,1,0,90,0,0
6922,-90.0485283775323,4,1,0,90,0,0
6989,-89.2653690261423,4,1,0,90,0,0
7055,-88.4890208751209,4,1,0,90,0,0
7122,-87.7194246869062,4,1,0,90,0,0
7188,-76.9230769230769,4,1,0,90,0,0
7321,-79.4876333789852,4,1,0,90,0,0
7453,-82.1376901824954,4,1,0,90,0,0
7586,-84.8760978496973,4,1,0,90,0,0
7719,-87.7058019307029,4,1,0,90,0,0
7852,-90.6298461780088,4,1,0,90,0,0
7984,-93.651375820488,4,1,0,90,0,0
8117,-96.7736409465346,4,1,0,90,0,0
8250,-100,4,1,0,90,0,0
8383,-76.9230769230769,4,1,0,90,0,0
8449,-78.1055576026503,4,1,0,90,0,0
8516,-79.3062156694721,4,1,0,90,0,0
8582,-80.5253305508621,4,1,0,90,0,0
8648,-81.7631859695667,4,1,0,90,0,0
8715,-83.0200700097886,4,1,0,90,0,0
8781,-84.2962751842329,4,1,0,90,0,0
8848,-85.5920985021826,4,1,0,90,0,0
8914,-86.9078415386213,4,1,0,90,0,0
8980,-88.2438105044183,4,1,0,90,0,0
9047,-89.6003163175926,4,1,0,90,0,0
9113,-90.9776746756725,4,1,0,90,0,0
9179,-92.376206129167,4,1,0,90,0,0
9246,-93.7962361561674,4,1,0,90,0,0
9312,-76.9230769230769,4,1,0,90,0,0
9445,-79.4876333789852,4,1,0,90,0,0
9577,-82.1376901824954,4,1,0,90,0,0
9710,-84.8760978496973,4,1,0,90,0,0
9843,-87.7058019307029,4,1,0,90,0,0
9976,-90.6298461780088,4,1,0,90,0,0
10108,-93.651375820488,4,1,0,90,0,0
10241,-96.7736409465346,4,1,0,90,0,0
10374,-100,4,1,0,90,0,0
10440,-99.1302918931595,4,1,0,90,0,0
10507,-98.2681477082301,4,1,0,90,0,0
10573,-97.4135016611696,4,1,0,90,0,0
10639,-96.5662885400652,4,1,0,90,0,0
10706,-95.7264437001573,4,1,0,90,0,0
10772,-94.8939030589069,4,1,0,90,0,0
10839,-94.0686030911063,4,1,0,90,0,0
10905,-93.2504808240313,4,1,0,90,0,0
10971,-92.439473832637,4,1,0,90,0,0
11038,-91.6355202347938,4,1,0,90,0,0
11104,-90.8385586865664,4,1,0,90,0,0
11170,-90.0485283775323,4,1,0,90,0,0
11237,-89.2653690261423,4,1,0,90,0,0
11303,-88.4890208751209,4,1,0,90,0,0
11370,-87.7194246869062,4,1,0,90,0,0
11436,-76.9230769230769,4,1,0,90,0,0
11569,-79.4876333789852,4,1,0,90,0,0
11701,-82.1376901824954,4,1,0,90,0,0
11834,-84.8760978496973,4,1,0,90,0,0
11967,-87.7058019307029,4,1,0,90,0,0
12100,-90.6298461780088,4,1,0,90,0,0
12232,-93.651375820488,4,1,0,90,0,0
12365,-96.7736409465346,4,1,0,80,0,0
12498,-100,4,1,0,80,0,0
12631,-83.3333333333333,4,1,0,80,0,0
13429,-133.333333333333,4,1,0,70,0,0
20993,-133.333333333333,4,1,0,70,0,0
21059,-130.957406474035,4,1,0,71,0,0
21126,-128.623817328041,4,1,0,73,0,0
21192,-126.331811460527,4,1,0,74,0,0
21258,-124.08064788028,4,1,0,75,0,0
21325,-121.869598800145,4,1,0,76,0,0
21391,-119.697949401736,4,1,0,78,0,0
21458,-117.564997604337,4,1,0,79,0,0
21524,-115.470053837925,4,1,0,80,0,0
21590,-113.412440820239,4,1,0,81,0,0
21657,-111.391493337813,4,1,0,83,0,0
21723,-109.406558030922,4,1,0,84,0,0
21789,-107.456993182354,4,1,0,85,0,0
21856,-105.542168509943,4,1,0,86,0,0
21922,-103.661464962808,4,1,0,88,0,0
21989,-101.814274521212,4,1,0,89,0,0
22055,-100,4,1,0,90,0,0
23451,-76.9230769230769,4,1,0,90,0,0
23584,-100,4,1,0,40,0,0
24115,-100,4,1,0,90,0,0
25841,-100,4,1,0,70,0,0
26239,-100,4,1,0,90,0,0
27699,-76.9230769230769,4,1,0,90,0,0
27832,-100,4,1,0,40,0,0
28363,-100,4,1,0,90,0,0
29491,-100,4,1,0,70,0,0
30420,-133.333333333333,4,1,0,80,0,0
30686,-133.333333333333,4,1,0,70,0,0
37985,-133.333333333333,4,1,0,70,0,0
38051,-130.957406474035,4,1,0,71,0,0
38118,-128.623817328041,4,1,0,73,0,0
38184,-126.331811460527,4,1,0,74,0,0
38250,-124.08064788028,4,1,0,75,0,0
38317,-121.869598800145,4,1,0,76,0,0
38383,-119.697949401736,4,1,0,78,0,0
38450,-117.564997604337,4,1,0,79,0,0
38516,-115.470053837925,4,1,0,80,0,0
38582,-113.412440820239,4,1,0,81,0,0
38649,-111.391493337813,4,1,0,83,0,0
38715,-109.406558030922,4,1,0,84,0,0
38781,-107.456993182354,4,1,0,85,0,0
38848,-105.542168509943,4,1,0,86,0,0
38914,-103.661464962808,4,1,0,88,0,0
38981,-101.814274521212,4,1,0,89,0,0
39047,-100,4,1,0,90,0,0
41170,-100,4,1,0,90,0,0
41236,-99.431865159866,4,1,0,90,0,0
41303,-98.8669580916978,4,1,0,91,0,0
41369,-98.3052604573982,4,1,0,91,0,0
41435,-97.7467540230553,4,1,0,91,0,0
41502,-97.1914206583502,4,1,0,92,0,0
41568,-96.639242335969,4,1,0,92,0,0
41635,-96.0902011310168,4,1,0,92,0,0
41701,-95.5442792204367,4,1,0,93,0,0
41767,-95.0014588824305,4,1,0,93,0,0
41834,-94.4617224958839,4,1,0,93,0,0
41900,-93.9250525397941,4,1,0,93,0,0
41966,-93.3914315927014,4,1,0,94,0,0
42033,-92.8608423321234,4,1,0,94,0,0
42099,-92.3332675339927,4,1,0,94,0,0
42166,-91.808690072098,4,1,0,95,0,0
42232,-91.2870929175277,4,1,0,95,0,0
42298,-90.7684591381178,4,1,0,95,0,0
42365,-90.2527718979014,4,1,0,96,0,0
42431,-89.7400144565627,4,1,0,96,0,0
42497,-89.2301701688938,4,1,0,96,0,0
42564,-88.7232224842534,4,1,0,97,0,0
42630,-88.2191549460308,4,1,0,97,0,0
42697,-87.7179511911106,4,1,0,97,0,0
42763,-87.2195949493422,4,1,0,98,0,0
42829,-86.7240700430113,4,1,0,98,0,0
42896,-86.2313603863147,4,1,0,98,0,0
42962,-85.7414499848386,4,1,0,98,0,0
43028,-85.2543229350387,4,1,0,99,0,0
43095,-84.7699634237244,4,1,0,99,0,0
43161,-84.2883557275454,4,1,0,99,0,0
43228,-83.8094842124811,4,1,0,100,0,0
43294,-83.3333333333334,4,1,0,100,0,0
43385,-83.3333333333333,4,1,0,60,0,0
43471,-86.1971735943264,4,1,0,60,0,0
43648,-89.1594328278052,4,1,0,60,0,0
43825,-92.2234933083601,4,1,0,60,0,0
44002,-95.392853546111,4,1,0,60,0,0
44179,-98.6711322812674,4,1,0,60,0,0
44356,-102.062072615966,4,1,0,60,0,0
44533,-105.569546288102,4,1,0,60,0,0
44710,-109.197558092037,4,1,0,60,0,0
44887,-112.950250451231,4,1,0,60,0,0
45064,-116.831908148008,4,1,0,60,0,0
45241,-120.846963215883,4,1,0,60,0,0
45354,-125,4,1,0,90,0,0
45484,-123.76220937582,4,1,0,90,0,0
45551,-122.536675756674,4,1,0,90,0,0
45617,-121.323277769715,4,1,0,90,0,0
45683,-120.12189524397,4,1,0,90,0,0
45750,-118.932409198436,4,1,0,90,0,0
45816,-117.7547018303,4,1,0,90,0,0
45883,-116.58865650327,4,1,0,90,0,0
45949,-115.434157736026,4,1,0,90,0,0
46015,-114.291091190779,4,1,0,90,0,0
46082,-113.159343661953,4,1,0,90,0,0
46148,-112.038803064968,4,1,0,90,0,0
46214,-110.929358425142,4,1,0,90,0,0
46281,-109.830899866702,4,1,0,90,0,0
46347,-108.7433186019,4,1,0,90,0,0
46414,-107.666506920238,4,1,0,90,0,0
46480,-106.600358177805,4,1,0,90,0,0
46546,-105.544766786711,4,1,0,90,0,0
46613,-104.499628204632,4,1,0,90,0,0
46679,-103.464838924456,4,1,0,90,0,0
46745,-102.440296464032,4,1,0,90,0,0
46812,-101.42589935602,4,1,0,90,0,0
46878,-100.421547137845,4,1,0,90,0,0
46945,-99.4271403417416,4,1,0,90,0,0
47011,-98.442580484909,4,1,0,90,0,0
47077,-97.4677700597543,4,1,0,90,0,0
47144,-96.5026125242364,4,1,0,90,0,0
47210,-95.5470122923052,4,1,0,90,0,0
47276,-94.6008747244343,4,1,0,90,0,0
47343,-93.664106118249,4,1,0,90,0,0
47409,-92.7366136992458,4,1,0,90,0,0
47476,-76.9230769230769,4,1,0,100,0,0
49071,-111.111111111111,4,1,0,80,0,0
49104,-111.111111111111,4,1,0,80,0,1
49270,-111.111111111111,4,1,0,80,0,0
49403,-111.111111111111,4,1,0,100,0,0
49668,265.486725663717,4,1,0,100,1,1
49668,-90.9090909090909,4,1,0,100,0,1
58427,-80,4,1,0,100,0,1
58560,-82.0717043928187,4,1,0,100,0,1
58692,-84.1970582742778,4,1,0,100,0,1
58825,-86.3774509678932,4,1,0,100,0,1
58958,-88.6143077755265,4,1,0,100,0,1
59091,-90.9090909090909,4,1,0,100,0,1
60550,-80,4,1,0,100,0,1
60616,-80.7879604902876,4,1,0,100,0,1
60683,-81.5836820022534,4,1,0,100,0,1
60749,-82.387240978128,4,1,0,100,0,1
60815,-83.1987146130601,4,1,0,100,0,1
60882,-84.0181808625327,4,1,0,100,0,1
60948,-84.8457184498516,4,1,0,100,0,1
61015,-85.6814068737084,4,1,0,100,0,1
61081,-86.5253264158177,4,1,0,100,0,1
61147,-87.377558148629,4,1,0,100,0,1
61214,-88.2381839431156,4,1,0,100,0,1
61280,-89.1072864766394,4,1,0,100,0,1
61346,-89.9849492408936,4,1,0,100,0,1
61413,-90.871256549923,4,1,0,100,0,1
61479,-91.7662935482247,4,1,0,100,0,1
61546,-92.6701462189264,4,1,0,100,0,1
61612,-93.5829013920475,4,1,0,100,0,1
61678,-94.5046467528402,4,1,0,100,0,1
61745,-95.435470850213,4,1,0,100,0,1
61811,-96.3754631052375,4,1,0,100,0,1
61877,-97.3247138197388,4,1,0,100,0,1
61944,-98.2833141849701,4,1,0,100,0,1
62010,-99.2513562903736,4,1,0,100,0,1
62077,-100.228933132427,4,1,0,100,0,1
62143,-101.216138623577,4,1,0,100,0,1
62209,-102.213067601263,4,1,0,100,0,1
62276,-103.219815837024,4,1,0,100,0,1
62342,-104.236480045703,4,1,0,100,0,1
62409,-105.263157894737,4,1,0,100,0,1
62475,-104.78201261545,4,1,0,100,0,1
62542,-104.30306659357,4,1,0,100,0,1
62608,-103.826309776557,4,1,0,100,0,1
62674,-103.351732157816,4,1,0,100,0,1
62741,-102.879323776494,4,1,0,100,0,1
62807,-102.409074717266,4,1,0,100,0,1
62874,-101.940975110131,4,1,0,100,0,1
62940,-101.475015130199,4,1,0,100,0,1
63006,-101.011184997492,4,1,0,100,0,1
63073,-100.549474976732,4,1,0,100,0,1
63139,-100.089875377144,4,1,0,100,0,1
63205,-99.6323765522431,4,1,0,100,0,1
63272,-99.1769688996413,4,1,0,100,0,1
63338,-98.7236428608405,4,1,0,100,0,1
63405,-98.2723889210334,4,1,0,100,0,1
63471,-97.8231976089038,4,1,0,100,0,1
63537,-97.3760594964279,4,1,0,100,0,1
63604,-96.930965198676,4,1,0,100,0,1
63670,-96.487905373616,4,1,0,100,0,1
63736,-96.0468707219171,4,1,0,100,0,1
63803,-95.6078519867545,4,1,0,100,0,1
63869,-95.1708399536154,4,1,0,100,0,1
63936,-94.7358254501052,4,1,0,100,0,1
64002,-94.3027993457555,4,1,0,100,0,1
64068,-93.8717525518321,4,1,0,100,0,1
64135,-93.442676021144,4,1,0,100,0,1
64201,-93.0155607478544,4,1,0,100,0,1
64267,-92.5903977672905,4,1,0,100,0,1
64334,-92.1671781557564,4,1,0,100,0,1
64400,-91.7458930303451,4,1,0,100,0,1
64467,-91.3265335487524,4,1,0,100,0,1
64535,-76.9230769230769,4,1,0,100,0,0
65993,-100,4,1,0,100,0,0
66059,-99.0514258214522,4,1,0,100,0,0
66126,-98.1118495726264,4,1,0,100,0,0
66192,-97.1811859014848,4,1,0,100,0,0
66258,-96.2593502656168,4,1,0,100,0,0
66325,-95.3462589245593,4,1,0,100,0,0
66391,-94.4418289321895,4,1,0,100,0,0
66458,-93.5459781291905,4,1,0,100,0,0
66524,-92.658625135587,4,1,0,100,0,0
66590,-91.7796893433534,4,1,0,100,0,0
66659,-90.9090909090909,4,1,0,100,0,1
75287,-111.111111111111,4,1,0,100,0,1
77276,-111.111111111111,4,1,0,100,0,1
77342,-110.416518021686,4,1,0,100,0,1
77409,-109.7262670683,4,1,0,100,0,1
77475,-109.040331106794,4,1,0,100,0,1
77541,-108.358683162696,4,1,0,100,0,1
77608,-107.68129643016,4,1,0,100,0,1
77674,-107.008144270913,4,1,0,100,0,1
77741,-106.339200213209,4,1,0,100,0,1
77807,-105.674437950781,4,1,0,100,0,1
77873,-105.013831341816,4,1,0,100,0,1
77940,-104.357354407919,4,1,0,100,0,1
78006,-103.704981333098,4,1,0,100,0,1
78072,-103.056686462742,4,1,0,100,0,1
78139,-102.412444302617,4,1,0,100,0,1
78205,-101.772229517864,4,1,0,100,0,1
78272,-101.136016931998,4,1,0,100,0,1
78338,-100.503781525921,4,1,0,100,0,1
78404,-99.8754984369405,4,1,0,100,0,1
78471,-99.251142957786,4,1,0,100,0,1
78537,-98.6306905356421,4,1,0,100,0,1
78603,-98.0141167711807,4,1,0,100,0,1
78670,-97.4013974176026,4,1,0,100,0,1
78736,-96.7925083796833,4,1,0,100,0,1
78803,-96.1874257128257,4,1,0,100,0,1
78869,-95.5861256221184,4,1,0,100,0,1
78935,-94.9885844614002,4,1,0,100,0,1
79002,-94.39477873233,4,1,0,100,0,1
79068,-93.8046850834625,4,1,0,100,0,1
79134,-93.2182803093307,4,1,0,100,0,1
79201,-92.6355413495323,4,1,0,100,0,1
79267,-92.0564452878237,4,1,0,100,0,1
79334,-91.4809693512182,4,1,0,100,0,1
79400,-71.4285714285714,4,1,0,100,0,1
79466,-72.1835879798912,4,1,0,100,0,1
79533,-72.9465852311097,4,1,0,100,0,1
79599,-73.7176475400742,4,1,0,100,0,1
79665,-74.4968601563138,4,1,0,100,0,1
79732,-75.284309230465,4,1,0,100,0,1
79798,-76.0800818237965,4,1,0,100,0,1
79865,-76.8842659178347,4,1,0,100,0,1
79931,-77.6969504240912,4,1,0,100,0,1
79997,-78.5182251938929,4,1,0,100,0,1
80064,-79.3481810283159,4,1,0,100,0,1
80130,-80.1869096882248,4,1,0,100,0,1
80196,-81.0345039044179,4,1,0,100,0,1
80263,-81.8910573878795,4,1,0,100,0,1
80329,-82.7566648401405,4,1,0,100,0,1
80396,-83.6314219637491,4,1,0,100,0,1
80462,-84.5154254728516,4,1,0,100,0,1
80528,-85.4087731038853,4,1,0,100,0,1
80595,-86.3115636263842,4,1,0,100,0,1
80661,-87.2238968538992,4,1,0,100,0,1
80727,-88.1458736550334,4,1,0,100,0,1
80794,-89.0775959645947,4,1,0,100,0,1
80860,-90.0191667948653,4,1,0,100,0,1
80927,-90.9706902469913,4,1,0,100,0,1
80993,-91.9322715224918,4,1,0,100,0,1
81059,-92.9040169348905,4,1,0,100,0,1
81126,-93.8860339214696,4,1,0,100,0,1
81192,-94.8784310551483,4,1,0,100,0,1
81258,-95.8813180564867,4,1,0,100,0,1
81325,-96.8948058058168,4,1,0,100,0,1
81391,-97.9190063555011,4,1,0,100,0,1
81458,-98.9540329423218,4,1,0,100,0,1
81524,-71.4285714285714,4,1,0,100,0,1
81590,-72.1835879798912,4,1,0,100,0,1
81657,-72.9465852311097,4,1,0,100,0,1
81723,-73.7176475400742,4,1,0,100,0,1
81789,-74.4968601563138,4,1,0,100,0,1
81856,-75.284309230465,4,1,0,100,0,1
81922,-76.0800818237965,4,1,0,100,0,1
81989,-76.8842659178347,4,1,0,100,0,1
82055,-77.6969504240912,4,1,0,100,0,1
82121,-78.5182251938929,4,1,0,100,0,1
82188,-79.3481810283159,4,1,0,100,0,1
82254,-80.1869096882248,4,1,0,100,0,1
82320,-81.0345039044179,4,1,0,100,0,1
82387,-81.8910573878795,4,1,0,100,0,1
82453,-82.7566648401405,4,1,0,100,0,1
82520,-83.6314219637491,4,1,0,100,0,1
82586,-84.5154254728516,4,1,0,100,0,1
82652,-85.4087731038853,4,1,0,100,0,1
82719,-86.3115636263842,4,1,0,100,0,1
82785,-87.2238968538992,4,1,0,100,0,1
82851,-88.1458736550334,4,1,0,100,0,1
82918,-89.0775959645947,4,1,0,100,0,1
82984,-90.0191667948653,4,1,0,100,0,1
83051,-90.9706902469913,4,1,0,100,0,1
83117,-91.9322715224918,4,1,0,100,0,1
83183,-92.9040169348905,4,1,0,100,0,1
83250,-93.8860339214696,4,1,0,100,0,1
83316,-94.8784310551483,4,1,0,100,0,1
83382,-95.8813180564867,4,1,0,100,0,1
83449,-96.8948058058168,4,1,0,100,0,1
83515,-97.9190063555011,4,1,0,100,0,1
83582,-98.9540329423218,4,1,0,100,0,1
83650,-76.9230769230769,4,1,0,90,0,0
83781,-79.4876333789852,4,1,0,90,0,0
83913,-82.1376901824954,4,1,0,90,0,0
84046,-84.8760978496973,4,1,0,90,0,0
84179,-87.7058019307029,4,1,0,90,0,0
84312,-90.6298461780088,4,1,0,90,0,0
84444,-93.651375820488,4,1,0,90,0,0
84577,-96.7736409465346,4,1,0,90,0,0
84710,-100,4,1,0,90,0,0
84776,-99.1302918931595,4,1,0,90,0,0
84843,-98.2681477082301,4,1,0,90,0,0
84909,-97.4135016611696,4,1,0,90,0,0
84975,-96.5662885400652,4,1,0,90,0,0
85042,-95.7264437001573,4,1,0,90,0,0
85108,-94.8939030589069,4,1,0,90,0,0
85175,-94.0686030911063,4,1,0,90,0,0
85241,-93.2504808240313,4,1,0,90,0,0
85307,-92.439473832637,4,1,0,90,0,0
85374,-91.6355202347938,4,1,0,90,0,0
85440,-90.8385586865664,4,1,0,90,0,0
85506,-90.0485283775323,4,1,0,90,0,0
85573,-89.2653690261423,4,1,0,90,0,0
85639,-88.4890208751209,4,1,0,90,0,0
85706,-87.7194246869062,4,1,0,90,0,0
85772,-76.9230769230769,4,1,0,90,0,0
85905,-79.4876333789852,4,1,0,90,0,0
86037,-82.1376901824954,4,1,0,90,0,0
86170,-84.8760978496973,4,1,0,90,0,0
86303,-87.7058019307029,4,1,0,90,0,0
86436,-90.6298461780088,4,1,0,90,0,0
86568,-93.651375820488,4,1,0,90,0,0
86701,-96.7736409465346,4,1,0,80,0,0
86834,-100,4,1,0,75,0,0
87099,-105.263157894737,4,1,0,65,0,0
87365,-111.111111111111,4,1,0,55,0,0
87630,-117.647058823529,4,1,0,45,0,0
87831,-125,4,1,0,45,0,0

[HitObjects]
256,192,819,5,0,0:0:0:0:
256,192,1217,1,0,0:0:0:0:
256,192,1615,1,8,0:0:0:0:
256,192,2146,8,0,4004,0:0:0:0:
259,189,4270,5,0,0:0:0:0:
259,189,4403,1,8,0:0:0:0:
259,189,4535,1,8,0:0:0:0:
259,189,4668,1,0,0:0:0:0:
259,189,4801,1,8,0:0:0:0:
259,189,4934,1,8,0:0:0:0:
259,189,5066,1,4,0:0:0:0:
259,189,5332,1,8,0:0:0:0:
259,189,5465,1,4,0:0:0:0:
259,189,5730,1,8,0:0:0:0:
259,189,5863,1,4,0:0:0:0:
259,189,6128,1,8,0:0:0:0:
259,189,6261,1,0,0:0:0:0:
259,189,6327,1,0,0:0:0:0:
259,189,6394,1,8,0:0:0:0:
259,189,6460,1,8,0:0:0:0:
259,189,6526,1,0,0:0:0:0:
259,189,6659,1,8,0:0:0:0:
259,189,6792,1,8,0:0:0:0:
259,189,6925,1,8,0:0:0:0:
259,189,7057,1,8,0:0:0:0:
259,189,7190,1,4,0:0:0:0:
259,189,7456,1,8,0:0:0:0:
259,189,7589,1,4,0:0:0:0:
259,189,7854,1,8,0:0:0:0:
259,189,7987,1,4,0:0:0:0:
259,189,8252,1,0,0:0:0:0:
259,189,8385,1,12,0:0:0:0:
259,189,8650,1,0,0:0:0:0:
259,189,8783,1,8,0:0:0:0:
259,189,8849,1,8,0:0:0:0:
259,189,8916,1,0,0:0:0:0:
259,189,8982,1,0,0:0:0:0:
259,189,9049,1,8,0:0:0:0:
259,189,9181,1,8,0:0:0:0:
259,189,9314,1,4,0:0:0:0:
259,189,9580,1,8,0:0:0:0:
259,189,9713,1,4,0:0:0:0:
259,189,9978,1,8,0:0:0:0:
259,189,10111,1,4,0:0:0:0:
259,189,10376,1,8,0:0:0:0:
259,189,10509,1,0,0:0:0:0:
259,189,10575,1,8,0:0:0:0:
259,189,10642,1,8,0:0:0:0:
259,189,10708,1,8,0:0:0:0:
259,189,10774,1,0,0:0:0:0:
259,189,10907,1,8,0:0:0:0:
259,189,11040,1,8,0:0:0:0:
259,189,11172,1,8,0:0:0:0:
259,189,11305,1,8,0:0:0:0:
259,189,11438,1,4,0:0:0:0:
259,189,11704,1,8,0:0:0:0:
259,189,11837,1,4,0:0:0:0:
259,189,12102,1,0,0:0:0:0:
259,189,12235,1,12,0:0:0:0:
256,192,12367,12,0,12898,0:0:0:0:
259,189,13031,5,8,0:0:0:0:
259,189,13562,1,0,0:0:0:0:
259,189,13960,1,0,0:0:0:0:
259,189,14226,1,8,0:0:0:0:
259,189,14358,1,0,0:0:0:0:
259,189,14624,1,8,0:0:0:0:
259,189,15022,1,0,0:0:0:0:
259,189,15288,1,8,0:0:0:0:
259,189,15420,1,8,0:0:0:0:
259,189,15487,1,8,0:0:0:0:
259,189,15553,1,8,0:0:0:0:
256,192,15686,1,0,0:0:0:0:
256,192,16084,1,0,0:0:0:0:
259,189,16349,1,8,0:0:0:0:
259,189,16482,1,0,0:0:0:0:
256,192,16748,1,8,0:0:0:0:
256,192,17013,1,8,0:0:0:0:
259,189,17146,1,0,0:0:0:0:
259,189,17279,1,8,0:0:0:0:
259,189,17411,1,0,0:0:0:0:
256,192,17544,1,8,0:0:0:0:
256,192,17677,1,8,0:0:0:0:
256,192,17743,1,8,0:0:0:0:
256,192,17810,1,0,0:0:0:0:
256,192,18208,1,0,0:0:0:0:
256,192,18473,1,8,0:0:0:0:
256,192,18606,1,0,0:0:0:0:
256,192,18739,1,0,0:0:0:0:
256,192,18872,1,8,0:0:0:0:
256,192,19137,1,8,0:0:0:0:
256,192,19270,1,0,0:0:0:0:
256,192,19535,1,8,0:0:0:0:
256,192,19668,1,8,0:0:0:0:
256,192,19734,1,8,0:0:0:0:
256,192,19801,1,8,0:0:0:0:
256,192,19867,1,8,0:0:0:0:
256,192,19934,1,0,0:0:0:0:
256,192,20332,1,0,0:0:0:0:
256,192,20465,1,8,0:0:0:0:
256,192,20597,1,0,0:0:0:0:
256,192,20863,1,8,0:0:0:0:
256,192,20995,1,0,0:0:0:0:
256,192,21128,1,0,0:0:0:0:
256,192,21261,1,0,0:0:0:0:
256,192,21394,1,0,0:0:0:0:
256,192,21526,1,0,0:0:0:0:
256,192,21659,1,8,0:0:0:0:
256,192,21726,1,8,0:0:0:0:
256,192,21792,1,8,0:0:0:0:
256,192,21925,1,8,0:0:0:0:
256,192,22057,1,4,0:0:0:0:
256,192,22257,1,0,0:0:0:0:
256,192,22323,1,8,0:0:0:0:
256,192,22456,1,0,0:0:0:0:
256,192,22522,1,0,0:0:0:0:
256,192,22588,1,8,0:0:0:0:
256,192,22655,1,8,0:0:0:0:
256,192,22721,1,0,0:0:0:0:
256,192,22854,1,8,0:0:0:0:
256,192,22987,1,0,0:0:0:0:
256,192,23053,1,0,0:0:0:0:
256,192,23119,1,8,0:0:0:0:
256,192,23252,1,8,0:0:0:0:
256,192,23518,1,4,0:0:0:0:
256,192,24181,1,4,0:0:0:0:
256,192,24380,1,0,0:0:0:0:
256,192,24447,1,8,0:0:0:0:
256,192,24580,1,0,0:0:0:0:
256,192,24646,1,0,0:0:0:0:
256,192,24712,1,8,0:0:0:0:
256,192,24845,1,0,0:0:0:0:
256,192,24911,1,0,0:0:0:0:
256,192,24978,1,0,0:0:0:0:
256,192,25111,1,12,0:0:0:0:
256,192,25376,1,0,0:0:0:0:
256,192,25509,1,0,0:0:0:0:
256,192,25642,1,0,0:0:0:0:
256,192,25708,1,0,0:0:0:0:
256,192,25774,1,8,0:0:0:0:
256,192,26305,1,4,0:0:0:0:
256,192,26504,1,0,0:0:0:0:
256,192,26571,1,8,0:0:0:0:
256,192,26703,1,0,0:0:0:0:
256,192,26770,1,0,0:0:0:0:
256,192,26836,1,8,0:0:0:0:
256,192,26903,1,0,0:0:0:0:
256,192,26969,1,0,0:0:0:0:
256,192,27102,1,8,0:0:0:0:
256,192,27234,1,0,0:0:0:0:
256,192,27301,1,0,0:0:0:0:
256,192,27367,1,8,0:0:0:0:
256,192,27500,1,0,0:0:0:0:
256,192,27765,1,12,0:0:0:0:
256,192,28429,1,4,0:0:0:0:
256,192,28628,1,0,0:0:0:0:
256,192,28695,1,8,0:0:0:0:
256,192,28827,1,0,0:0:0:0:
256,192,28894,1,0,0:0:0:0:
256,192,28960,1,8,0:0:0:0:
256,192,29026,1,0,0:0:0:0:
256,192,29093,1,8,0:0:0:0:
256,192,29159,1,8,0:0:0:0:
256,192,29226,1,0,0:0:0:0:
256,192,29358,1,12,0:0:0:0:
256,192,29491,12,0,30288,0:0:0:0:
256,192,30553,5,4,0:0:0:0:
256,192,30819,1,8,0:0:0:0:
256,192,30951,1,0,0:0:0:0:
256,192,31349,1,8,0:0:0:0:
256,192,31615,1,8,0:0:0:0:
256,192,31880,1,0,0:0:0:0:
256,192,32013,1,0,0:0:0:0:
256,192,32411,1,8,0:0:0:0:
256,192,32544,1,8,0:0:0:0:
256,192,32677,1,0,0:0:0:0:
256,192,32942,1,8,0:0:0:0:
256,192,33075,1,8,0:0:0:0:
256,192,33473,1,0,0:0:0:0:
256,192,33606,1,0,0:0:0:0:
256,192,33739,1,8,0:0:0:0:
256,192,34004,1,0,0:0:0:0:
256,192,34137,1,0,0:0:0:0:
256,192,34203,1,0,0:0:0:0:
256,192,34270,1,8,0:0:0:0:
256,192,34403,1,0,0:0:0:0:
256,192,34535,1,8,0:0:0:0:
256,192,34668,1,8,0:0:0:0:
256,192,34734,1,8,0:0:0:0:
256,192,34801,1,0,0:0:0:0:
256,192,35066,1,8,0:0:0:0:
256,192,35199,1,0,0:0:0:0:
256,192,35465,1,0,0:0:0:0:
256,192,35597,1,8,0:0:0:0:
256,192,35730,1,0,0:0:0:0:
256,192,35863,1,8,0:0:0:0:
256,192,36128,1,0,0:0:0:0:
256,192,36261,1,0,0:0:0:0:
256,192,36526,1,0,0:0:0:0:
256,192,36659,1,8,0:0:0:0:
256,192,36792,1,8,0:0:0:0:
256,192,36925,1,0,0:0:0:0:
256,192,37190,1,8,0:0:0:0:
256,192,37323,1,8,0:0:0:0:
256,192,37588,1,8,0:0:0:0:
256,192,37721,1,0,0:0:0:0:
256,192,37854,1,0,0:0:0:0:
256,192,37987,1,8,0:0:0:0:
256,192,38252,1,0,0:0:0:0:
256,192,38385,1,0,0:0:0:0:
256,192,38451,1,0,0:0:0:0:
256,192,38518,1,8,0:0:0:0:
256,192,38651,1,8,0:0:0:0:
256,192,38783,1,8,0:0:0:0:
256,192,38916,1,8,0:0:0:0:
256,192,38982,1,8,0:0:0:0:
256,192,39049,1,0,0:0:0:0:
256,192,39248,1,0,0:0:0:0:
256,192,39314,1,8,0:0:0:0:
256,192,39447,1,0,0:0:0:0:
256,192,39513,1,0,0:0:0:0:
256,192,39580,1,8,0:0:0:0:
256,192,39712,1,0,0:0:0:0:
256,192,39845,1,8,0:0:0:0:
256,192,39911,1,8,0:0:0:0:
256,192,39978,1,8,0:0:0:0:
256,192,40111,1,0,0:0:0:0:
256,192,40310,1,0,0:0:0:0:
256,192,40376,1,8,0:0:0:0:
256,192,40509,1,0,0:0:0:0:
256,192,40575,1,0,0:0:0:0:
256,192,40642,1,8,0:0:0:0:
256,192,40774,1,0,0:0:0:0:
256,192,40907,1,8,0:0:0:0:
256,192,40973,1,8,0:0:0:0:
256,192,41040,1,8,0:0:0:0:
256,192,41106,1,8,0:0:0:0:
256,192,41172,1,0,0:0:0:0:
256,192,41305,1,8,0:0:0:0:
256,192,41438,1,0,0:0:0:0:
256,192,41571,1,8,0:0:0:0:
256,192,41703,1,0,0:0:0:0:
256,192,41836,1,8,0:0:0:0:
256,192,41969,1,8,0:0:0:0:
256,192,42102,1,0,0:0:0:0:
256,192,42234,1,8,0:0:0:0:
256,192,42301,1,8,0:0:0:0:
256,192,42367,1,0,0:0:0:0:
256,192,42434,1,0,0:0:0:0:
256,192,42500,1,8,0:0:0:0:
256,192,42566,1,0,0:0:0:0:
256,192,42633,1,8,0:0:0:0:
256,192,42699,1,8,0:0:0:0:
256,192,42765,1,0,0:0:0:0:
256,192,42832,1,0,0:0:0:0:
256,192,42898,1,8,0:0:0:0:
256,192,42965,1,8,0:0:0:0:
256,192,43031,1,8,0:0:0:0:
256,192,43097,1,0,0:0:0:0:
256,192,43164,1,8,0:0:0:0:
256,192,43230,1,8,0:0:0:0:
256,192,43296,1,0,0:0:0:0:
256,192,43473,1,0,0:0:0:0:
256,192,43650,1,8,0:0:0:0:
256,192,43827,1,0,0:0:0:0:
256,192,44004,1,0,0:0:0:0:
256,192,44181,1,0,0:0:0:0:
256,192,44358,1,8,0:0:0:0:
256,192,44535,1,8,0:0:0:0:
256,192,44712,1,0,0:0:0:0:
256,192,44889,1,8,0:0:0:0:
256,192,45066,1,8,0:0:0:0:
256,192,45243,1,8,0:0:0:0:
256,192,45420,1,4,0:0:0:0:
256,192,45819,1,0,0:0:0:0:
256,192,45951,1,8,0:0:0:0:
256,192,46084,1,0,0:0:0:0:
256,192,46150,1,0,0:0:0:0:
256,192,46217,1,8,0:0:0:0:
256,192,46349,1,8,0:0:0:0:
256,192,46482,1,0,0:0:0:0:
256,192,46549,1,0,0:0:0:0:
256,192,46615,1,8,0:0:0:0:
256,192,46681,1,8,0:0:0:0:
256,192,46748,1,8,0:0:0:0:
256,192,46880,1,0,0:0:0:0:
256,192,47013,1,8,0:0:0:0:
256,192,47080,1,8,0:0:0:0:
256,192,47146,1,8,0:0:0:0:
256,192,47212,1,8,0:0:0:0:
256,192,47279,1,0,0:0:0:0:
256,192,47411,1,8,0:0:0:0:
256,192,47544,1,4,0:0:0:0:
256,192,47942,1,4,0:0:0:0:
256,192,48341,1,12,0:0:0:0:
256,192,48739,1,12,0:0:0:0:
256,192,49104,1,8,0:0:0:0:
256,192,49137,1,8,0:0:0:0:
256,192,49668,1,4,0:0:0:0:
256,192,49867,1,0,0:0:0:0:
256,192,49933,1,8,0:0:0:0:
256,192,50066,1,0,0:0:0:0:
256,192,50132,1,0,0:0:0:0:
256,192,50198,1,8,0:0:0:0:
256,192,50265,1,8,0:0:0:0:
256,192,50331,1,0,0:0:0:0:
256,192,50464,1,8,0:0:0:0:
256,192,50597,1,0,0:0:0:0:
256,192,50663,1,0,0:0:0:0:
256,192,50796,1,8,0:0:0:0:
256,192,50862,1,0,0:0:0:0:
256,192,50929,1,0,0:0:0:0:
256,192,50995,1,8,0:0:0:0:
256,192,51128,1,0,0:0:0:0:
256,192,51260,1,8,0:0:0:0:
256,192,51393,1,0,0:0:0:0:
256,192,51460,1,0,0:0:0:0:
256,192,51526,1,8,0:0:0:0:
256,192,51592,1,8,0:0:0:0:
256,192,51659,1,0,0:0:0:0:
256,192,51725,1,8,0:0:0:0:
256,192,51791,1,0,0:0:0:0:
256,192,51924,1,0,0:0:0:0:
256,192,52057,1,8,0:0:0:0:
256,192,52190,1,0,0:0:0:0:
256,192,52256,1,0,0:0:0:0:
256,192,52322,1,8,0:0:0:0:
256,192,52455,1,0,0:0:0:0:
256,192,52588,1,8,0:0:0:0:
256,192,52721,1,0,0:0:0:0:
256,192,52787,1,0,0:0:0:0:
256,192,52853,1,0,0:0:0:0:
256,192,52920,1,8,0:0:0:0:
256,192,52986,1,0,0:0:0:0:
256,192,53119,1,8,0:0:0:0:
256,192,53252,1,0,0:0:0:0:
256,192,53318,1,0,0:0:0:0:
256,192,53384,1,8,0:0:0:0:
256,192,53451,1,0,0:0:0:0:
256,192,53517,1,0,0:0:0:0:
256,192,53583,1,0,0:0:0:0:
256,192,53650,1,8,0:0:0:0:
256,192,53783,1,8,0:0:0:0:
256,192,53915,1,4,0:0:0:0:
256,192,54114,1,0,0:0:0:0:
256,192,54180,1,8,0:0:0:0:
256,192,54313,1,0,0:0:0:0:
256,192,54379,1,0,0:0:0:0:
256,192,54445,1,8,0:0:0:0:
256,192,54512,1,0,0:0:0:0:
256,192,54578,1,0,0:0:0:0:
256,192,54711,1,8,0:0:0:0:
256,192,54844,1,0,0:0:0:0:
256,192,54910,1,8,0:0:0:0:
256,192,55043,1,8,0:0:0:0:
256,192,55109,1,0,0:0:0:0:
256,192,55176,1,0,0:0:0:0:
256,192,55242,1,8,0:0:0:0:
256,192,55375,1,0,0:0:0:0:
256,192,55507,1,8,0:0:0:0:
256,192,55640,1,0,0:0:0:0:
256,192,55707,1,0,0:0:0:0:
256,192,55773,1,8,0:0:0:0:
256,192,55839,1,8,0:0:0:0:
256,192,55906,1,8,0:0:0:0:
256,192,55972,1,8,0:0:0:0:
256,192,56038,1,0,0:0:0:0:
256,192,56171,1,0,0:0:0:0:
256,192,56304,1,8,0:0:0:0:
256,192,56437,1,0,0:0:0:0:
256,192,56504,1,0,0:0:0:0:
256,192,56569,1,8,0:0:0:0:
256,192,56702,1,0,0:0:0:0:
256,192,56835,1,8,0:0:0:0:
256,192,56968,1,0,0:0:0:0:
256,192,57034,1,8,0:0:0:0:
256,192,57100,1,8,0:0:0:0:
256,192,57167,1,8,0:0:0:0:
256,192,57233,1,0,0:0:0:0:
256,192,57366,1,8,0:0:0:0:
256,192,57499,1,0,0:0:0:0:
256,192,57566,1,0,0:0:0:0:
256,192,57631,1,8,0:0:0:0:
256,192,57698,1,0,0:0:0:0:
256,192,57764,1,8,0:0:0:0:
256,192,57897,1,8,0:0:0:0:
256,192,58030,1,4,0:0:0:0:
256,192,58296,1,0,0:0:0:0:
256,192,58429,1,12,0:0:0:0:
256,192,58694,1,8,0:0:0:0:
256,192,58827,1,8,0:0:0:0:
256,192,58960,1,8,0:0:0:0:
256,192,59092,1,4,0:0:0:0:
256,192,59358,1,0,0:0:0:0:
256,192,59491,1,8,0:0:0:0:
256,192,59756,1,0,0:0:0:0:
256,192,59889,1,0,0:0:0:0:
256,192,60022,1,8,0:0:0:0:
256,192,60154,1,4,0:0:0:0:
256,192,60420,1,0,0:0:0:0:
256,192,60553,1,12,0:0:0:0:
256,192,60818,1,8,0:0:0:0:
256,192,60951,1,8,0:0:0:0:
256,192,61084,1,8,0:0:0:0:
256,192,61216,1,4,0:0:0:0:
256,192,61482,1,0,0:0:0:0:
256,192,61615,1,8,0:0:0:0:
256,192,61880,1,0,0:0:0:0:
256,192,62013,1,8,0:0:0:0:
256,192,62146,1,0,0:0:0:0:
256,192,62278,1,8,0:0:0:0:
256,192,62411,1,4,0:0:0:0:
256,192,62676,1,8,0:0:0:0:
256,192,62809,1,0,0:0:0:0:
256,192,62875,1,8,0:0:0:0:
256,192,62942,1,8,0:0:0:0:
256,192,63075,1,0,0:0:0:0:
256,192,63207,1,8,0:0:0:0:
256,192,63274,1,0,0:0:0:0:
256,192,63340,1,0,0:0:0:0:
256,192,63473,1,8,0:0:0:0:
256,192,63606,1,0,0:0:0:0:
256,192,63672,1,0,0:0:0:0:
256,192,63738,1,8,0:0:0:0:
256,192,63871,1,8,0:0:0:0:
256,192,63937,1,8,0:0:0:0:
256,192,64004,1,0,0:0:0:0:
256,192,64137,1,0,0:0:0:0:
256,192,64269,1,8,0:0:0:0:
256,192,64402,1,8,0:0:0:0:
256,192,64535,1,4,0:0:0:0:
256,192,64800,1,8,0:0:0:0:
256,192,64933,1,4,0:0:0:0:
256,192,65198,1,0,0:0:0:0:
256,192,65331,1,12,0:0:0:0:
256,192,65597,1,0,0:0:0:0:
256,192,65729,1,12,0:0:0:0:
256,192,65995,1,0,0:0:0:0:
256,192,66061,1,0,0:0:0:0:
256,192,66128,1,0,0:0:0:0:
256,192,66260,1,0,0:0:0:0:
256,192,66393,1,8,0:0:0:0:
256,192,66526,1,8,0:0:0:0:
256,192,66659,1,4,0:0:0:0:
256,192,66858,1,0,0:0:0:0:
256,192,66924,1,8,0:0:0:0:
256,192,67057,1,0,0:0:0:0:
256,192,67123,1,0,0:0:0:0:
256,192,67189,1,8,0:0:0:0:
256,192,67256,1,8,0:0:0:0:
256,192,67322,1,0,0:0:0:0:
256,192,67455,1,8,0:0:0:0:
256,192,67588,1,0,0:0:0:0:
256,192,67654,1,0,0:0:0:0:
256,192,67787,1,8,0:0:0:0:
256,192,67853,1,0,0:0:0:0:
256,192,67920,1,0,0:0:0:0:
256,192,67986,1,8,0:0:0:0:
256,192,68119,1,0,0:0:0:0:
256,192,68185,1,0,0:0:0:0:
256,192,68251,1,8,0:0:0:0:
256,192,68318,1,0,0:0:0:0:
256,192,68384,1,0,0:0:0:0:
256,192,68451,1,0,0:0:0:0:
256,192,68517,1,8,0:0:0:0:
256,192,68583,1,8,0:0:0:0:
256,192,68650,1,0,0:0:0:0:
256,192,68716,1,8,0:0:0:0:
256,192,68782,1,0,0:0:0:0:
256,192,68915,1,0,0:0:0:0:
256,192,69048,1,8,0:0:0:0:
256,192,69181,1,0,0:0:0:0:
256,192,69247,1,0,0:0:0:0:
256,192,69313,1,8,0:0:0:0:
256,192,69446,1,0,0:0:0:0:
256,192,69512,1,0,0:0:0:0:
256,192,69579,1,8,0:0:0:0:
256,192,69645,1,8,0:0:0:0:
256,192,69712,1,0,0:0:0:0:
256,192,69778,1,0,0:0:0:0:
256,192,69844,1,0,0:0:0:0:
256,192,69911,1,8,0:0:0:0:
256,192,69977,1,0,0:0:0:0:
256,192,70044,1,0,0:0:0:0:
256,192,70110,1,8,0:0:0:0:
256,192,70243,1,8,0:0:0:0:
256,192,70375,1,0,0:0:0:0:
256,192,70442,1,0,0:0:0:0:
256,192,70508,1,0,0:0:0:0:
256,192,70574,1,0,0:0:0:0:
256,192,70641,1,8,0:0:0:0:
256,192,70774,1,8,0:0:0:0:
256,192,70906,1,0,0:0:0:0:
256,192,70973,1,0,0:0:0:0:
256,192,71039,1,0,0:0:0:0:
256,192,71171,1,8,0:0:0:0:
256,192,71304,1,0,0:0:0:0:
256,192,71370,1,0,0:0:0:0:
256,192,71436,1,8,0:0:0:0:
256,192,71503,1,0,0:0:0:0:
256,192,71569,1,0,0:0:0:0:
256,192,71702,1,8,0:0:0:0:
256,192,71835,1,0,0:0:0:0:
256,192,71901,1,8,0:0:0:0:
256,192,72034,1,8,0:0:0:0:
256,192,72100,1,0,0:0:0:0:
256,192,72167,1,0,0:0:0:0:
256,192,72233,1,8,0:0:0:0:
256,192,72366,1,0,0:0:0:0:
256,192,72433,1,0,0:0:0:0:
256,192,72498,1,8,0:0:0:0:
256,192,72566,1,0,0:0:0:0:
256,192,72631,1,0,0:0:0:0:
256,192,72698,1,0,0:0:0:0:
256,192,72764,1,8,0:0:0:0:
256,192,72830,1,8,0:0:0:0:
256,192,72897,1,8,0:0:0:0:
256,192,72963,1,8,0:0:0:0:
256,192,73029,1,0,0:0:0:0:
256,192,73162,1,0,0:0:0:0:
256,192,73295,1,8,0:0:0:0:
256,192,73429,1,0,0:0:0:0:
256,192,73495,1,0,0:0:0:0:
256,192,73560,1,8,0:0:0:0:
256,192,73693,1,0,0:0:0:0:
256,192,73760,1,0,0:0:0:0:
256,192,73826,1,8,0:0:0:0:
256,192,73893,1,8,0:0:0:0:
256,192,73959,1,0,0:0:0:0:
256,192,74025,1,8,0:0:0:0:
256,192,74091,1,8,0:0:0:0:
256,192,74158,1,8,0:0:0:0:
256,192,74224,1,0,0:0:0:0:
256,192,74357,1,8,0:0:0:0:
256,192,74424,1,8,0:0:0:0:
256,192,74490,1,8,0:0:0:0:
256,192,74557,1,8,0:0:0:0:
256,192,74622,1,0,0:0:0:0:
256,192,74756,1,8,0:0:0:0:
256,192,74888,1,8,0:0:0:0:
256,192,75021,1,8,0:0:0:0:
256,192,75154,1,4,0:0:0:0:
256,192,75552,1,0,0:0:0:0:
256,192,75685,1,8,0:0:0:0:
256,192,75818,1,0,0:0:0:0:
256,192,75951,1,8,0:0:0:0:
256,192,76083,1,8,0:0:0:0:
256,192,76150,1,8,0:0:0:0:
256,192,76216,1,0,0:0:0:0:
256,192,76349,1,8,0:0:0:0:
256,192,76482,1,0,0:0:0:0:
256,192,76614,1,0,0:0:0:0:
256,192,76681,1,0,0:0:0:0:
256,192,76747,1,8,0:0:0:0:
256,192,76880,1,0,0:0:0:0:
256,192,77013,1,8,0:0:0:0:
256,192,77278,1,0,0:0:0:0:
256,192,77411,1,8,0:0:0:0:
256,192,77477,1,8,0:0:0:0:
256,192,77544,1,8,0:0:0:0:
256,192,77676,1,0,0:0:0:0:
256,192,77809,1,8,0:0:0:0:
256,192,77942,1,0,0:0:0:0:
256,192,78008,1,0,0:0:0:0:
256,192,78075,1,0,0:0:0:0:
256,192,78207,1,8,0:0:0:0:
256,192,78340,1,0,0:0:0:0:
256,192,78406,1,8,0:0:0:0:
256,192,78473,1,8,0:0:0:0:
256,192,78539,1,8,0:0:0:0:
256,192,78606,1,0,0:0:0:0:
256,192,78738,1,8,0:0:0:0:
256,192,78871,1,0,0:0:0:0:
256,192,78937,1,8,0:0:0:0:
256,192,79004,1,0,0:0:0:0:
256,192,79070,1,0,0:0:0:0:
256,192,79137,1,8,0:0:0:0:
256,192,79269,1,8,0:0:0:0:
256,192,79402,1,4,0:0:0:0:
256,192,79668,1,8,0:0:0:0:
256,192,79800,1,4,0:0:0:0:
256,192,80066,1,8,0:0:0:0:
256,192,80198,1,4,0:0:0:0:
256,192,80464,1,8,0:0:0:0:
256,192,80597,1,4,0:0:0:0:
256,192,80729,1,8,0:0:0:0:
256,192,80862,1,8,0:0:0:0:
256,192,80995,1,4,0:0:0:0:
256,192,81260,1,4,0:0:0:0:
256,192,81526,1,12,0:0:0:0:
256,192,81791,1,0,0:0:0:0:
256,192,81924,1,12,0:0:0:0:
256,192,82190,1,0,0:0:0:0:
256,192,82322,1,12,0:0:0:0:
256,192,82588,1,0,0:0:0:0:
256,192,82721,1,12,0:0:0:0:
256,192,82853,1,0,0:0:0:0:
256,192,82986,1,0,0:0:0:0:
256,192,83119,1,12,0:0:0:0:
256,192,83384,1,8,0:0:0:0:
256,192,83517,1,8,0:0:0:0:
256,192,83650,1,4,0:0:0:0:
259,189,83915,1,8,0:0:0:0:
259,189,84048,1,4,0:0:0:0:
259,189,84313,1,8,0:0:0:0:
259,189,84446,1,4,0:0:0:0:
259,189,84711,1,8,0:0:0:0:
259,189,84844,1,0,0:0:0:0:
259,189,84910,1,0,0:0:0:0:
259,189,84977,1,8,0:0:0:0:
259,189,85043,1,8,0:0:0:0:
259,189,85109,1,0,0:0:0:0:
259,189,85176,1,0,0:0:0:0:
259,189,85242,1,8,0:0:0:0:
259,189,85375,1,8,0:0:0:0:
259,189,85508,1,8,0:0:0:0:
259,189,85640,1,8,0:0:0:0:
259,189,85773,1,4,0:0:0:0:
259,189,86039,1,8,0:0:0:0:
259,189,86172,1,4,0:0:0:0:
259,189,86437,1,0,0:0:0:0:
259,189,86570,1,12,0:0:0:0:
256,192,86703,12,0,87898,0:0:0:0:
