osu file format v14

[General]
AudioFilename: audio.mp3
AudioLeadIn: 0
PreviewTime: 49336
Countdown: 0
SampleSet: Normal
StackLeniency: 0.7
Mode: 1
LetterboxInBreaks: 0
WidescreenStoryboard: 1

[Editor]
DistanceSpacing: 1
BeatDivisor: 4
GridSize: 32
TimelineZoom: 2.7

[Metadata]
Title:Seishun no Archive (TV Size)
TitleUnicode:青春のアーカイブ (TV Size)
Artist:Abydos High School Foreclosure Task Force
ArtistUnicode:アビドス高等学校対策委員会
Creator:ler1211
Version:Waribashi's Oni
Source:ブルーアーカイブ The Animation
Tags:waribashi layxa komasy _gt ktyn アビドス廃校対策委員会 Countermeasure Council Committee Blue Archive 블루 아카이브 蔚藍檔案 蔚蓝档案 小鳥遊ホシノ Takanashi Hoshino 花守ゆみり Hanamori yumiri 砂狼シロコ Sunaookami Shiroko 小倉唯 Ogura yui 十六夜ノノミ Izayoi Nonomi 三浦千幸 miura chiyuki 黒見セリカ Kuromi Serika 大橋彩香 ohashi ayaka 奥空アヤネ Okusora Ayane 原田彩楓 sayaka harada ブルアカ BuruAka Buru Aka NAT Games NEXON Yostar 40mp 40meterp 40meter-p japanese pop jpop j-pop anime opening op
BeatmapID:4563310
BeatmapSetID:2163686

[Difficulty]
HPDrainRate:5.5
CircleSize:5
OverallDifficulty:5.5
ApproachRate:5
SliderMultiplier:1.4
SliderTickRate:1

[Events]
//Background and Video events
0,0,"arona.png",0,0
Video,-90,"seishun.mp4"
//Break Periods
//Storyboard Layer 0 (Background)
//Storyboard Layer 1 (Fail)
//Storyboard Layer 2 (Pass)
//Storyboard Layer 3 (Foreground)
//Storyboard Layer 4 (Overlay)
//Storyboard Sound Samples

[TimingPoints]
819,265.486725663717,4,1,0,70,1,0
819,-142.857142857143,4,1,0,70,0,0
1217,-149.252052637499,4,1,0,70,0,0
1615,-156.246320499235,4,1,0,70,0,0
1880,-161.278561011181,4,1,0,70,0,0
2146,-166.666666666667,4,1,0,70,0,0
4004,-111.111111111111,4,1,0,70,0,0
4203,-105.252725470763,4,1,0,80,0,0
4403,-102.549246813441,4,1,0,80,0,0
4535,-100,4,1,0,80,0,0
4668,-97.556494580195,4,1,0,80,0,0
4801,-95.229555236729,4,1,0,80,0,0
4934,-93.011035207567,4,1,0,80,0,0
5000,-93.011035207567,4,1,0,90,0,0
5066,-90.909090909091,4,1,0,90,0,1
13031,-90.909090909091,4,1,0,90,0,0
13097,-125,4,1,0,70,0,0
21659,-105.95630050883,4,1,0,90,0,0
21726,-104.904430285968,4,1,0,90,0,0
21792,-103.888481291269,4,1,0,90,0,0
21925,-101.899827288428,4,1,0,90,0,0
22057,-100,4,1,0,90,0,0
23584,-100,4,1,0,70,0,0
24115,-100,4,1,0,90,0,0
25177,-100,4,1,0,70,0,0
26239,-100,4,1,0,90,0,0
27832,-100,4,1,0,70,0,0
28363,-100,4,1,0,90,0,0
29425,-100,4,1,0,70,0,0
29491,-102.276617596713,4,1,0,70,0,0
29757,-107.155667144907,4,1,0,70,0,0
30022,-112.502353605724,4,1,0,70,0,0
30288,-118.434093161546,4,1,0,70,0,0
30553,-125,4,1,0,70,0,0
39314,-122.142014897472,4,1,0,80,0,0
39580,-119.401726222272,4,1,0,80,0,0
39712,-118.087029056027,4,1,0,80,0,0
39845,-116.791332086679,4,1,0,80,0,0
39978,-115.523760302478,4,1,0,80,0,0
40111,-114.283407782143,4,1,0,80,0,0
40376,-111.889770002898,4,1,0,80,0,0
40509,-110.725831682136,4,1,0,80,0,0
40774,-108.477433526602,4,1,0,80,0,0
40907,-107.383059418458,4,1,0,80,0,0
41172,-105.267071508241,4,1,0,80,0,0
41305,-104.236206558021,4,1,0,80,0,0
41438,-103.225336023139,4,1,0,80,0,0
41571,-102.233883780271,4,1,0,80,0,0
41703,-101.268539272259,4,1,0,80,0,0
41836,-100.314146018849,4,1,0,80,0,0
41969,-99.377573942344,4,1,0,80,0,0
42102,-98.458328503535,4,1,0,80,0,0
42234,-97.562656497668,4,1,0,80,0,0
42301,-97.114241287844,4,1,0,80,0,0
42367,-96.676530844525,4,1,0,80,0,0
42500,-95.80635701234,4,1,0,80,0,0
42633,-94.951708102307,4,1,0,80,0,0
42765,-94.118429217268,4,1,0,80,0,0
42832,-93.701047986762,4,1,0,80,0,0
42898,-93.293499989017,4,1,0,80,0,0
42965,-92.883387280203,4,1,0,80,0,0
43031,-92.482905796786,4,1,0,80,0,0
43164,-91.686276203018,4,1,0,80,0,0
43230,-90.909090909091,4,1,0,70,0,0
43650,-103.448275862069,4,1,0,70,0,0
43827,-105.263157894737,4,1,0,70,0,0
44181,-109.090909090909,4,1,0,70,0,0
44358,-111.111111111111,4,1,0,70,0,0
44712,-115.384615384615,4,1,0,70,0,0
44889,-117.647058823529,4,1,0,70,0,0
45243,-122.448979591837,4,1,0,70,0,0
45354,-122.448979591837,4,1,0,80,0,0
45420,-105.263157894737,4,1,0,80,0,0
47544,-100,4,1,0,90,0,0
47942,-96.776805960479,4,1,0,90,0,0
48341,-93.747548442771,4,1,0,90,0,0
48606,-91.838303104826,4,1,0,90,0,0
48739,-90.909090909091,4,1,0,90,0,0
49071,-105.263157894737,4,1,0,50,0,0
49403,-100,4,1,0,80,0,0
49602,-100,4,1,0,90,0,0
49668,265.486725663717,4,1,0,90,1,1
64535,-90.909090909091,4,1,0,90,0,1
65995,-93.336009634685,4,1,0,90,0,1
66061,-93.95837542938,4,1,0,90,0,1
66128,-94.598718339945,4,1,0,90,0,1
66260,-95.886173832354,4,1,0,90,0,1
66393,-97.219318419402,4,1,0,90,0,1
66526,-98.590056185731,4,1,0,90,0,1
66659,-100,4,1,0,90,0,1
75353,-105.263157894737,4,1,0,90,0,1
79336,-95.238095238095,4,1,0,90,0,1
81460,-90.909090909091,4,1,0,90,0,1
83052,-83.333333333333,4,1,0,90,0,1
83119,-83.333333333333,4,1,0,90,0,0
83650,-90.909090909091,4,1,0,90,0,1
86836,-90.909090909091,4,1,0,90,0,1
87101,-90.909090909091,4,1,0,76,0,1
87367,-90.909090909091,4,1,0,61,0,1
87632,-90.909090909091,4,1,0,47,0,1
87898,-90.909090909091,4,1,0,40,0,0

[HitObjects]
193,119,819,5,8,0:0:0:0:
223,178,1217,1,0,0:0:0:0:
109,203,1615,1,8,0:0:0:0:
256,192,2146,8,0,4004,0:0:0:0:
191,118,4270,5,8,0:0:0:0:
205,126,4403,1,0,0:0:0:0:
198,150,4535,1,8,0:0:0:0:
198,150,4668,1,8,0:0:0:0:
244,86,4801,1,0,0:0:0:0:
201,118,4934,1,8,0:0:0:0:
201,118,5066,1,4,0:0:0:0:
201,118,5332,1,8,0:0:0:0:
201,118,5465,1,4,0:0:0:0:
182,144,5730,1,0,0:0:0:0:
176,145,5863,1,12,0:0:0:0:
182,144,6128,1,0,0:0:0:0:
176,145,6261,1,12,0:0:0:0:
175,117,6659,1,8,0:0:0:0:
230,112,6792,1,8,0:0:0:0:
230,112,6925,1,8,0:0:0:0:
230,112,7057,1,8,0:0:0:0:
210,119,7190,1,4,0:0:0:0:
230,112,7456,1,0,0:0:0:0:
210,119,7588,1,12,0:0:0:0:
230,112,7854,1,8,0:0:0:0:
210,119,7987,1,4,0:0:0:0:
230,112,8252,1,0,0:0:0:0:
210,119,8385,1,12,0:0:0:0:
230,112,8650,1,0,0:0:0:0:
248,128,8783,1,8,0:0:0:0:
247,127,8849,1,8,0:0:0:0:
228,112,8916,1,8,0:0:0:0:
230,112,9049,1,0,0:0:0:0:
230,112,9181,1,0,0:0:0:0:
201,118,9314,1,4,0:0:0:0:
201,118,9580,1,8,0:0:0:0:
201,118,9712,1,4,0:0:0:0:
201,118,9978,1,0,0:0:0:0:
201,118,10111,1,12,0:0:0:0:
201,118,10376,1,0,0:0:0:0:
201,118,10509,1,12,0:0:0:0:
201,118,10907,1,8,0:0:0:0:
201,118,11040,1,8,0:0:0:0:
201,118,11173,1,8,0:0:0:0:
201,118,11306,1,8,0:0:0:0:
182,162,11438,1,4,0:0:0:0:
132,171,11703,1,0,0:0:0:0:
182,162,11836,1,12,0:0:0:0:
127,173,12102,1,8,0:0:0:0:
256,192,12234,12,0,12898,0:0:0:0:
136,165,13031,5,0,0:0:0:0:
170,167,13562,5,0,0:0:0:0:
175,138,13827,1,8,0:0:0:0:
170,167,13960,1,0,0:0:0:0:
175,130,14226,1,0,0:0:0:0:
175,130,14358,1,8,0:0:0:0:
175,130,14491,1,0,0:0:0:0:
170,167,14624,1,8,0:0:0:0:
175,131,14757,1,0,0:0:0:0:
175,138,15022,1,8,0:0:0:0:
175,138,15288,1,0,0:0:0:0:
170,139,15420,1,8,0:0:0:0:
170,167,15686,1,0,0:0:0:0:
175,130,15951,1,8,0:0:0:0:
170,167,16084,1,0,0:0:0:0:
175,130,16349,1,0,0:0:0:0:
175,130,16482,1,8,0:0:0:0:
170,167,16748,1,8,0:0:0:0:
170,139,17013,1,8,0:0:0:0:
170,139,17146,1,0,0:0:0:0:
170,139,17279,1,8,0:0:0:0:
170,139,17411,1,8,0:0:0:0:
170,167,17544,1,0,0:0:0:0:
170,139,17810,1,0,0:0:0:0:
175,130,18075,1,8,0:0:0:0:
158,54,18208,1,0,0:0:0:0:
207,133,18473,1,0,0:0:0:0:
207,133,18606,1,8,0:0:0:0:
207,133,18739,1,0,0:0:0:0:
166,111,18872,1,8,0:0:0:0:
209,90,19137,1,8,0:0:0:0:
207,133,19270,1,8,0:0:0:0:
207,133,19535,1,0,0:0:0:0:
207,133,19668,1,8,0:0:0:0:
209,90,19801,1,8,0:0:0:0:
166,111,19934,1,0,0:0:0:0:
209,90,20199,1,8,0:0:0:0:
166,111,20332,1,0,0:0:0:0:
209,90,20465,1,8,0:0:0:0:
209,90,20597,1,8,0:0:0:0:
166,111,20730,1,0,0:0:0:0:
166,111,20863,1,8,0:0:0:0:
171,138,21659,1,8,0:0:0:0:
172,144,21726,1,8,0:0:0:0:
172,144,21792,1,8,0:0:0:0:
172,144,21925,1,8,0:0:0:0:
141,168,22057,1,4,0:0:0:0:
190,141,22323,1,8,0:0:0:0:
209,90,22456,1,0,0:0:0:0:
221,91,22588,1,8,0:0:0:0:
209,90,22721,1,0,0:0:0:0:
196,86,22788,1,0,0:0:0:0:
196,83,22854,1,8,0:0:0:0:
186,78,22987,1,0,0:0:0:0:
190,141,23119,1,12,0:0:0:0:
190,141,23252,1,4,0:0:0:0:
190,141,23518,1,4,0:0:0:0:
154,170,24181,1,4,0:0:0:0:
221,90,24447,1,8,0:0:0:0:
161,107,24580,1,0,0:0:0:0:
161,107,24646,1,0,0:0:0:0:
196,82,24712,1,0,0:0:0:0:
196,82,24845,1,0,0:0:0:0:
196,82,24978,1,8,0:0:0:0:
110,193,25111,1,4,0:0:0:0:
221,90,25376,1,0,0:0:0:0:
221,90,25509,1,0,0:0:0:0:
186,61,25642,1,8,0:0:0:0:
186,61,25708,1,8,0:0:0:0:
186,61,25774,1,0,0:0:0:0:
154,170,26305,1,4,0:0:0:0:
131,171,26571,1,8,0:0:0:0:
131,171,26703,1,0,0:0:0:0:
131,171,26770,1,0,0:0:0:0:
131,171,26836,1,8,0:0:0:0:
131,171,26903,1,8,0:0:0:0:
131,171,26969,1,0,0:0:0:0:
131,171,27102,1,8,0:0:0:0:
195,75,27367,1,12,0:0:0:0:
195,75,27500,1,4,0:0:0:0:
195,75,27765,1,12,0:0:0:0:
154,170,28429,1,4,0:0:0:0:
168,102,28695,1,8,0:0:0:0:
181,126,28827,1,8,0:0:0:0:
181,126,28894,1,8,0:0:0:0:
168,102,28960,1,0,0:0:0:0:
172,151,29093,1,0,0:0:0:0:
181,126,29159,1,0,0:0:0:0:
172,151,29226,1,8,0:0:0:0:
157,168,29358,1,4,0:0:0:0:
201,129,29757,1,0,0:0:0:0:
233,91,30022,1,8,0:0:0:0:
233,91,30288,1,8,0:0:0:0:
220,173,30553,1,4,0:0:0:0:
155,174,30819,1,0,0:0:0:0:
155,174,30951,1,0,0:0:0:0:
155,174,31349,1,0,0:0:0:0:
205,113,31615,1,8,0:0:0:0:
155,174,31880,1,0,0:0:0:0:
155,174,32013,1,0,0:0:0:0:
205,113,32411,1,8,0:0:0:0:
205,113,32544,1,8,0:0:0:0:
205,113,32677,1,0,0:0:0:0:
173,143,32942,1,0,0:0:0:0:
177,160,33075,1,8,0:0:0:0:
181,140,33473,1,0,0:0:0:0:
197,112,33606,1,0,0:0:0:0:
206,114,33739,1,8,0:0:0:0:
173,143,34004,1,0,0:0:0:0:
206,114,34137,1,8,0:0:0:0:
173,143,34270,1,0,0:0:0:0:
206,114,34535,1,8,0:0:0:0:
206,114,34668,1,8,0:0:0:0:
206,114,34734,1,8,0:0:0:0:
206,114,34801,1,0,0:0:0:0:
173,143,35066,1,0,0:0:0:0:
173,143,35199,1,0,0:0:0:0:
173,143,35597,1,0,0:0:0:0:
173,143,35863,1,8,0:0:0:0:
173,143,36128,1,0,0:0:0:0:
173,143,36261,1,0,0:0:0:0:
173,143,36659,1,8,0:0:0:0:
173,143,36792,1,8,0:0:0:0:
173,143,36925,1,0,0:0:0:0:
173,143,37190,1,0,0:0:0:0:
177,162,37323,1,8,0:0:0:0:
173,143,37721,1,0,0:0:0:0:
173,143,37987,1,8,0:0:0:0:
177,162,38252,1,8,0:0:0:0:
177,162,38385,1,0,0:0:0:0:
177,162,38518,1,8,0:0:0:0:
177,162,38650,1,8,0:0:0:0:
177,162,38783,1,8,0:0:0:0:
177,162,38916,1,8,0:0:0:0:
177,162,38982,1,8,0:0:0:0:
173,143,39049,1,0,0:0:0:0:
173,143,39314,1,8,0:0:0:0:
177,162,39580,1,0,0:0:0:0:
177,162,39712,1,0,0:0:0:0:
173,143,39845,1,8,0:0:0:0:
177,162,39978,1,8,0:0:0:0:
177,162,40111,1,0,0:0:0:0:
173,143,40376,1,8,0:0:0:0:
177,162,40509,1,0,0:0:0:0:
177,162,40774,1,0,0:0:0:0:
173,143,40907,1,8,0:0:0:0:
301,163,41172,1,8,0:0:0:0:
202,113,41305,1,0,0:0:0:0:
208,154,41438,1,8,0:0:0:0:
202,113,41571,1,0,0:0:0:0:
208,154,41703,1,8,0:0:0:0:
202,113,41836,1,0,0:0:0:0:
208,154,41969,1,8,0:0:0:0:
208,154,42102,1,0,0:0:0:0:
183,150,42234,1,8,0:0:0:0:
183,150,42301,1,8,0:0:0:0:
185,153,42367,1,0,0:0:0:0:
183,150,42500,1,8,0:0:0:0:
183,150,42633,1,0,0:0:0:0:
183,150,42765,1,8,0:0:0:0:
187,127,42832,1,8,0:0:0:0:
183,150,42898,1,0,0:0:0:0:
187,127,42965,1,0,0:0:0:0:
183,150,43031,1,8,0:0:0:0:
195,127,43164,1,0,0:0:0:0:
183,150,43296,1,8,0:0:0:0:
166,178,43650,1,0,0:0:0:0:
166,178,43827,1,8,0:0:0:0:
166,178,44181,1,0,0:0:0:0:
199,148,44358,1,8,0:0:0:0:
166,178,44712,1,0,0:0:0:0:
166,178,44889,1,8,0:0:0:0:
166,178,45243,1,8,0:0:0:0:
166,178,45420,1,4,0:0:0:0:
149,128,45686,1,0,0:0:0:0:
149,128,45819,1,0,0:0:0:0:
149,128,45951,1,8,0:0:0:0:
149,128,46084,1,0,0:0:0:0:
149,128,46349,1,8,0:0:0:0:
149,128,46482,1,0,0:0:0:0:
149,128,46615,1,8,0:0:0:0:
149,128,46880,1,0,0:0:0:0:
149,128,47013,1,8,0:0:0:0:
149,128,47146,1,8,0:0:0:0:
149,128,47279,1,0,0:0:0:0:
146,189,47411,1,8,0:0:0:0:
149,128,47544,1,4,0:0:0:0:
149,128,47942,1,4,0:0:0:0:
149,128,48341,1,12,0:0:0:0:
149,128,48739,1,12,0:0:0:0:
185,102,49104,1,8,0:0:0:0:
181,173,49668,5,4,0:0:0:0:
158,131,49933,1,8,0:0:0:0:
185,102,50066,1,0,0:0:0:0:
185,102,50198,1,8,0:0:0:0:
185,102,50265,1,8,0:0:0:0:
185,102,50331,1,0,0:0:0:0:
158,131,50464,1,8,0:0:0:0:
177,92,50597,1,0,0:0:0:0:
177,92,50862,1,0,0:0:0:0:
158,131,50995,1,8,0:0:0:0:
177,92,51128,1,0,0:0:0:0:
177,92,51194,1,0,0:0:0:0:
177,93,51260,1,8,0:0:0:0:
177,92,51393,1,0,0:0:0:0:
158,131,51526,1,8,0:0:0:0:
177,118,51791,1,0,0:0:0:0:
158,131,52057,1,8,0:0:0:0:
191,148,52190,1,0,0:0:0:0:
177,118,52322,1,8,0:0:0:0:
199,147,52389,1,8,0:0:0:0:
187,152,52455,1,0,0:0:0:0:
187,152,52521,1,0,0:0:0:0:
158,131,52588,1,8,0:0:0:0:
177,118,52721,1,0,0:0:0:0:
177,118,52986,1,0,0:0:0:0:
158,131,53119,1,8,0:0:0:0:
195,102,53252,1,0,0:0:0:0:
187,149,53318,1,8,0:0:0:0:
177,118,53384,1,0,0:0:0:0:
177,118,53517,1,0,0:0:0:0:
158,131,53650,1,8,0:0:0:0:
158,131,53915,1,0,0:0:0:0:
158,131,54181,1,8,0:0:0:0:
191,76,54314,1,0,0:0:0:0:
191,76,54446,1,8,0:0:0:0:
191,76,54513,1,8,0:0:0:0:
191,76,54579,1,0,0:0:0:0:
158,131,54712,1,8,0:0:0:0:
191,76,54844,1,0,0:0:0:0:
191,76,55110,1,0,0:0:0:0:
158,131,55243,1,8,0:0:0:0:
191,76,55375,1,0,0:0:0:0:
191,76,55442,1,0,0:0:0:0:
191,76,55508,1,8,0:0:0:0:
191,76,55641,1,0,0:0:0:0:
158,131,55774,1,8,0:0:0:0:
224,217,55906,1,8,0:0:0:0:
191,76,56039,1,0,0:0:0:0:
168,169,56305,1,8,0:0:0:0:
199,78,56437,1,0,0:0:0:0:
178,119,56504,1,0,0:0:0:0:
199,78,56570,1,8,0:0:0:0:
177,117,56637,1,8,0:0:0:0:
199,78,56703,1,0,0:0:0:0:
158,131,56836,1,8,0:0:0:0:
206,133,56968,1,0,0:0:0:0:
206,133,57234,1,0,0:0:0:0:
158,131,57367,1,8,0:0:0:0:
146,138,57433,1,0,0:0:0:0:
176,115,57499,1,0,0:0:0:0:
210,112,57566,1,0,0:0:0:0:
185,146,57632,1,8,0:0:0:0:
185,146,57765,1,8,0:0:0:0:
158,131,57898,1,8,0:0:0:0:
158,131,58030,1,0,0:0:0:0:
168,169,58296,1,0,0:0:0:0:
176,115,58429,1,8,0:0:0:0:
168,169,58694,1,0,0:0:0:0:
177,163,58760,1,8,0:0:0:0:
187,151,58827,1,8,0:0:0:0:
176,115,58960,1,8,0:0:0:0:
168,169,59092,1,0,0:0:0:0:
168,169,59358,1,0,0:0:0:0:
176,115,59491,1,8,0:0:0:0:
168,169,59756,1,0,0:0:0:0:
193,148,59822,1,0,0:0:0:0:
168,169,59889,1,0,0:0:0:0:
176,115,60021,1,8,0:0:0:0:
168,169,60154,1,0,0:0:0:0:
187,151,60420,1,0,0:0:0:0:
151,147,60552,1,8,0:0:0:0:
187,151,60818,1,0,0:0:0:0:
191,141,60884,1,8,0:0:0:0:
187,151,60951,1,8,0:0:0:0:
151,147,61083,1,8,0:0:0:0:
187,151,61216,1,0,0:0:0:0:
187,151,61482,1,0,0:0:0:0:
151,147,61614,1,8,0:0:0:0:
164,197,61747,1,8,0:0:0:0:
193,148,61880,1,0,0:0:0:0:
153,127,62013,1,8,0:0:0:0:
173,97,62079,1,8,0:0:0:0:
170,133,62145,1,0,0:0:0:0:
190,86,62278,1,8,0:0:0:0:
156,141,62411,1,0,0:0:0:0:
180,163,62676,1,8,0:0:0:0:
187,150,62809,1,0,0:0:0:0:
155,70,62875,1,0,0:0:0:0:
155,70,62942,1,0,0:0:0:0:
187,150,63075,1,0,0:0:0:0:
180,163,63207,1,8,0:0:0:0:
187,150,63340,1,0,0:0:0:0:
187,150,63606,1,0,0:0:0:0:
180,163,63738,1,8,0:0:0:0:
192,133,63871,1,8,0:0:0:0:
192,133,63937,1,8,0:0:0:0:
180,163,64004,1,8,0:0:0:0:
167,178,64137,1,0,0:0:0:0:
192,133,64269,1,8,0:0:0:0:
185,128,64402,1,8,0:0:0:0:
186,172,64535,1,4,0:0:0:0:
185,128,64800,1,8,0:0:0:0:
186,172,64933,1,4,0:0:0:0:
185,128,65198,1,0,0:0:0:0:
186,172,65331,1,12,0:0:0:0:
185,128,65597,1,0,0:0:0:0:
186,172,65729,1,12,0:0:0:0:
185,128,65995,1,8,0:0:0:0:
185,128,66061,1,8,0:0:0:0:
185,128,66128,1,8,0:0:0:0:
186,172,66260,1,0,0:0:0:0:
96,117,66393,1,8,0:0:0:0:
185,128,66526,1,8,0:0:0:0:
192,160,66659,1,4,0:0:0:0:
158,131,66924,1,8,0:0:0:0:
185,102,67057,1,0,0:0:0:0:
185,102,67189,1,8,0:0:0:0:
185,102,67256,1,8,0:0:0:0:
185,102,67322,1,0,0:0:0:0:
158,131,67455,1,8,0:0:0:0:
177,92,67588,1,0,0:0:0:0:
177,92,67853,1,0,0:0:0:0:
158,131,67986,1,8,0:0:0:0:
177,92,68119,1,0,0:0:0:0:
177,92,68185,1,0,0:0:0:0:
177,93,68251,1,8,0:0:0:0:
182,133,68318,1,8,0:0:0:0:
177,92,68384,1,0,0:0:0:0:
158,131,68517,1,8,0:0:0:0:
187,152,68650,1,8,0:0:0:0:
177,118,68782,1,0,0:0:0:0:
158,131,69048,1,8,0:0:0:0:
151,174,69114,1,0,0:0:0:0:
190,110,69181,1,0,0:0:0:0:
177,118,69313,1,8,0:0:0:0:
187,152,69446,1,0,0:0:0:0:
154,107,69513,1,0,0:0:0:0:
158,131,69579,1,8,0:0:0:0:
177,118,69712,1,0,0:0:0:0:
177,118,69977,1,0,0:0:0:0:
158,131,70110,1,8,0:0:0:0:
195,102,70243,1,0,0:0:0:0:
187,149,70309,1,8,0:0:0:0:
177,118,70375,1,0,0:0:0:0:
177,118,70508,1,0,0:0:0:0:
158,131,70641,1,8,0:0:0:0:
177,118,70774,1,8,0:0:0:0:
186,124,70906,1,0,0:0:0:0:
158,131,71172,1,8,0:0:0:0:
191,76,71305,1,0,0:0:0:0:
191,76,71437,1,8,0:0:0:0:
191,76,71504,1,8,0:0:0:0:
191,76,71570,1,0,0:0:0:0:
158,131,71703,1,8,0:0:0:0:
191,76,71835,1,0,0:0:0:0:
191,76,72101,1,0,0:0:0:0:
158,131,72234,1,8,0:0:0:0:
191,76,72366,1,0,0:0:0:0:
191,76,72499,1,8,0:0:0:0:
183,131,72566,1,8,0:0:0:0:
191,76,72632,1,0,0:0:0:0:
181,161,72698,1,0,0:0:0:0:
158,131,72765,1,8,0:0:0:0:
191,76,72897,1,8,0:0:0:0:
191,76,73030,1,0,0:0:0:0:
168,169,73296,1,8,0:0:0:0:
152,174,73362,1,8,0:0:0:0:
199,78,73428,1,0,0:0:0:0:
199,78,73561,1,8,0:0:0:0:
199,78,73694,1,0,0:0:0:0:
199,73,73760,1,0,0:0:0:0:
158,131,73827,1,8,0:0:0:0:
206,133,73959,1,0,0:0:0:0:
206,133,74225,1,0,0:0:0:0:
158,131,74358,1,8,0:0:0:0:
162,120,74424,1,0,0:0:0:0:
176,115,74490,1,0,0:0:0:0:
176,115,74557,1,0,0:0:0:0:
185,146,74623,1,8,0:0:0:0:
183,131,74756,1,8,0:0:0:0:
158,131,74889,1,0,0:0:0:0:
183,131,74955,1,0,0:0:0:0:
158,131,75021,1,0,0:0:0:0:
183,131,75088,1,0,0:0:0:0:
183,131,75154,1,8,0:0:0:0:
166,161,75420,1,0,0:0:0:0:
166,161,75552,1,0,0:0:0:0:
166,161,75685,1,8,0:0:0:0:
137,153,75818,1,0,0:0:0:0:
166,161,76083,1,8,0:0:0:0:
166,161,76216,1,0,0:0:0:0:
166,161,76349,1,8,0:0:0:0:
166,161,76482,1,0,0:0:0:0:
166,161,76614,1,0,0:0:0:0:
166,161,76747,1,8,0:0:0:0:
166,161,77013,1,8,0:0:0:0:
170,147,77145,1,8,0:0:0:0:
166,161,77278,1,0,0:0:0:0:
182,103,77411,1,8,0:0:0:0:
166,161,77676,1,0,0:0:0:0:
166,161,77809,1,8,0:0:0:0:
177,96,77942,1,0,0:0:0:0:
184,103,78207,1,8,0:0:0:0:
166,161,78340,1,0,0:0:0:0:
170,147,78473,1,8,0:0:0:0:
166,161,78606,1,0,0:0:0:0:
170,147,78738,1,0,0:0:0:0:
166,161,78871,1,8,0:0:0:0:
166,161,79004,1,8,0:0:0:0:
166,161,79137,1,0,0:0:0:0:
166,161,79402,1,12,0:0:0:0:
203,138,79668,1,0,0:0:0:0:
170,147,79800,1,12,0:0:0:0:
203,138,80066,1,0,0:0:0:0:
170,147,80198,1,12,0:0:0:0:
203,138,80464,1,0,0:0:0:0:
170,147,80597,1,12,0:0:0:0:
203,138,80862,1,0,0:0:0:0:
170,147,80995,1,12,0:0:0:0:
203,138,81128,1,0,0:0:0:0:
203,138,81260,1,12,0:0:0:0:
168,137,81526,1,12,0:0:0:0:
203,138,81659,1,0,0:0:0:0:
203,138,81791,1,0,0:0:0:0:
147,121,81924,1,12,0:0:0:0:
217,121,82057,1,0,0:0:0:0:
217,121,82190,1,0,0:0:0:0:
217,121,82322,1,12,0:0:0:0:
217,121,82455,1,0,0:0:0:0:
217,121,82588,1,0,0:0:0:0:
217,121,82721,1,12,0:0:0:0:
200,144,82853,1,0,0:0:0:0:
200,144,82986,1,0,0:0:0:0:
217,121,83119,1,12,0:0:0:0:
201,118,83650,1,4,0:0:0:0:
201,118,83916,1,8,0:0:0:0:
201,118,84049,1,4,0:0:0:0:
182,144,84314,1,0,0:0:0:0:
176,145,84447,1,12,0:0:0:0:
182,144,84712,1,0,0:0:0:0:
176,145,84845,1,12,0:0:0:0:
175,117,85243,1,8,0:0:0:0:
230,112,85376,1,8,0:0:0:0:
230,112,85509,1,8,0:0:0:0:
230,112,85641,1,8,0:0:0:0:
210,119,85774,1,4,0:0:0:0:
230,112,86040,1,0,0:0:0:0:
210,119,86172,1,12,0:0:0:0:
230,112,86438,1,8,0:0:0:0:
256,192,86570,12,0,87898,0:0:0:0:
