osu file format v14

[General]
AudioFilename: audio.mp3
AudioLeadIn: 0
PreviewTime: 49323
Countdown: 0
SampleSet: None
StackLeniency: 0.7
Mode: 3
LetterboxInBreaks: 0
SpecialStyle: 0
WidescreenStoryboard: 0

[Editor]
DistanceSpacing: 0.5
BeatDivisor: 2
GridSize: 4
TimelineZoom: 2.4

[Metadata]
Title:Seishun no Archive (TV Size)
TitleUnicode:Seishun no Archive (TV Size)
Artist:Abydos High School Foreclosure Task Force
ArtistUnicode:Abydos High School Foreclosure Task Force
Creator:OfficialDuckys
Version:Blu Arc Hif
Source:ブルーアーカイブ The Animation
Tags:40mp blue archive nexon yostar video game jpop anime op pop chordjack
BeatmapID:4583247
BeatmapSetID:2171428

[Difficulty]
HPDrainRate:8
CircleSize:4
OverallDifficulty:8
ApproachRate:5
SliderMultiplier:1.4
SliderTickRate:1

[Events]
//Background and Video events
0,0,"bg.jpg",0,0
//Break Periods
//Storyboard Layer 0 (Background)
//Storyboard Layer 1 (Fail)
//Storyboard Layer 2 (Pass)
//Storyboard Layer 3 (Foreground)
//Storyboard Layer 4 (Overlay)
//Storyboard Sound Samples

[TimingPoints]
806,265.486725663717,4,1,0,100,1,0
49655,-100,4,1,0,100,0,1
58018,-100,4,1,0,100,0,0
66646,-100,4,1,0,100,0,1
75142,-100,4,1,0,100,0,0
79390,-100,4,1,0,100,0,1
86558,-100,4,1,0,100,0,0

[HitObjects]
64,192,540,5,0,0:0:0:0:
192,192,540,1,0,0:0:0:0:
64,192,806,1,0,0:0:0:0:
320,192,806,1,0,0:0:0:0:
448,192,806,1,0,0:0:0:0:
192,192,806,1,0,0:0:0:0:
448,192,1204,1,0,0:0:0:0:
320,192,1204,1,0,0:0:0:0:
64,192,1602,1,0,0:0:0:0:
192,192,1602,1,0,0:0:0:0:
448,192,1602,1,0,0:0:0:0:
64,192,2133,1,0,0:0:0:0:
192,192,2133,1,0,0:0:0:0:
320,192,2133,128,0,3991:0:0:0:0:
448,192,2133,128,0,3991:0:0:0:0:
64,192,3991,1,0,0:0:0:0:
192,192,4124,1,0,0:0:0:0:
320,192,4257,1,0,0:0:0:0:
448,192,4257,1,0,0:0:0:0:
192,192,4390,1,0,0:0:0:0:
320,192,4390,1,0,0:0:0:0:
448,192,4390,1,0,0:0:0:0:
64,192,4522,1,0,0:0:0:0:
192,192,4522,1,0,0:0:0:0:
448,192,4522,1,0,0:0:0:0:
320,192,4655,1,0,0:0:0:0:
64,192,4655,1,0,0:0:0:0:
192,192,4788,1,0,0:0:0:0:
448,192,4788,1,0,0:0:0:0:
320,192,4788,1,0,0:0:0:0:
64,192,4921,1,0,0:0:0:0:
64,192,5053,1,0,0:0:0:0:
192,192,5053,1,0,0:0:0:0:
448,192,5053,1,0,0:0:0:0:
320,192,5053,1,0,0:0:0:0:
448,192,5319,1,0,0:0:0:0:
192,192,5319,1,0,0:0:0:0:
64,192,5319,1,0,0:0:0:0:
64,192,5452,1,0,0:0:0:0:
320,192,5452,1,0,0:0:0:0:
448,192,5452,1,0,0:0:0:0:
192,192,5452,1,0,0:0:0:0:
64,192,5717,1,0,0:0:0:0:
320,192,5717,1,0,0:0:0:0:
448,192,5717,1,0,0:0:0:0:
64,192,5850,1,0,0:0:0:0:
192,192,5850,1,0,0:0:0:0:
448,192,5850,1,0,0:0:0:0:
320,192,5850,1,0,0:0:0:0:
320,192,6115,1,0,0:0:0:0:
448,192,6115,1,0,0:0:0:0:
192,192,6115,1,0,0:0:0:0:
64,192,6248,1,0,0:0:0:0:
192,192,6248,1,0,0:0:0:0:
448,192,6248,1,0,0:0:0:0:
320,192,6248,1,0,0:0:0:0:
64,192,6381,1,0,0:0:0:0:
320,192,6381,1,0,0:0:0:0:
448,192,6513,1,0,0:0:0:0:
192,192,6513,1,0,0:0:0:0:
64,192,6646,1,0,0:0:0:0:
448,192,6646,1,0,0:0:0:0:
320,192,6646,1,0,0:0:0:0:
320,192,6779,1,0,0:0:0:0:
192,192,6779,1,0,0:0:0:0:
64,192,6779,1,0,0:0:0:0:
192,192,6912,1,0,0:0:0:0:
448,192,6912,1,0,0:0:0:0:
320,192,6912,1,0,0:0:0:0:
64,192,7044,1,0,0:0:0:0:
448,192,7044,1,0,0:0:0:0:
192,192,7044,1,0,0:0:0:0:
64,192,7177,1,0,0:0:0:0:
192,192,7177,1,0,0:0:0:0:
320,192,7177,1,0,0:0:0:0:
448,192,7177,1,0,0:0:0:0:
64,192,7443,1,0,0:0:0:0:
448,192,7443,1,0,0:0:0:0:
320,192,7443,1,0,0:0:0:0:
64,192,7575,1,0,0:0:0:0:
192,192,7575,1,0,0:0:0:0:
448,192,7575,1,0,0:0:0:0:
320,192,7575,1,0,0:0:0:0:
64,192,7841,1,0,0:0:0:0:
448,192,7841,1,0,0:0:0:0:
192,192,7841,1,0,0:0:0:0:
64,192,7974,1,0,0:0:0:0:
448,192,7974,1,0,0:0:0:0:
192,192,7974,1,0,0:0:0:0:
320,192,7974,1,0,0:0:0:0:
64,192,8239,1,0,0:0:0:0:
448,192,8239,1,0,0:0:0:0:
320,192,8239,1,0,0:0:0:0:
64,192,8372,1,0,0:0:0:0:
320,192,8372,128,0,8770:0:0:0:0:
448,192,8372,128,0,9036:0:0:0:0:
192,192,8372,1,0,0:0:0:0:
64,192,8637,1,0,0:0:0:0:
192,192,8770,1,0,0:0:0:0:
64,192,8903,1,0,0:0:0:0:
192,192,9036,1,0,0:0:0:0:
320,192,9036,1,0,0:0:0:0:
320,192,9168,1,0,0:0:0:0:
64,192,9168,1,0,0:0:0:0:
64,192,9301,1,0,0:0:0:0:
192,192,9301,1,0,0:0:0:0:
320,192,9301,1,0,0:0:0:0:
448,192,9301,1,0,0:0:0:0:
192,192,9567,1,0,0:0:0:0:
320,192,9567,1,0,0:0:0:0:
448,192,9567,1,0,0:0:0:0:
448,192,9699,1,0,0:0:0:0:
320,192,9699,1,0,0:0:0:0:
192,192,9699,1,0,0:0:0:0:
64,192,9699,1,0,0:0:0:0:
64,192,9965,1,0,0:0:0:0:
192,192,9965,1,0,0:0:0:0:
448,192,9965,1,0,0:0:0:0:
448,192,10098,1,0,0:0:0:0:
320,192,10098,1,0,0:0:0:0:
192,192,10098,1,0,0:0:0:0:
64,192,10098,1,0,0:0:0:0:
192,192,10363,1,0,0:0:0:0:
320,192,10363,1,0,0:0:0:0:
448,192,10363,1,0,0:0:0:0:
64,192,10496,1,0,0:0:0:0:
192,192,10496,1,0,0:0:0:0:
320,192,10496,1,0,0:0:0:0:
448,192,10496,1,0,0:0:0:0:
64,192,10629,1,0,0:0:0:0:
448,192,10629,1,0,0:0:0:0:
192,192,10761,1,0,0:0:0:0:
320,192,10761,1,0,0:0:0:0:
192,192,10894,1,0,0:0:0:0:
64,192,10894,1,0,0:0:0:0:
448,192,10894,1,0,0:0:0:0:
320,192,11027,1,0,0:0:0:0:
448,192,11027,1,0,0:0:0:0:
64,192,11027,1,0,0:0:0:0:
64,192,11159,1,0,0:0:0:0:
192,192,11159,1,0,0:0:0:0:
320,192,11159,1,0,0:0:0:0:
192,192,11292,1,0,0:0:0:0:
320,192,11292,1,0,0:0:0:0:
448,192,11292,1,0,0:0:0:0:
64,192,11425,1,0,0:0:0:0:
320,192,11425,1,0,0:0:0:0:
192,192,11425,1,0,0:0:0:0:
448,192,11425,1,0,0:0:0:0:
64,192,11690,1,0,0:0:0:0:
192,192,11690,1,0,0:0:0:0:
448,192,11690,1,0,0:0:0:0:
192,192,11823,1,0,0:0:0:0:
64,192,11823,1,0,0:0:0:0:
320,192,11823,1,0,0:0:0:0:
448,192,11823,1,0,0:0:0:0:
320,192,12089,1,0,0:0:0:0:
448,192,12089,1,0,0:0:0:0:
64,192,12089,1,0,0:0:0:0:
320,192,12221,1,0,0:0:0:0:
448,192,12221,1,0,0:0:0:0:
64,192,12221,128,0,13018:0:0:0:0:
192,192,12221,128,0,13018:0:0:0:0:
448,192,13151,1,0,0:0:0:0:
320,192,13283,1,0,0:0:0:0:
192,192,13416,1,0,0:0:0:0:
64,192,13549,1,0,0:0:0:0:
448,192,13549,1,0,0:0:0:0:
192,192,13814,1,0,0:0:0:0:
320,192,13947,1,0,0:0:0:0:
448,192,13947,1,0,0:0:0:0:
64,192,14080,1,0,0:0:0:0:
448,192,14213,1,0,0:0:0:0:
64,192,14345,1,0,0:0:0:0:
192,192,14390,1,0,0:0:0:0:
320,192,14434,1,0,0:0:0:0:
448,192,14478,1,0,0:0:0:0:
64,192,14522,1,0,0:0:0:0:
192,192,14567,1,0,0:0:0:0:
320,192,14611,1,0,0:0:0:0:
448,192,14611,1,0,0:0:0:0:
64,192,14744,1,0,0:0:0:0:
192,192,14876,1,0,0:0:0:0:
448,192,15009,1,0,0:0:0:0:
320,192,15142,1,0,0:0:0:0:
64,192,15275,1,0,0:0:0:0:
192,192,15407,1,0,0:0:0:0:
320,192,15474,1,0,0:0:0:0:
192,192,15540,1,0,0:0:0:0:
320,192,15606,1,0,0:0:0:0:
64,192,15673,1,0,0:0:0:0:
448,192,15673,1,0,0:0:0:0:
192,192,15938,1,0,0:0:0:0:
320,192,16071,1,0,0:0:0:0:
448,192,16071,1,0,0:0:0:0:
192,192,16204,1,0,0:0:0:0:
64,192,16336,1,0,0:0:0:0:
448,192,16469,1,0,0:0:0:0:
320,192,16513,1,0,0:0:0:0:
192,192,16558,1,0,0:0:0:0:
64,192,16602,1,0,0:0:0:0:
448,192,16646,1,0,0:0:0:0:
320,192,16690,1,0,0:0:0:0:
192,192,16735,1,0,0:0:0:0:
64,192,16735,1,0,0:0:0:0:
320,192,17000,1,0,0:0:0:0:
64,192,17000,1,0,0:0:0:0:
192,192,17133,1,0,0:0:0:0:
448,192,17133,1,0,0:0:0:0:
320,192,17266,1,0,0:0:0:0:
448,192,17266,1,0,0:0:0:0:
64,192,17398,1,0,0:0:0:0:
192,192,17398,1,0,0:0:0:0:
64,192,17531,1,0,0:0:0:0:
448,192,17531,1,0,0:0:0:0:
320,192,17531,128,0,17730:0:0:0:0:
192,192,17664,1,0,0:0:0:0:
64,192,17797,1,0,0:0:0:0:
448,192,17797,1,0,0:0:0:0:
192,192,18062,1,0,0:0:0:0:
448,192,18195,1,0,0:0:0:0:
320,192,18195,1,0,0:0:0:0:
64,192,18328,1,0,0:0:0:0:
320,192,18460,1,0,0:0:0:0:
192,192,18593,128,0,18859:0:0:0:0:
448,192,18593,1,0,0:0:0:0:
320,192,18726,1,0,0:0:0:0:
64,192,18859,1,0,0:0:0:0:
448,192,18859,1,0,0:0:0:0:
320,192,19124,1,0,0:0:0:0:
192,192,19257,1,0,0:0:0:0:
320,192,19390,1,0,0:0:0:0:
192,192,19522,1,0,0:0:0:0:
320,192,19655,1,0,0:0:0:0:
192,192,19721,1,0,0:0:0:0:
320,192,19788,1,0,0:0:0:0:
192,192,19854,1,0,0:0:0:0:
64,192,19921,1,0,0:0:0:0:
448,192,19921,1,0,0:0:0:0:
320,192,20053,1,0,0:0:0:0:
192,192,20186,1,0,0:0:0:0:
448,192,20319,1,0,0:0:0:0:
64,192,20319,1,0,0:0:0:0:
320,192,20452,1,0,0:0:0:0:
192,192,20584,1,0,0:0:0:0:
320,192,20717,1,0,0:0:0:0:
448,192,20850,1,0,0:0:0:0:
192,192,20850,1,0,0:0:0:0:
64,192,20982,1,0,0:0:0:0:
320,192,20982,1,0,0:0:0:0:
192,192,21115,1,0,0:0:0:0:
448,192,21115,1,0,0:0:0:0:
320,192,21248,1,0,0:0:0:0:
192,192,21381,1,0,0:0:0:0:
64,192,21513,1,0,0:0:0:0:
448,192,21513,1,0,0:0:0:0:
320,192,21646,1,0,0:0:0:0:
448,192,21646,1,0,0:0:0:0:
192,192,21713,1,0,0:0:0:0:
64,192,21713,1,0,0:0:0:0:
320,192,21779,1,0,0:0:0:0:
448,192,21779,1,0,0:0:0:0:
192,192,21912,1,0,0:0:0:0:
64,192,21912,1,0,0:0:0:0:
64,192,22044,1,0,0:0:0:0:
320,192,22044,1,0,0:0:0:0:
448,192,22044,1,0,0:0:0:0:
192,192,22177,1,0,0:0:0:0:
64,192,22310,1,0,0:0:0:0:
448,192,22310,1,0,0:0:0:0:
192,192,22310,1,0,0:0:0:0:
320,192,22443,1,0,0:0:0:0:
448,192,22443,1,0,0:0:0:0:
64,192,22575,1,0,0:0:0:0:
320,192,22575,1,0,0:0:0:0:
192,192,22575,1,0,0:0:0:0:
192,192,22708,1,0,0:0:0:0:
64,192,22708,1,0,0:0:0:0:
448,192,22708,1,0,0:0:0:0:
192,192,22841,1,0,0:0:0:0:
320,192,22841,1,0,0:0:0:0:
448,192,22841,1,0,0:0:0:0:
64,192,22974,1,0,0:0:0:0:
320,192,22974,1,0,0:0:0:0:
320,192,23106,1,0,0:0:0:0:
192,192,23106,1,0,0:0:0:0:
448,192,23106,1,0,0:0:0:0:
64,192,23106,1,0,0:0:0:0:
192,192,23239,1,0,0:0:0:0:
448,192,23239,1,0,0:0:0:0:
320,192,23372,1,0,0:0:0:0:
192,192,23505,1,0,0:0:0:0:
64,192,23505,1,0,0:0:0:0:
320,192,23505,1,0,0:0:0:0:
448,192,23505,1,0,0:0:0:0:
192,192,23637,1,0,0:0:0:0:
64,192,23637,1,0,0:0:0:0:
320,192,23770,1,0,0:0:0:0:
448,192,23903,1,0,0:0:0:0:
320,192,24036,1,0,0:0:0:0:
192,192,24168,1,0,0:0:0:0:
64,192,24168,1,0,0:0:0:0:
448,192,24168,1,0,0:0:0:0:
320,192,24168,1,0,0:0:0:0:
192,192,24301,1,0,0:0:0:0:
192,192,24434,1,0,0:0:0:0:
320,192,24434,1,0,0:0:0:0:
448,192,24434,1,0,0:0:0:0:
64,192,24567,1,0,0:0:0:0:
448,192,24567,1,0,0:0:0:0:
320,192,24699,1,0,0:0:0:0:
192,192,24699,1,0,0:0:0:0:
64,192,24699,1,0,0:0:0:0:
320,192,24832,1,0,0:0:0:0:
448,192,24832,1,0,0:0:0:0:
192,192,24965,1,0,0:0:0:0:
64,192,24965,1,0,0:0:0:0:
448,192,24965,1,0,0:0:0:0:
192,192,25098,1,0,0:0:0:0:
64,192,25098,1,0,0:0:0:0:
320,192,25098,1,0,0:0:0:0:
448,192,25098,1,0,0:0:0:0:
320,192,25230,1,0,0:0:0:0:
192,192,25363,1,0,0:0:0:0:
64,192,25363,1,0,0:0:0:0:
320,192,25496,1,0,0:0:0:0:
448,192,25496,1,0,0:0:0:0:
64,192,25629,1,0,0:0:0:0:
448,192,25629,1,0,0:0:0:0:
192,192,25673,1,0,0:0:0:0:
320,192,25717,1,0,0:0:0:0:
448,192,25761,1,0,0:0:0:0:
64,192,26027,1,0,0:0:0:0:
192,192,26159,1,0,0:0:0:0:
64,192,26292,1,0,0:0:0:0:
192,192,26292,1,0,0:0:0:0:
320,192,26292,1,0,0:0:0:0:
448,192,26292,1,0,0:0:0:0:
320,192,26425,1,0,0:0:0:0:
192,192,26558,1,0,0:0:0:0:
320,192,26558,1,0,0:0:0:0:
448,192,26558,1,0,0:0:0:0:
192,192,26690,1,0,0:0:0:0:
64,192,26690,1,0,0:0:0:0:
64,192,26823,1,0,0:0:0:0:
448,192,26823,1,0,0:0:0:0:
320,192,26823,1,0,0:0:0:0:
192,192,26956,1,0,0:0:0:0:
64,192,27089,1,0,0:0:0:0:
320,192,27089,1,0,0:0:0:0:
448,192,27089,1,0,0:0:0:0:
64,192,27221,1,0,0:0:0:0:
192,192,27354,1,0,0:0:0:0:
320,192,27354,1,0,0:0:0:0:
448,192,27354,1,0,0:0:0:0:
64,192,27487,1,0,0:0:0:0:
448,192,27487,1,0,0:0:0:0:
192,192,27620,1,0,0:0:0:0:
320,192,27752,1,0,0:0:0:0:
64,192,27752,1,0,0:0:0:0:
192,192,27752,1,0,0:0:0:0:
448,192,27752,1,0,0:0:0:0:
320,192,27885,1,0,0:0:0:0:
448,192,28018,1,0,0:0:0:0:
320,192,28151,1,0,0:0:0:0:
192,192,28283,1,0,0:0:0:0:
64,192,28416,1,0,0:0:0:0:
320,192,28416,1,0,0:0:0:0:
448,192,28416,1,0,0:0:0:0:
192,192,28549,1,0,0:0:0:0:
320,192,28682,1,0,0:0:0:0:
64,192,28682,1,0,0:0:0:0:
192,192,28682,1,0,0:0:0:0:
320,192,28814,1,0,0:0:0:0:
448,192,28814,1,0,0:0:0:0:
64,192,28947,1,0,0:0:0:0:
448,192,28947,1,0,0:0:0:0:
320,192,29080,1,0,0:0:0:0:
64,192,29080,1,0,0:0:0:0:
192,192,29213,1,0,0:0:0:0:
320,192,29213,1,0,0:0:0:0:
448,192,29213,1,0,0:0:0:0:
64,192,29345,1,0,0:0:0:0:
192,192,29345,1,0,0:0:0:0:
448,192,29345,1,0,0:0:0:0:
320,192,29345,1,0,0:0:0:0:
64,192,29478,1,0,0:0:0:0:
192,192,29611,1,0,0:0:0:0:
448,192,29744,1,0,0:0:0:0:
320,192,29744,1,0,0:0:0:0:
320,192,30009,1,0,0:0:0:0:
192,192,30275,1,0,0:0:0:0:
64,192,30540,1,0,0:0:0:0:
320,192,30540,1,0,0:0:0:0:
448,192,30540,1,0,0:0:0:0:
192,192,30673,1,0,0:0:0:0:
320,192,30739,1,0,0:0:0:0:
192,192,30806,1,0,0:0:0:0:
320,192,30938,1,0,0:0:0:0:
64,192,31071,1,0,0:0:0:0:
448,192,31071,1,0,0:0:0:0:
192,192,31204,1,0,0:0:0:0:
448,192,31336,1,0,0:0:0:0:
320,192,31469,1,0,0:0:0:0:
192,192,31602,1,0,0:0:0:0:
64,192,31602,1,0,0:0:0:0:
448,192,31602,1,0,0:0:0:0:
192,192,31867,1,0,0:0:0:0:
320,192,32000,1,0,0:0:0:0:
192,192,32266,1,0,0:0:0:0:
320,192,32332,1,0,0:0:0:0:
192,192,32398,1,0,0:0:0:0:
448,192,32398,1,0,0:0:0:0:
64,192,32398,1,0,0:0:0:0:
320,192,32531,1,0,0:0:0:0:
448,192,32531,1,0,0:0:0:0:
64,192,32531,1,0,0:0:0:0:
192,192,32664,1,0,0:0:0:0:
320,192,32664,1,0,0:0:0:0:
448,192,32797,1,0,0:0:0:0:
320,192,32863,1,0,0:0:0:0:
192,192,32929,1,0,0:0:0:0:
64,192,33062,1,0,0:0:0:0:
448,192,33062,1,0,0:0:0:0:
320,192,33195,1,0,0:0:0:0:
64,192,33328,1,0,0:0:0:0:
192,192,33394,1,0,0:0:0:0:
320,192,33460,1,0,0:0:0:0:
448,192,33593,1,0,0:0:0:0:
64,192,33593,1,0,0:0:0:0:
192,192,33726,1,0,0:0:0:0:
320,192,33726,1,0,0:0:0:0:
64,192,33726,1,0,0:0:0:0:
192,192,33859,128,0,33991:0:0:0:0:
64,192,33991,1,0,0:0:0:0:
448,192,34058,1,0,0:0:0:0:
320,192,34091,1,0,0:0:0:0:
192,192,34124,1,0,0:0:0:0:
64,192,34157,1,0,0:0:0:0:
448,192,34190,1,0,0:0:0:0:
320,192,34224,1,0,0:0:0:0:
192,192,34257,1,0,0:0:0:0:
64,192,34257,1,0,0:0:0:0:
320,192,34390,1,0,0:0:0:0:
448,192,34456,1,0,0:0:0:0:
320,192,34522,1,0,0:0:0:0:
64,192,34522,1,0,0:0:0:0:
192,192,34522,1,0,0:0:0:0:
64,192,34655,1,0,0:0:0:0:
448,192,34655,1,0,0:0:0:0:
192,192,34721,1,0,0:0:0:0:
320,192,34788,1,0,0:0:0:0:
448,192,34788,1,0,0:0:0:0:
192,192,34921,1,0,0:0:0:0:
64,192,34987,1,0,0:0:0:0:
192,192,35053,1,0,0:0:0:0:
448,192,35186,1,0,0:0:0:0:
64,192,35319,1,0,0:0:0:0:
192,192,35452,1,0,0:0:0:0:
320,192,35452,128,0,35584:0:0:0:0:
448,192,35584,1,0,0:0:0:0:
192,192,35717,1,0,0:0:0:0:
64,192,35850,1,0,0:0:0:0:
320,192,35850,1,0,0:0:0:0:
448,192,35850,1,0,0:0:0:0:
192,192,36115,1,0,0:0:0:0:
64,192,36115,1,0,0:0:0:0:
448,192,36248,128,0,36513:0:0:0:0:
64,192,36248,128,0,36513:0:0:0:0:
320,192,36513,1,0,0:0:0:0:
192,192,36580,1,0,0:0:0:0:
320,192,36646,1,0,0:0:0:0:
64,192,36646,1,0,0:0:0:0:
448,192,36646,1,0,0:0:0:0:
192,192,36779,1,0,0:0:0:0:
64,192,36779,1,0,0:0:0:0:
320,192,36912,1,0,0:0:0:0:
448,192,36912,1,0,0:0:0:0:
192,192,37044,1,0,0:0:0:0:
64,192,37111,1,0,0:0:0:0:
320,192,37177,1,0,0:0:0:0:
192,192,37310,128,0,37575:0:0:0:0:
64,192,37310,128,0,37575:0:0:0:0:
320,192,37575,1,0,0:0:0:0:
448,192,37642,1,0,0:0:0:0:
320,192,37708,1,0,0:0:0:0:
64,192,37708,1,0,0:0:0:0:
192,192,37841,1,0,0:0:0:0:
320,192,37974,1,0,0:0:0:0:
448,192,37974,1,0,0:0:0:0:
448,192,38106,128,0,38239:0:0:0:0:
64,192,38106,1,0,0:0:0:0:
192,192,38173,1,0,0:0:0:0:
320,192,38239,1,0,0:0:0:0:
64,192,38306,1,0,0:0:0:0:
192,192,38339,1,0,0:0:0:0:
320,192,38372,1,0,0:0:0:0:
448,192,38405,1,0,0:0:0:0:
64,192,38438,1,0,0:0:0:0:
192,192,38471,1,0,0:0:0:0:
448,192,38505,1,0,0:0:0:0:
320,192,38505,1,0,0:0:0:0:
64,192,38637,1,0,0:0:0:0:
192,192,38637,1,0,0:0:0:0:
448,192,38770,1,0,0:0:0:0:
320,192,38770,1,0,0:0:0:0:
192,192,38903,1,0,0:0:0:0:
64,192,38903,1,0,0:0:0:0:
320,192,38969,1,0,0:0:0:0:
448,192,38969,1,0,0:0:0:0:
192,192,39036,1,0,0:0:0:0:
64,192,39036,1,0,0:0:0:0:
320,192,39168,1,0,0:0:0:0:
64,192,39301,1,0,0:0:0:0:
448,192,39301,1,0,0:0:0:0:
320,192,39434,1,0,0:0:0:0:
192,192,39500,1,0,0:0:0:0:
64,192,39567,1,0,0:0:0:0:
448,192,39567,1,0,0:0:0:0:
192,192,39699,1,0,0:0:0:0:
320,192,39699,1,0,0:0:0:0:
64,192,39832,1,0,0:0:0:0:
448,192,39832,1,0,0:0:0:0:
320,192,39832,1,0,0:0:0:0:
192,192,39965,1,0,0:0:0:0:
64,192,39965,1,0,0:0:0:0:
320,192,40098,1,0,0:0:0:0:
192,192,40098,1,0,0:0:0:0:
448,192,40230,1,0,0:0:0:0:
64,192,40363,1,0,0:0:0:0:
192,192,40363,1,0,0:0:0:0:
320,192,40363,1,0,0:0:0:0:
192,192,40496,1,0,0:0:0:0:
320,192,40562,1,0,0:0:0:0:
448,192,40629,1,0,0:0:0:0:
64,192,40629,1,0,0:0:0:0:
320,192,40761,1,0,0:0:0:0:
192,192,40761,1,0,0:0:0:0:
320,192,40894,1,0,0:0:0:0:
448,192,40894,1,0,0:0:0:0:
64,192,40894,1,0,0:0:0:0:
192,192,41027,1,0,0:0:0:0:
64,192,41027,1,0,0:0:0:0:
192,192,41159,1,0,0:0:0:0:
448,192,41159,1,0,0:0:0:0:
320,192,41159,1,0,0:0:0:0:
64,192,41292,1,0,0:0:0:0:
448,192,41292,1,0,0:0:0:0:
320,192,41292,1,0,0:0:0:0:
64,192,41425,1,0,0:0:0:0:
192,192,41425,1,0,0:0:0:0:
320,192,41425,1,0,0:0:0:0:
320,192,41558,1,0,0:0:0:0:
448,192,41558,1,0,0:0:0:0:
192,192,41558,1,0,0:0:0:0:
192,192,41690,1,0,0:0:0:0:
448,192,41690,1,0,0:0:0:0:
64,192,41690,1,0,0:0:0:0:
192,192,41823,1,0,0:0:0:0:
64,192,41823,1,0,0:0:0:0:
320,192,41823,1,0,0:0:0:0:
64,192,41956,1,0,0:0:0:0:
448,192,41956,1,0,0:0:0:0:
320,192,41956,1,0,0:0:0:0:
320,192,42089,1,0,0:0:0:0:
448,192,42089,1,0,0:0:0:0:
192,192,42089,1,0,0:0:0:0:
64,192,42221,1,0,0:0:0:0:
192,192,42221,1,0,0:0:0:0:
320,192,42288,1,0,0:0:0:0:
448,192,42288,1,0,0:0:0:0:
192,192,42354,1,0,0:0:0:0:
64,192,42354,1,0,0:0:0:0:
320,192,42421,1,0,0:0:0:0:
448,192,42421,1,0,0:0:0:0:
192,192,42487,1,0,0:0:0:0:
64,192,42487,1,0,0:0:0:0:
448,192,42553,1,0,0:0:0:0:
320,192,42553,1,0,0:0:0:0:
192,192,42620,1,0,0:0:0:0:
64,192,42620,1,0,0:0:0:0:
320,192,42686,1,0,0:0:0:0:
448,192,42686,1,0,0:0:0:0:
192,192,42752,1,0,0:0:0:0:
64,192,42752,1,0,0:0:0:0:
320,192,42819,1,0,0:0:0:0:
448,192,42819,1,0,0:0:0:0:
64,192,42885,1,0,0:0:0:0:
192,192,42885,1,0,0:0:0:0:
320,192,42952,1,0,0:0:0:0:
448,192,42952,1,0,0:0:0:0:
192,192,43018,1,0,0:0:0:0:
64,192,43018,1,0,0:0:0:0:
320,192,43084,1,0,0:0:0:0:
448,192,43084,1,0,0:0:0:0:
192,192,43151,1,0,0:0:0:0:
64,192,43151,1,0,0:0:0:0:
320,192,43217,1,0,0:0:0:0:
448,192,43217,1,0,0:0:0:0:
64,192,43283,128,0,43482:0:0:0:0:
192,192,43283,128,0,43482:0:0:0:0:
448,192,43482,128,0,43615:0:0:0:0:
320,192,43615,128,0,43748:0:0:0:0:
192,192,43814,1,0,0:0:0:0:
64,192,43814,1,0,0:0:0:0:
64,192,43991,1,0,0:0:0:0:
448,192,43991,1,0,0:0:0:0:
192,192,44168,1,0,0:0:0:0:
320,192,44168,1,0,0:0:0:0:
64,192,44345,1,0,0:0:0:0:
448,192,44345,1,0,0:0:0:0:
64,192,44522,1,0,0:0:0:0:
192,192,44522,1,0,0:0:0:0:
320,192,44699,1,0,0:0:0:0:
448,192,44699,1,0,0:0:0:0:
64,192,44876,1,0,0:0:0:0:
448,192,44876,1,0,0:0:0:0:
320,192,45053,1,0,0:0:0:0:
192,192,45053,1,0,0:0:0:0:
64,192,45230,1,0,0:0:0:0:
320,192,45230,1,0,0:0:0:0:
192,192,45407,1,0,0:0:0:0:
64,192,45407,1,0,0:0:0:0:
448,192,45407,1,0,0:0:0:0:
320,192,45407,1,0,0:0:0:0:
192,192,45540,1,0,0:0:0:0:
64,192,45673,1,0,0:0:0:0:
448,192,45673,1,0,0:0:0:0:
192,192,45806,1,0,0:0:0:0:
64,192,45806,1,0,0:0:0:0:
192,192,45938,1,0,0:0:0:0:
320,192,45938,1,0,0:0:0:0:
448,192,45938,1,0,0:0:0:0:
320,192,46071,1,0,0:0:0:0:
64,192,46204,1,0,0:0:0:0:
448,192,46204,1,0,0:0:0:0:
320,192,46336,1,0,0:0:0:0:
448,192,46336,1,0,0:0:0:0:
192,192,46469,1,0,0:0:0:0:
64,192,46469,1,0,0:0:0:0:
320,192,46602,1,0,0:0:0:0:
64,192,46735,1,0,0:0:0:0:
448,192,46735,1,0,0:0:0:0:
192,192,46867,1,0,0:0:0:0:
320,192,47000,1,0,0:0:0:0:
448,192,47000,1,0,0:0:0:0:
192,192,47133,1,0,0:0:0:0:
448,192,47133,1,0,0:0:0:0:
192,192,47266,1,0,0:0:0:0:
64,192,47266,1,0,0:0:0:0:
448,192,47398,1,0,0:0:0:0:
64,192,47398,1,0,0:0:0:0:
192,192,47531,1,0,0:0:0:0:
320,192,47531,1,0,0:0:0:0:
448,192,47531,1,0,0:0:0:0:
64,192,47531,1,0,0:0:0:0:
320,192,47664,1,0,0:0:0:0:
320,192,47797,1,0,0:0:0:0:
192,192,47929,1,0,0:0:0:0:
64,192,47929,1,0,0:0:0:0:
320,192,47929,1,0,0:0:0:0:
448,192,47929,1,0,0:0:0:0:
192,192,48062,1,0,0:0:0:0:
192,192,48195,1,0,0:0:0:0:
64,192,48328,1,0,0:0:0:0:
192,192,48328,1,0,0:0:0:0:
320,192,48328,1,0,0:0:0:0:
448,192,48328,1,0,0:0:0:0:
448,192,48460,1,0,0:0:0:0:
448,192,48593,1,0,0:0:0:0:
448,192,48726,1,0,0:0:0:0:
320,192,48726,1,0,0:0:0:0:
192,192,48726,1,0,0:0:0:0:
64,192,48726,1,0,0:0:0:0:
64,192,48859,1,0,0:0:0:0:
64,192,48991,1,0,0:0:0:0:
64,192,49124,1,0,0:0:0:0:
448,192,49124,1,0,0:0:0:0:
192,192,49390,1,0,0:0:0:0:
320,192,49390,1,0,0:0:0:0:
448,192,49390,1,0,0:0:0:0:
64,192,49655,1,0,0:0:0:0:
192,192,49655,1,0,0:0:0:0:
320,192,49655,1,0,0:0:0:0:
448,192,49655,1,0,0:0:0:0:
320,192,49788,1,0,0:0:0:0:
64,192,49788,1,0,0:0:0:0:
64,192,49921,1,0,0:0:0:0:
192,192,49921,1,0,0:0:0:0:
448,192,49921,1,0,0:0:0:0:
320,192,50053,1,0,0:0:0:0:
192,192,50186,1,0,0:0:0:0:
64,192,50186,1,0,0:0:0:0:
448,192,50186,1,0,0:0:0:0:
320,192,50186,1,0,0:0:0:0:
448,192,50319,1,0,0:0:0:0:
192,192,50319,1,0,0:0:0:0:
192,192,50452,1,0,0:0:0:0:
64,192,50452,1,0,0:0:0:0:
320,192,50452,1,0,0:0:0:0:
448,192,50452,1,0,0:0:0:0:
64,192,50584,1,0,0:0:0:0:
192,192,50584,1,0,0:0:0:0:
64,192,50717,1,0,0:0:0:0:
448,192,50717,1,0,0:0:0:0:
320,192,50717,1,0,0:0:0:0:
320,192,50850,1,0,0:0:0:0:
64,192,50982,1,0,0:0:0:0:
448,192,50982,1,0,0:0:0:0:
320,192,50982,1,0,0:0:0:0:
192,192,50982,1,0,0:0:0:0:
192,192,51115,1,0,0:0:0:0:
64,192,51248,1,0,0:0:0:0:
192,192,51248,1,0,0:0:0:0:
320,192,51248,1,0,0:0:0:0:
448,192,51248,1,0,0:0:0:0:
320,192,51381,1,0,0:0:0:0:
64,192,51513,1,0,0:0:0:0:
320,192,51513,1,0,0:0:0:0:
448,192,51513,1,0,0:0:0:0:
192,192,51513,1,0,0:0:0:0:
64,192,51646,1,0,0:0:0:0:
448,192,51646,1,0,0:0:0:0:
192,192,51779,1,0,0:0:0:0:
64,192,51779,1,0,0:0:0:0:
320,192,51779,1,0,0:0:0:0:
448,192,51779,1,0,0:0:0:0:
192,192,51912,1,0,0:0:0:0:
320,192,51912,1,0,0:0:0:0:
64,192,52044,1,0,0:0:0:0:
448,192,52044,1,0,0:0:0:0:
320,192,52044,1,0,0:0:0:0:
192,192,52044,1,0,0:0:0:0:
448,192,52177,1,0,0:0:0:0:
64,192,52177,1,0,0:0:0:0:
192,192,52310,1,0,0:0:0:0:
64,192,52310,1,0,0:0:0:0:
320,192,52310,1,0,0:0:0:0:
192,192,52443,1,0,0:0:0:0:
64,192,52575,1,0,0:0:0:0:
320,192,52575,1,0,0:0:0:0:
448,192,52575,1,0,0:0:0:0:
320,192,52708,1,0,0:0:0:0:
448,192,52708,1,0,0:0:0:0:
192,192,52708,1,0,0:0:0:0:
64,192,52841,1,0,0:0:0:0:
192,192,52841,1,0,0:0:0:0:
448,192,52841,1,0,0:0:0:0:
64,192,52974,1,0,0:0:0:0:
320,192,52974,1,0,0:0:0:0:
64,192,53106,1,0,0:0:0:0:
192,192,53106,1,0,0:0:0:0:
320,192,53106,1,0,0:0:0:0:
448,192,53106,1,0,0:0:0:0:
192,192,53239,1,0,0:0:0:0:
448,192,53239,1,0,0:0:0:0:
448,192,53372,1,0,0:0:0:0:
320,192,53372,1,0,0:0:0:0:
64,192,53372,1,0,0:0:0:0:
64,192,53505,1,0,0:0:0:0:
64,192,53637,1,0,0:0:0:0:
192,192,53637,1,0,0:0:0:0:
320,192,53637,1,0,0:0:0:0:
448,192,53637,1,0,0:0:0:0:
192,192,53770,1,0,0:0:0:0:
448,192,53770,1,0,0:0:0:0:
448,192,53903,1,0,0:0:0:0:
64,192,53903,1,0,0:0:0:0:
192,192,53903,1,0,0:0:0:0:
320,192,53903,1,0,0:0:0:0:
448,192,54036,1,0,0:0:0:0:
64,192,54036,1,0,0:0:0:0:
448,192,54168,1,0,0:0:0:0:
320,192,54168,1,0,0:0:0:0:
192,192,54168,1,0,0:0:0:0:
64,192,54168,1,0,0:0:0:0:
192,192,54301,1,0,0:0:0:0:
320,192,54301,1,0,0:0:0:0:
64,192,54434,1,0,0:0:0:0:
448,192,54434,1,0,0:0:0:0:
192,192,54434,1,0,0:0:0:0:
320,192,54434,1,0,0:0:0:0:
448,192,54567,1,0,0:0:0:0:
320,192,54567,1,0,0:0:0:0:
64,192,54567,1,0,0:0:0:0:
64,192,54699,1,0,0:0:0:0:
192,192,54699,1,0,0:0:0:0:
448,192,54699,1,0,0:0:0:0:
320,192,54699,1,0,0:0:0:0:
192,192,54832,1,0,0:0:0:0:
64,192,54832,1,0,0:0:0:0:
64,192,54965,1,0,0:0:0:0:
320,192,54965,1,0,0:0:0:0:
448,192,54965,1,0,0:0:0:0:
192,192,54965,1,0,0:0:0:0:
320,192,55098,1,0,0:0:0:0:
192,192,55230,1,0,0:0:0:0:
64,192,55230,1,0,0:0:0:0:
448,192,55230,1,0,0:0:0:0:
320,192,55230,1,0,0:0:0:0:
448,192,55363,1,0,0:0:0:0:
192,192,55363,1,0,0:0:0:0:
64,192,55496,1,0,0:0:0:0:
192,192,55496,1,0,0:0:0:0:
320,192,55496,1,0,0:0:0:0:
448,192,55496,1,0,0:0:0:0:
320,192,55629,1,0,0:0:0:0:
448,192,55629,1,0,0:0:0:0:
64,192,55629,1,0,0:0:0:0:
64,192,55761,1,0,0:0:0:0:
192,192,55761,1,0,0:0:0:0:
320,192,55761,1,0,0:0:0:0:
448,192,55761,1,0,0:0:0:0:
64,192,55894,1,0,0:0:0:0:
320,192,55894,1,0,0:0:0:0:
64,192,56027,1,0,0:0:0:0:
192,192,56027,1,0,0:0:0:0:
320,192,56027,1,0,0:0:0:0:
448,192,56027,1,0,0:0:0:0:
192,192,56159,1,0,0:0:0:0:
448,192,56292,1,0,0:0:0:0:
192,192,56292,1,0,0:0:0:0:
64,192,56292,1,0,0:0:0:0:
320,192,56292,1,0,0:0:0:0:
320,192,56425,1,0,0:0:0:0:
448,192,56425,1,0,0:0:0:0:
448,192,56558,1,0,0:0:0:0:
320,192,56558,1,0,0:0:0:0:
192,192,56558,1,0,0:0:0:0:
64,192,56558,1,0,0:0:0:0:
64,192,56690,1,0,0:0:0:0:
192,192,56690,1,0,0:0:0:0:
448,192,56690,1,0,0:0:0:0:
320,192,56823,1,0,0:0:0:0:
192,192,56823,1,0,0:0:0:0:
64,192,56823,1,0,0:0:0:0:
448,192,56823,1,0,0:0:0:0:
192,192,56956,1,0,0:0:0:0:
320,192,56956,1,0,0:0:0:0:
448,192,56956,1,0,0:0:0:0:
448,192,57089,1,0,0:0:0:0:
320,192,57089,1,0,0:0:0:0:
192,192,57089,1,0,0:0:0:0:
64,192,57089,1,0,0:0:0:0:
64,192,57221,1,0,0:0:0:0:
320,192,57221,1,0,0:0:0:0:
192,192,57221,1,0,0:0:0:0:
64,192,57354,1,0,0:0:0:0:
192,192,57354,1,0,0:0:0:0:
320,192,57354,1,0,0:0:0:0:
448,192,57354,1,0,0:0:0:0:
448,192,57487,1,0,0:0:0:0:
64,192,57487,1,0,0:0:0:0:
64,192,57620,1,0,0:0:0:0:
192,192,57620,1,0,0:0:0:0:
320,192,57620,1,0,0:0:0:0:
448,192,57620,1,0,0:0:0:0:
192,192,57752,1,0,0:0:0:0:
448,192,57752,1,0,0:0:0:0:
320,192,57752,1,0,0:0:0:0:
448,192,57885,1,0,0:0:0:0:
64,192,57885,1,0,0:0:0:0:
192,192,57885,1,0,0:0:0:0:
64,192,58018,1,0,0:0:0:0:
192,192,58018,1,0,0:0:0:0:
320,192,58018,1,0,0:0:0:0:
448,192,58018,1,0,0:0:0:0:
320,192,58151,1,0,0:0:0:0:
64,192,58151,1,0,0:0:0:0:
192,192,58283,1,0,0:0:0:0:
448,192,58283,1,0,0:0:0:0:
64,192,58416,1,0,0:0:0:0:
192,192,58416,1,0,0:0:0:0:
320,192,58416,1,0,0:0:0:0:
448,192,58416,1,0,0:0:0:0:
320,192,58549,1,0,0:0:0:0:
192,192,58682,1,0,0:0:0:0:
64,192,58682,1,0,0:0:0:0:
448,192,58682,1,0,0:0:0:0:
192,192,58814,1,0,0:0:0:0:
320,192,58814,1,0,0:0:0:0:
64,192,58947,1,0,0:0:0:0:
448,192,58947,1,0,0:0:0:0:
320,192,58947,1,0,0:0:0:0:
192,192,59080,1,0,0:0:0:0:
64,192,59080,1,0,0:0:0:0:
448,192,59080,1,0,0:0:0:0:
192,192,59213,1,0,0:0:0:0:
320,192,59345,1,0,0:0:0:0:
448,192,59345,1,0,0:0:0:0:
64,192,59478,1,0,0:0:0:0:
192,192,59478,1,0,0:0:0:0:
448,192,59478,1,0,0:0:0:0:
192,192,59611,1,0,0:0:0:0:
64,192,59744,1,0,0:0:0:0:
320,192,59744,1,0,0:0:0:0:
448,192,59876,1,0,0:0:0:0:
320,192,59876,1,0,0:0:0:0:
64,192,60009,1,0,0:0:0:0:
192,192,60009,1,0,0:0:0:0:
448,192,60009,1,0,0:0:0:0:
192,192,60142,1,0,0:0:0:0:
320,192,60142,1,0,0:0:0:0:
64,192,60142,1,0,0:0:0:0:
320,192,60275,1,0,0:0:0:0:
64,192,60407,1,0,0:0:0:0:
448,192,60407,1,0,0:0:0:0:
64,192,60540,1,0,0:0:0:0:
192,192,60540,1,0,0:0:0:0:
320,192,60540,1,0,0:0:0:0:
448,192,60540,1,0,0:0:0:0:
192,192,60673,1,0,0:0:0:0:
320,192,60806,1,0,0:0:0:0:
448,192,60806,1,0,0:0:0:0:
64,192,60806,1,0,0:0:0:0:
192,192,60938,1,0,0:0:0:0:
64,192,60938,1,0,0:0:0:0:
320,192,61071,1,0,0:0:0:0:
448,192,61071,1,0,0:0:0:0:
192,192,61071,1,0,0:0:0:0:
448,192,61204,1,0,0:0:0:0:
64,192,61204,1,0,0:0:0:0:
320,192,61204,1,0,0:0:0:0:
192,192,61336,1,0,0:0:0:0:
320,192,61469,1,0,0:0:0:0:
448,192,61469,1,0,0:0:0:0:
448,192,61602,1,0,0:0:0:0:
192,192,61602,1,0,0:0:0:0:
64,192,61602,1,0,0:0:0:0:
64,192,61735,1,0,0:0:0:0:
192,192,61867,1,0,0:0:0:0:
320,192,61867,1,0,0:0:0:0:
448,192,61867,1,0,0:0:0:0:
320,192,62000,1,0,0:0:0:0:
448,192,62000,1,0,0:0:0:0:
192,192,62133,1,0,0:0:0:0:
64,192,62133,1,0,0:0:0:0:
448,192,62133,1,0,0:0:0:0:
192,192,62266,1,0,0:0:0:0:
320,192,62266,1,0,0:0:0:0:
192,192,62398,1,0,0:0:0:0:
64,192,62398,1,0,0:0:0:0:
448,192,62398,1,0,0:0:0:0:
320,192,62398,1,0,0:0:0:0:
448,192,62531,1,0,0:0:0:0:
448,192,62664,1,0,0:0:0:0:
192,192,62664,1,0,0:0:0:0:
64,192,62664,1,0,0:0:0:0:
320,192,62797,1,0,0:0:0:0:
192,192,62797,1,0,0:0:0:0:
64,192,62929,1,0,0:0:0:0:
320,192,62929,1,0,0:0:0:0:
448,192,63062,1,0,0:0:0:0:
64,192,63062,1,0,0:0:0:0:
192,192,63195,1,0,0:0:0:0:
320,192,63195,1,0,0:0:0:0:
448,192,63195,1,0,0:0:0:0:
320,192,63328,1,0,0:0:0:0:
64,192,63328,1,0,0:0:0:0:
192,192,63460,1,0,0:0:0:0:
64,192,63593,1,0,0:0:0:0:
448,192,63593,1,0,0:0:0:0:
320,192,63726,1,0,0:0:0:0:
192,192,63726,1,0,0:0:0:0:
448,192,63726,1,0,0:0:0:0:
192,192,63859,1,0,0:0:0:0:
64,192,63859,1,0,0:0:0:0:
320,192,63925,1,0,0:0:0:0:
192,192,63991,1,0,0:0:0:0:
64,192,63991,1,0,0:0:0:0:
448,192,63991,1,0,0:0:0:0:
320,192,64124,1,0,0:0:0:0:
448,192,64124,1,0,0:0:0:0:
192,192,64257,1,0,0:0:0:0:
64,192,64257,1,0,0:0:0:0:
320,192,64257,1,0,0:0:0:0:
64,192,64390,1,0,0:0:0:0:
448,192,64390,1,0,0:0:0:0:
64,192,64522,1,0,0:0:0:0:
192,192,64522,1,0,0:0:0:0:
320,192,64522,1,0,0:0:0:0:
448,192,64522,1,0,0:0:0:0:
64,192,64788,1,0,0:0:0:0:
320,192,64788,1,0,0:0:0:0:
448,192,64788,1,0,0:0:0:0:
448,192,64921,1,0,0:0:0:0:
64,192,64921,1,0,0:0:0:0:
192,192,64921,1,0,0:0:0:0:
320,192,64921,1,0,0:0:0:0:
64,192,65186,1,0,0:0:0:0:
192,192,65186,1,0,0:0:0:0:
448,192,65186,1,0,0:0:0:0:
448,192,65319,1,0,0:0:0:0:
192,192,65319,1,0,0:0:0:0:
64,192,65319,1,0,0:0:0:0:
320,192,65319,1,0,0:0:0:0:
192,192,65584,1,0,0:0:0:0:
448,192,65584,1,0,0:0:0:0:
320,192,65584,1,0,0:0:0:0:
64,192,65717,128,0,65916:0:0:0:0:
192,192,65717,128,0,65916:0:0:0:0:
320,192,65717,128,0,65916:0:0:0:0:
448,192,65717,128,0,65916:0:0:0:0:
192,192,65982,1,0,0:0:0:0:
64,192,65982,1,0,0:0:0:0:
320,192,66049,1,0,0:0:0:0:
448,192,66049,1,0,0:0:0:0:
192,192,66115,1,0,0:0:0:0:
64,192,66115,1,0,0:0:0:0:
320,192,66248,1,0,0:0:0:0:
448,192,66248,1,0,0:0:0:0:
192,192,66381,1,0,0:0:0:0:
64,192,66381,1,0,0:0:0:0:
448,192,66381,1,0,0:0:0:0:
320,192,66381,1,0,0:0:0:0:
64,192,66513,1,0,0:0:0:0:
448,192,66513,1,0,0:0:0:0:
320,192,66646,1,0,0:0:0:0:
192,192,66646,1,0,0:0:0:0:
64,192,66646,1,0,0:0:0:0:
448,192,66646,1,0,0:0:0:0:
192,192,66779,1,0,0:0:0:0:
64,192,66779,1,0,0:0:0:0:
64,192,66912,1,0,0:0:0:0:
320,192,66912,1,0,0:0:0:0:
448,192,66912,1,0,0:0:0:0:
192,192,66912,1,0,0:0:0:0:
448,192,67044,1,0,0:0:0:0:
192,192,67044,1,0,0:0:0:0:
320,192,67177,1,0,0:0:0:0:
192,192,67177,1,0,0:0:0:0:
64,192,67177,1,0,0:0:0:0:
448,192,67177,1,0,0:0:0:0:
320,192,67310,1,0,0:0:0:0:
448,192,67310,1,0,0:0:0:0:
64,192,67310,1,0,0:0:0:0:
448,192,67443,1,0,0:0:0:0:
192,192,67443,1,0,0:0:0:0:
64,192,67443,1,0,0:0:0:0:
192,192,67575,1,0,0:0:0:0:
320,192,67575,1,0,0:0:0:0:
64,192,67575,1,0,0:0:0:0:
448,192,67708,1,0,0:0:0:0:
320,192,67708,1,0,0:0:0:0:
64,192,67841,1,0,0:0:0:0:
192,192,67841,1,0,0:0:0:0:
448,192,67841,1,0,0:0:0:0:
192,192,67974,1,0,0:0:0:0:
320,192,67974,1,0,0:0:0:0:
64,192,67974,1,0,0:0:0:0:
448,192,67974,1,0,0:0:0:0:
320,192,68106,1,0,0:0:0:0:
192,192,68106,1,0,0:0:0:0:
64,192,68239,1,0,0:0:0:0:
320,192,68239,1,0,0:0:0:0:
448,192,68239,1,0,0:0:0:0:
192,192,68372,1,0,0:0:0:0:
64,192,68372,1,0,0:0:0:0:
448,192,68372,1,0,0:0:0:0:
448,192,68505,1,0,0:0:0:0:
320,192,68505,1,0,0:0:0:0:
192,192,68505,1,0,0:0:0:0:
64,192,68505,1,0,0:0:0:0:
320,192,68637,1,0,0:0:0:0:
64,192,68637,1,0,0:0:0:0:
192,192,68770,1,0,0:0:0:0:
320,192,68770,1,0,0:0:0:0:
448,192,68770,1,0,0:0:0:0:
192,192,68903,1,0,0:0:0:0:
448,192,68903,1,0,0:0:0:0:
320,192,69036,1,0,0:0:0:0:
192,192,69036,1,0,0:0:0:0:
64,192,69036,1,0,0:0:0:0:
448,192,69036,1,0,0:0:0:0:
64,192,69168,1,0,0:0:0:0:
192,192,69168,1,0,0:0:0:0:
64,192,69301,1,0,0:0:0:0:
192,192,69301,1,0,0:0:0:0:
320,192,69301,1,0,0:0:0:0:
448,192,69301,1,0,0:0:0:0:
320,192,69434,1,0,0:0:0:0:
448,192,69434,1,0,0:0:0:0:
64,192,69434,1,0,0:0:0:0:
192,192,69567,1,0,0:0:0:0:
320,192,69567,1,0,0:0:0:0:
448,192,69567,1,0,0:0:0:0:
64,192,69567,1,0,0:0:0:0:
192,192,69699,1,0,0:0:0:0:
448,192,69699,1,0,0:0:0:0:
448,192,69832,1,0,0:0:0:0:
320,192,69832,1,0,0:0:0:0:
64,192,69832,1,0,0:0:0:0:
192,192,69965,1,0,0:0:0:0:
64,192,69965,1,0,0:0:0:0:
320,192,69965,1,0,0:0:0:0:
192,192,70098,1,0,0:0:0:0:
320,192,70098,1,0,0:0:0:0:
448,192,70098,1,0,0:0:0:0:
64,192,70098,1,0,0:0:0:0:
192,192,70230,1,0,0:0:0:0:
448,192,70230,1,0,0:0:0:0:
448,192,70363,1,0,0:0:0:0:
64,192,70363,1,0,0:0:0:0:
192,192,70496,1,0,0:0:0:0:
64,192,70496,1,0,0:0:0:0:
192,192,70629,1,0,0:0:0:0:
320,192,70629,1,0,0:0:0:0:
448,192,70629,1,0,0:0:0:0:
64,192,70629,1,0,0:0:0:0:
320,192,70761,1,0,0:0:0:0:
448,192,70761,1,0,0:0:0:0:
448,192,70894,1,0,0:0:0:0:
320,192,70894,1,0,0:0:0:0:
192,192,70894,1,0,0:0:0:0:
64,192,70894,1,0,0:0:0:0:
64,192,71027,1,0,0:0:0:0:
448,192,71027,1,0,0:0:0:0:
448,192,71159,1,0,0:0:0:0:
64,192,71159,1,0,0:0:0:0:
320,192,71159,1,0,0:0:0:0:
192,192,71159,1,0,0:0:0:0:
192,192,71292,1,0,0:0:0:0:
64,192,71425,1,0,0:0:0:0:
192,192,71425,1,0,0:0:0:0:
320,192,71425,1,0,0:0:0:0:
448,192,71425,1,0,0:0:0:0:
64,192,71558,1,0,0:0:0:0:
448,192,71558,1,0,0:0:0:0:
192,192,71558,1,0,0:0:0:0:
448,192,71690,1,0,0:0:0:0:
320,192,71690,1,0,0:0:0:0:
64,192,71690,1,0,0:0:0:0:
192,192,71690,1,0,0:0:0:0:
320,192,71823,1,0,0:0:0:0:
448,192,71823,1,0,0:0:0:0:
64,192,71956,1,0,0:0:0:0:
192,192,71956,1,0,0:0:0:0:
320,192,71956,1,0,0:0:0:0:
448,192,71956,1,0,0:0:0:0:
64,192,72089,1,0,0:0:0:0:
448,192,72089,1,0,0:0:0:0:
192,192,72221,1,0,0:0:0:0:
64,192,72221,1,0,0:0:0:0:
448,192,72221,1,0,0:0:0:0:
320,192,72221,1,0,0:0:0:0:
64,192,72354,1,0,0:0:0:0:
320,192,72354,1,0,0:0:0:0:
448,192,72487,1,0,0:0:0:0:
320,192,72487,1,0,0:0:0:0:
192,192,72487,1,0,0:0:0:0:
64,192,72487,1,0,0:0:0:0:
192,192,72620,1,0,0:0:0:0:
320,192,72620,1,0,0:0:0:0:
448,192,72620,1,0,0:0:0:0:
448,192,72752,1,0,0:0:0:0:
192,192,72752,1,0,0:0:0:0:
64,192,72752,1,0,0:0:0:0:
320,192,72752,1,0,0:0:0:0:
64,192,72885,1,0,0:0:0:0:
448,192,72885,1,0,0:0:0:0:
448,192,73018,1,0,0:0:0:0:
320,192,73018,1,0,0:0:0:0:
192,192,73018,1,0,0:0:0:0:
64,192,73018,1,0,0:0:0:0:
192,192,73151,1,0,0:0:0:0:
192,192,73283,1,0,0:0:0:0:
64,192,73283,1,0,0:0:0:0:
448,192,73283,1,0,0:0:0:0:
320,192,73283,1,0,0:0:0:0:
448,192,73416,1,0,0:0:0:0:
64,192,73416,1,0,0:0:0:0:
448,192,73549,1,0,0:0:0:0:
320,192,73549,1,0,0:0:0:0:
64,192,73549,1,0,0:0:0:0:
192,192,73549,1,0,0:0:0:0:
320,192,73682,1,0,0:0:0:0:
64,192,73682,1,0,0:0:0:0:
64,192,73814,1,0,0:0:0:0:
192,192,73814,1,0,0:0:0:0:
320,192,73814,1,0,0:0:0:0:
448,192,73814,1,0,0:0:0:0:
64,192,73947,1,0,0:0:0:0:
192,192,73947,1,0,0:0:0:0:
448,192,73947,1,0,0:0:0:0:
448,192,74080,1,0,0:0:0:0:
320,192,74080,1,0,0:0:0:0:
192,192,74080,1,0,0:0:0:0:
64,192,74080,1,0,0:0:0:0:
320,192,74213,1,0,0:0:0:0:
192,192,74213,1,0,0:0:0:0:
64,192,74345,1,0,0:0:0:0:
192,192,74345,1,0,0:0:0:0:
320,192,74345,1,0,0:0:0:0:
448,192,74345,1,0,0:0:0:0:
448,192,74478,1,0,0:0:0:0:
320,192,74478,1,0,0:0:0:0:
192,192,74544,1,0,0:0:0:0:
64,192,74611,1,0,0:0:0:0:
448,192,74611,1,0,0:0:0:0:
320,192,74611,1,0,0:0:0:0:
192,192,74744,1,0,0:0:0:0:
64,192,74744,1,0,0:0:0:0:
64,192,74876,1,0,0:0:0:0:
448,192,74876,1,0,0:0:0:0:
320,192,75009,1,0,0:0:0:0:
448,192,75009,1,0,0:0:0:0:
192,192,75142,1,0,0:0:0:0:
64,192,75142,1,0,0:0:0:0:
320,192,75142,1,0,0:0:0:0:
448,192,75142,1,0,0:0:0:0:
192,192,75275,1,0,0:0:0:0:
64,192,75275,1,0,0:0:0:0:
64,192,75407,1,0,0:0:0:0:
448,192,75407,1,0,0:0:0:0:
320,192,75540,1,0,0:0:0:0:
192,192,75673,1,0,0:0:0:0:
64,192,75673,1,0,0:0:0:0:
192,192,75806,1,0,0:0:0:0:
448,192,75806,1,0,0:0:0:0:
320,192,75938,1,0,0:0:0:0:
64,192,75938,1,0,0:0:0:0:
448,192,75938,1,0,0:0:0:0:
192,192,76071,1,0,0:0:0:0:
64,192,76071,1,0,0:0:0:0:
448,192,76204,1,0,0:0:0:0:
192,192,76204,1,0,0:0:0:0:
320,192,76336,1,0,0:0:0:0:
64,192,76469,1,0,0:0:0:0:
448,192,76469,1,0,0:0:0:0:
320,192,76602,1,0,0:0:0:0:
192,192,76735,1,0,0:0:0:0:
64,192,76735,1,0,0:0:0:0:
448,192,76735,1,0,0:0:0:0:
192,192,76867,1,0,0:0:0:0:
320,192,77000,1,0,0:0:0:0:
448,192,77000,1,0,0:0:0:0:
192,192,77133,1,0,0:0:0:0:
64,192,77266,1,0,0:0:0:0:
448,192,77266,1,0,0:0:0:0:
320,192,77266,1,0,0:0:0:0:
64,192,77398,1,0,0:0:0:0:
192,192,77398,1,0,0:0:0:0:
192,192,77531,1,0,0:0:0:0:
448,192,77531,1,0,0:0:0:0:
320,192,77664,1,0,0:0:0:0:
448,192,77664,1,0,0:0:0:0:
192,192,77797,1,0,0:0:0:0:
64,192,77797,1,0,0:0:0:0:
448,192,77797,1,0,0:0:0:0:
192,192,77929,1,0,0:0:0:0:
320,192,77929,1,0,0:0:0:0:
448,192,78062,1,0,0:0:0:0:
64,192,78195,1,0,0:0:0:0:
320,192,78195,1,0,0:0:0:0:
192,192,78328,1,0,0:0:0:0:
64,192,78328,1,0,0:0:0:0:
448,192,78328,1,0,0:0:0:0:
192,192,78460,1,0,0:0:0:0:
64,192,78593,1,0,0:0:0:0:
320,192,78593,1,0,0:0:0:0:
448,192,78726,1,0,0:0:0:0:
320,192,78859,1,0,0:0:0:0:
64,192,78859,1,0,0:0:0:0:
192,192,78859,1,0,0:0:0:0:
448,192,78991,1,0,0:0:0:0:
64,192,78991,1,0,0:0:0:0:
192,192,79124,1,0,0:0:0:0:
448,192,79124,1,0,0:0:0:0:
320,192,79257,1,0,0:0:0:0:
192,192,79257,1,0,0:0:0:0:
64,192,79390,1,0,0:0:0:0:
320,192,79390,1,0,0:0:0:0:
448,192,79390,1,0,0:0:0:0:
192,192,79390,1,0,0:0:0:0:
64,192,79522,1,0,0:0:0:0:
448,192,79522,1,0,0:0:0:0:
448,192,79655,1,0,0:0:0:0:
320,192,79655,1,0,0:0:0:0:
64,192,79655,1,0,0:0:0:0:
192,192,79655,1,0,0:0:0:0:
64,192,79788,1,0,0:0:0:0:
320,192,79788,1,0,0:0:0:0:
192,192,79788,1,0,0:0:0:0:
64,192,79921,1,0,0:0:0:0:
192,192,79921,1,0,0:0:0:0:
320,192,79921,1,0,0:0:0:0:
448,192,79921,1,0,0:0:0:0:
448,192,80053,1,0,0:0:0:0:
192,192,80053,1,0,0:0:0:0:
192,192,80186,1,0,0:0:0:0:
64,192,80186,1,0,0:0:0:0:
320,192,80186,1,0,0:0:0:0:
448,192,80186,1,0,0:0:0:0:
320,192,80319,1,0,0:0:0:0:
448,192,80319,1,0,0:0:0:0:
64,192,80452,1,0,0:0:0:0:
192,192,80452,1,0,0:0:0:0:
320,192,80452,1,0,0:0:0:0:
448,192,80452,1,0,0:0:0:0:
64,192,80584,1,0,0:0:0:0:
448,192,80584,1,0,0:0:0:0:
192,192,80584,1,0,0:0:0:0:
448,192,80717,1,0,0:0:0:0:
320,192,80717,1,0,0:0:0:0:
64,192,80717,1,0,0:0:0:0:
192,192,80717,1,0,0:0:0:0:
64,192,80850,1,0,0:0:0:0:
448,192,80850,1,0,0:0:0:0:
448,192,80982,1,0,0:0:0:0:
320,192,80982,1,0,0:0:0:0:
64,192,80982,1,0,0:0:0:0:
192,192,80982,1,0,0:0:0:0:
320,192,81115,1,0,0:0:0:0:
192,192,81248,1,0,0:0:0:0:
320,192,81248,1,0,0:0:0:0:
448,192,81248,1,0,0:0:0:0:
64,192,81248,1,0,0:0:0:0:
192,192,81381,1,0,0:0:0:0:
64,192,81381,1,0,0:0:0:0:
64,192,81513,1,0,0:0:0:0:
192,192,81513,1,0,0:0:0:0:
320,192,81513,1,0,0:0:0:0:
448,192,81513,1,0,0:0:0:0:
448,192,81646,1,0,0:0:0:0:
192,192,81646,1,0,0:0:0:0:
64,192,81779,1,0,0:0:0:0:
192,192,81779,1,0,0:0:0:0:
320,192,81779,1,0,0:0:0:0:
448,192,81779,1,0,0:0:0:0:
64,192,81912,1,0,0:0:0:0:
448,192,81912,1,0,0:0:0:0:
192,192,81912,1,0,0:0:0:0:
64,192,82044,1,0,0:0:0:0:
448,192,82044,1,0,0:0:0:0:
320,192,82044,1,0,0:0:0:0:
192,192,82044,1,0,0:0:0:0:
448,192,82177,1,0,0:0:0:0:
64,192,82177,1,0,0:0:0:0:
64,192,82310,1,0,0:0:0:0:
192,192,82310,1,0,0:0:0:0:
448,192,82310,1,0,0:0:0:0:
320,192,82310,1,0,0:0:0:0:
192,192,82443,1,0,0:0:0:0:
320,192,82443,1,0,0:0:0:0:
448,192,82575,1,0,0:0:0:0:
320,192,82575,1,0,0:0:0:0:
192,192,82575,1,0,0:0:0:0:
64,192,82575,1,0,0:0:0:0:
64,192,82708,1,0,0:0:0:0:
448,192,82708,1,0,0:0:0:0:
320,192,82708,1,0,0:0:0:0:
192,192,82841,1,0,0:0:0:0:
448,192,82841,1,0,0:0:0:0:
64,192,82841,1,0,0:0:0:0:
320,192,82841,1,0,0:0:0:0:
64,192,82974,1,0,0:0:0:0:
192,192,82974,1,0,0:0:0:0:
64,192,83106,1,0,0:0:0:0:
192,192,83106,1,0,0:0:0:0:
320,192,83106,1,0,0:0:0:0:
448,192,83106,1,0,0:0:0:0:
320,192,83239,1,0,0:0:0:0:
448,192,83239,1,0,0:0:0:0:
64,192,83372,1,0,0:0:0:0:
448,192,83372,1,0,0:0:0:0:
192,192,83505,1,0,0:0:0:0:
320,192,83505,1,0,0:0:0:0:
64,192,83637,1,0,0:0:0:0:
192,192,83637,1,0,0:0:0:0:
320,192,83637,1,0,0:0:0:0:
448,192,83637,1,0,0:0:0:0:
448,192,83770,1,0,0:0:0:0:
448,192,83903,1,0,0:0:0:0:
192,192,83903,1,0,0:0:0:0:
320,192,83903,1,0,0:0:0:0:
448,192,84036,1,0,0:0:0:0:
320,192,84036,1,0,0:0:0:0:
192,192,84036,1,0,0:0:0:0:
64,192,84036,1,0,0:0:0:0:
64,192,84168,1,0,0:0:0:0:
64,192,84301,1,0,0:0:0:0:
192,192,84301,1,0,0:0:0:0:
320,192,84301,1,0,0:0:0:0:
64,192,84434,1,0,0:0:0:0:
192,192,84434,1,0,0:0:0:0:
320,192,84434,1,0,0:0:0:0:
448,192,84434,1,0,0:0:0:0:
448,192,84567,1,0,0:0:0:0:
448,192,84699,1,0,0:0:0:0:
320,192,84699,1,0,0:0:0:0:
192,192,84699,1,0,0:0:0:0:
64,192,84832,1,0,0:0:0:0:
192,192,84832,1,0,0:0:0:0:
320,192,84832,1,0,0:0:0:0:
448,192,84832,1,0,0:0:0:0:
64,192,84965,1,0,0:0:0:0:
320,192,84965,1,0,0:0:0:0:
192,192,85098,1,0,0:0:0:0:
64,192,85098,1,0,0:0:0:0:
192,192,85230,1,0,0:0:0:0:
320,192,85230,1,0,0:0:0:0:
448,192,85230,1,0,0:0:0:0:
64,192,85363,1,0,0:0:0:0:
448,192,85363,1,0,0:0:0:0:
320,192,85496,1,0,0:0:0:0:
192,192,85496,1,0,0:0:0:0:
64,192,85629,1,0,0:0:0:0:
448,192,85629,1,0,0:0:0:0:
320,192,85629,1,0,0:0:0:0:
64,192,85761,1,0,0:0:0:0:
192,192,85761,1,0,0:0:0:0:
320,192,85761,1,0,0:0:0:0:
448,192,85761,1,0,0:0:0:0:
192,192,85894,1,0,0:0:0:0:
192,192,86027,1,0,0:0:0:0:
320,192,86027,1,0,0:0:0:0:
64,192,86159,1,0,0:0:0:0:
448,192,86159,1,0,0:0:0:0:
320,192,86159,1,0,0:0:0:0:
192,192,86159,1,0,0:0:0:0:
320,192,86292,1,0,0:0:0:0:
320,192,86425,1,0,0:0:0:0:
192,192,86425,1,0,0:0:0:0:
64,192,86558,128,0,87885:0:0:0:0:
320,192,86558,128,0,87885:0:0:0:0:
448,192,86558,128,0,87885:0:0:0:0:
192,192,86558,128,0,87885:0:0:0:0:
