osu file format v14

[General]
AudioFilename: audio.mp3
AudioLeadIn: 0
PreviewTime: 295004
Countdown: 0
SampleSet: Normal
StackLeniency: 0.7
Mode: 1
LetterboxInBreaks: 0
WidescreenStoryboard: 1

[Editor]
Bookmarks: 33576,61004,82947,117233,144662,166604,188547,210490,224204,246147,284547,324319,346262,368204
DistanceSpacing: 1.4
BeatDivisor: 4
GridSize: 32
TimelineZoom: 2.4

[Metadata]
Title:Kagayaki Summer Days (nenpulse bootleg)
TitleUnicode:かがやきサマーデイズ (nenpulse bootleg)
Artist:Abydos High School Countermeasure Council
ArtistUnicode:アビドス高等学校対策委員会
Creator:KTYN
Version:Dreamy Summer
Source:ブルーアーカイブ -Blue Archive-
Tags:layxa ler1211 rinze jcore j-core hardcore electronic remix japanese video game ブルアカ buruaka net games nexon yostar 夕野ヨシミ fuyuno yoshimi IOSYS ミツキヨ mitsukiyo 小鳥遊ホシノ takanashi hoshino 花守ゆみり hanamori yumiri 砂狼シロコ sunaookami shiroko 小倉唯 ogura yui 十六夜ノノミ izayoi nonomi 三浦千幸 miura chiyuki 黒見セリカ kuromi serika 大橋彩香 oohashi ayaka 奥空アヤネ okusora ayane 原田彩楓 harada sayaka
BeatmapID:4226314
BeatmapSetID:2028166

[Difficulty]
HPDrainRate:5.3
CircleSize:5
OverallDifficulty:6.3
ApproachRate:5
SliderMultiplier:1.4
SliderTickRate:1

[Events]
//Background and Video events
0,0,"abydos.jpg",0,45
//Break Periods
2,273782,281982
//Storyboard Layer 0 (Background)
//Storyboard Layer 1 (Fail)
//Storyboard Layer 2 (Pass)
//Storyboard Layer 3 (Foreground)
//Storyboard Layer 4 (Overlay)
//Storyboard Sound Samples

[TimingPoints]
668,342.857142857143,4,1,0,70,1,0
668,-125,4,1,0,70,0,0
10182,-125,4,1,0,75,0,0
10246,-100,4,1,0,75,0,0
10503,-103.091543365813,4,1,0,75,0,0
10675,-105.256693687055,4,1,0,75,0,0
10760,-106.380337636544,4,1,0,75,0,0
10846,-107.528230865747,4,1,0,75,0,0
10932,-108.687381103361,4,1,0,75,0,0
11103,-111.111111111111,4,1,0,75,0,0
11296,-83.333333333333,4,1,0,75,0,0
11553,-111.111111111111,4,1,0,80,0,0
17039,-100,4,1,0,80,0,0
18410,-95.238095238095,4,1,0,80,0,0
19782,-90.909090909091,4,1,0,80,0,0
20468,-86.95652173913,4,1,0,80,0,0
21153,-83.333333333333,4,1,0,80,0,0
21903,-90.909090909091,4,1,0,70,0,0
22075,-95.231475045183,4,1,0,70,0,0
22160,-97.564449508617,4,1,0,70,0,0
22246,-100.014600671631,4,1,0,70,0,0
22418,-105.271246350085,4,1,0,70,0,0
22589,-111.111111111111,4,1,0,70,0,0
22782,-133.333333333333,4,1,0,40,0,0
27410,-117.647058823529,4,1,0,80,0,0
27668,-111.111111111111,4,1,0,80,0,0
28096,-100,4,1,0,80,0,0
29382,-95.238095238095,4,1,0,80,0,0
30753,-90.909090909091,4,1,0,80,0,0
31439,-86.95652173913,4,1,0,80,0,0
32189,-66.666666666667,4,1,0,90,0,0
32446,-70.186208307755,4,1,0,90,0,0
32703,-74.082073434125,4,1,0,90,0,0
32875,-76.923076923077,4,1,0,90,0,0
33218,-83.333333333333,4,1,0,90,0,0
33560,-90.909090909091,4,1,0,95,0,0
33582,-90.909090909091,4,1,0,95,0,1
43160,-83.333333333333,4,1,0,95,0,1
43332,-76.934590630145,4,1,0,95,0,1
43503,-71.41864665833,4,1,0,95,0,1
43675,-66.666666666667,4,1,0,95,0,1
43953,-83.333333333334,4,1,0,95,0,1
44125,-80,4,1,0,95,0,1
44553,-100,4,1,0,95,0,0
44896,-90.909090909091,4,1,0,95,0,1
49953,-86.95652173913,4,1,0,95,0,1
51325,-83.333333333333,4,1,0,95,0,1
52760,-80,4,1,0,95,0,1
52932,-79.546584468529,4,1,0,95,0,1
53018,-79.320487821,4,1,0,95,0,1
53103,-79.095672807567,4,1,0,95,0,1
53275,-78.652421839156,4,1,0,95,0,1
53360,-78.43137254902,4,1,0,95,0,1
53446,-78.211562275956,4,1,0,95,0,1
53532,-77.995515257873,4,1,0,95,0,1
53618,-77.778137861749,4,1,0,95,0,1
53703,-77.561968781308,4,1,0,95,0,1
53789,-77.349490782519,4,1,0,95,0,1
53875,-77.13569454265,4,1,0,95,0,1
53960,-76.923076923077,4,1,0,95,0,1
54132,-66.666666666667,4,1,0,95,0,1
54389,-71.106504275719,4,1,0,95,0,1
54646,-76.201055262427,4,1,0,95,0,1
54818,-80,4,1,0,95,0,1
55160,-88.888888888889,4,1,0,95,0,1
55503,-100,4,1,0,95,0,1
55525,-100,4,1,0,85,0,0
56810,-95.238095238095,4,1,0,85,0,0
58182,-90.909090909091,4,1,0,85,0,0
58868,-86.95652173913,4,1,0,85,0,0
59553,-83.333333333333,4,1,0,85,0,0
60582,-111.111111111111,4,1,0,85,0,0
60925,-125,4,1,0,80,0,0
80210,-125,4,1,0,80,0,0
80360,-122.456265619422,4,1,0,80,0,0
80446,-121.215690894098,4,1,0,80,0,0
80532,-120.01399580126,4,1,0,80,0,0
80703,-117.65378458724,4,1,0,80,0,0
80875,-115.39755523158,4,1,0,80,0,0
81046,-113.213774892727,4,1,0,80,0,0
81132,-112.164813603663,4,1,0,80,0,0
81218,-111.123110151188,4,1,0,80,0,0
81325,-111.123110151188,4,1,0,90,0,0
81389,-83.333333333333,4,1,0,90,0,0
81560,-85.372794536141,4,1,0,90,0,0
81732,-87.501822954645,4,1,0,90,0,0
82075,-92.109303039607,4,1,0,90,0,0
82246,-94.607379375591,4,1,0,90,0,0
82332,-95.892600287678,4,1,0,90,0,0
82418,-97.228974234322,4,1,0,90,0,0
82503,-98.60312243221,4,1,0,90,0,0
82589,-100,4,1,0,90,0,0
82868,-133.333333333333,4,1,0,70,0,0
82953,-111.111111111111,4,1,0,70,0,0
88418,-100,4,1,0,80,0,0
88675,-98.766024871561,4,1,0,80,0,0
88760,-98.359871850045,4,1,0,80,0,0
88932,-97.56213242269,4,1,0,80,0,0
89103,-96.77267595032,4,1,0,80,0,0
89189,-96.387235837121,4,1,0,80,0,0
89360,-95.616603913913,4,1,0,80,0,0
89446,-95.235890550488,4,1,0,80,0,0
89618,-94.487827285255,4,1,0,80,0,0
89789,-93.75142427419,4,1,0,80,0,0
90046,-92.661831614037,4,1,0,80,0,0
90132,-92.308382696105,4,1,0,80,0,0
90303,-91.601353758461,4,1,0,80,0,0
90475,-90.909090909091,4,1,0,80,0,0
90560,-90.564874741338,4,1,0,80,0,0
90646,-90.223255405939,4,1,0,80,0,0
90732,-89.888131445551,4,1,0,80,0,0
90818,-89.551589029168,4,1,0,80,0,0
90989,-88.889849185428,4,1,0,80,0,0
91160,-88.234032514048,4,1,0,80,0,0
91503,-86.95468380115,4,1,0,80,0,0
91675,-86.330633315147,4,1,0,80,0,0
91846,-85.711904662694,4,1,0,80,0,0
92103,-84.803759894459,4,1,0,80,0,0
92189,-84.50762088657,4,1,0,80,0,0
92360,-83.914657528658,4,1,0,80,0,0
92532,-83.333333333333,4,1,0,80,0,0
93903,-90.909090909091,4,1,0,80,0,0
94075,-92.588591184097,4,1,0,80,0,0
94160,-93.456924754635,4,1,0,80,0,0
94246,-94.341699691766,4,1,0,80,0,0
94418,-96.151688544822,4,1,0,80,0,0
94503,-97.088478531778,4,1,0,80,0,0
94589,-98.032486845116,4,1,0,80,0,0
94675,-99.006469500924,4,1,0,80,0,0
94760,-100,4,1,0,80,0,0
94868,-83.333333333333,4,1,0,90,0,0
95210,-90.909090909091,4,1,0,95,0,0
95296,-90.909090909091,4,1,0,95,0,1
104875,-83.333333333333,4,1,0,95,0,1
104896,-83.333333333333,4,1,0,95,0,0
105132,-87.717502558854,4,1,0,95,0,0
105389,-92.588591184097,4,1,0,95,0,0
105560,-96.162477558348,4,1,0,95,0,0
105646,-98.054919908467,4,1,0,95,0,0
105732,-100,4,1,0,95,0,0
105839,-83.333333333333,4,1,0,95,0,0
106210,-90.909090909091,4,1,0,95,0,0
106268,-90.909090909091,4,1,0,95,0,1
111732,-90.909090909091,4,1,0,95,0,1
111818,-90.564874741338,4,1,0,95,0,1
111989,-89.888131445551,4,1,0,95,0,1
112075,-89.551589029168,4,1,0,95,0,1
112246,-88.889849185428,4,1,0,95,0,1
112418,-88.234032514048,4,1,0,95,0,1
112503,-87.913496880075,4,1,0,95,0,1
112675,-87.271955876114,4,1,0,95,0,1
112760,-86.958359754809,4,1,0,95,0,1
112846,-86.643359588897,4,1,0,95,0,1
112932,-86.330633315147,4,1,0,95,0,1
113103,-85.715476289691,4,1,0,95,0,1
113275,-85.105502689284,4,1,0,95,0,1
113360,-84.807256235828,4,1,0,95,0,1
113446,-84.50762088657,4,1,0,95,0,1
113618,-83.914657528658,4,1,0,95,0,1
113703,-83.624684933734,4,1,0,95,0,1
113789,-83.333333333333,4,1,0,95,0,1
113875,-83.04400484457,4,1,0,95,0,1
114046,-82.474640150756,4,1,0,95,0,1
114132,-82.191233467855,4,1,0,95,0,1
114303,-81.633462973252,4,1,0,95,0,1
114475,-81.080015766654,4,1,0,95,0,1
114646,-80.53717552171,4,1,0,95,0,1
114732,-80.266905997581,4,1,0,95,0,1
114818,-79.998444366663,4,1,0,95,0,1
114903,-79.734863167687,4,1,0,95,0,1
114989,-79.46994282182,4,1,0,95,0,1
115160,-78.948378430244,4,1,0,95,0,1
115332,-78.430624928509,4,1,0,95,0,1
115418,-78.174286474366,4,1,0,95,0,1
115503,-77.922569891658,4,1,0,95,0,1
115675,-77.418140760256,4,1,0,95,0,1
115846,-76.923076923077,4,1,0,95,0,1
115868,-76.923076923077,4,1,0,95,0,0
116468,-100,4,1,0,90,0,0
117153,-90.909090909091,4,1,0,100,0,0
117239,-90.909090909091,4,1,0,100,0,1
126818,-83.333333333333,4,1,0,100,0,1
126990,-76.934590630145,4,1,0,100,0,1
127161,-71.41864665833,4,1,0,100,0,1
127333,-66.666666666667,4,1,0,100,0,1
127611,-83.333333333334,4,1,0,100,0,1
127783,-80,4,1,0,100,0,1
128210,-100,4,1,0,100,0,0
128553,-90.909090909091,4,1,0,100,0,1
133675,-90.909090909091,4,1,0,100,0,1
133846,-90.564874741338,4,1,0,100,0,1
133932,-90.395728505197,4,1,0,100,0,1
134018,-90.22523411628,4,1,0,100,0,1
134189,-89.888131445551,4,1,0,100,0,1
134275,-89.719544641689,4,1,0,100,0,1
134360,-89.551589029168,4,1,0,100,0,1
134446,-89.38426106983,4,1,0,100,0,1
134532,-89.219492095162,4,1,0,100,0,1
134618,-89.053401736043,4,1,0,100,0,1
134703,-88.887928613098,4,1,0,100,0,1
134875,-88.560726740431,4,1,0,100,0,1
135046,-88.234032514048,4,1,0,100,0,1
135218,-87.911618266128,4,1,0,100,0,1
135303,-87.750357272359,4,1,0,100,0,1
135389,-87.591551694771,4,1,0,100,0,1
135560,-87.271955876114,4,1,0,100,0,1
135646,-87.113030957523,4,1,0,100,0,1
135732,-86.95652173913,4,1,0,100,0,1
135818,-86.798742536447,4,1,0,100,0,1
135903,-86.64153486511,4,1,0,100,0,1
135989,-86.486713757148,4,1,0,100,0,1
136075,-86.330633315147,4,1,0,100,0,1
136246,-86.020156400284,4,1,0,100,0,1
136418,-85.713690438986,4,1,0,100,0,1
136675,-85.257180751855,4,1,0,100,0,1
136760,-85.105502689284,4,1,0,100,0,1
136932,-84.805508029107,4,1,0,100,0,1
137103,-84.505885011195,4,1,0,100,0,1
137275,-84.210095386253,4,1,0,100,0,1
137360,-84.06211687781,4,1,0,100,0,1
137446,-83.914657528658,4,1,0,100,0,1
137532,-83.769420292806,4,1,0,100,0,1
137618,-83.62298514137,4,1,0,100,0,1
137789,-83.333333333333,4,1,0,100,0,1
137960,-85.111662531017,4,1,0,100,0,1
138046,-86.02959618761,4,1,0,100,0,1
138218,-87.914904523901,4,1,0,100,0,1
138303,-88.894648179344,4,1,0,100,0,1
138475,-90.909090909091,4,1,0,100,0,1
138560,-91.957104557641,4,1,0,100,0,1
138646,-93.029563330621,4,1,0,100,0,1
138732,-94.114418987515,4,1,0,100,0,1
138818,-95.238095238095,4,1,0,100,0,1
138875,-95.997760985167,4,1,0,100,0,1
138932,-96.769643109042,4,1,0,100,0,1
138989,-97.554038680319,4,1,0,100,0,1
139096,-97.554038680319,4,1,0,80,0,1
139160,-100,4,1,0,80,0,1
140468,-95.238095238095,4,1,0,85,0,1
141903,-90.909090909091,4,1,0,90,0,1
142075,-89.554839271714,4,1,0,90,0,1
142246,-88.232769719337,4,1,0,90,0,1
142418,-86.95652173913,4,1,0,90,0,1
142503,-86.328518642929,4,1,0,90,0,1
142589,-85.716668056366,4,1,0,90,0,1
142675,-85.106382978723,4,1,0,90,0,1
142760,-84.504726674887,4,1,0,90,0,1
142846,-83.911517427149,4,1,0,90,0,1
142932,-83.333333333333,4,1,0,90,0,1
143125,-76.923076923077,4,1,0,90,0,0
143210,-83.333333333334,4,1,0,40,0,0
144068,-100,4,1,0,90,0,0
144582,-90.909090909091,4,1,0,95,0,0
144668,-90.909090909091,4,1,0,95,0,1
154246,-83.333333333333,4,1,0,95,0,1
154418,-76.934590630145,4,1,0,95,0,1
154589,-71.41864665833,4,1,0,95,0,1
154761,-66.666666666667,4,1,0,95,0,1
155039,-83.333333333334,4,1,0,95,0,1
155211,-80,4,1,0,95,0,1
155639,-100,4,1,0,95,0,0
155982,-90.909090909091,4,1,0,95,0,1
161039,-86.95652173913,4,1,0,95,0,1
162411,-83.333333333333,4,1,0,95,0,1
163846,-80,4,1,0,95,0,1
164018,-79.546584468529,4,1,0,95,0,1
164103,-79.320487821,4,1,0,95,0,1
164189,-79.098279612418,4,1,0,95,0,1
164360,-78.652421839156,4,1,0,95,0,1
164446,-78.43137254902,4,1,0,95,0,1
164532,-78.214111129216,4,1,0,95,0,1
164618,-77.995515257873,4,1,0,95,0,1
164703,-77.778137861749,4,1,0,95,0,1
164789,-77.564475470235,4,1,0,95,0,1
164875,-77.349490782519,4,1,0,95,0,1
165046,-76.923076923077,4,1,0,95,0,1
165218,-66.666666666667,4,1,0,95,0,1
165475,-71.109958506224,4,1,0,95,0,1
165732,-76.187829952765,4,1,0,95,0,1
165903,-80.011672016341,4,1,0,95,0,1
166246,-88.910505836576,4,1,0,95,0,1
166589,-100,4,1,0,95,0,1
166610,-100,4,1,0,85,0,0
176189,-90.909090909091,4,1,0,85,0,0
176446,-93.464052287582,4,1,0,85,0,0
176618,-95.238095238095,4,1,0,85,0,0
176703,-96.156001344839,4,1,0,85,0,0
176789,-97.080787508486,4,1,0,85,0,0
176875,-98.034734917733,4,1,0,85,0,0
176960,-99.007615970459,4,1,0,85,0,0
177046,-100,4,1,0,85,0,0
177239,-83.333333333333,4,1,0,85,0,0
177582,-111.111111111111,4,1,0,85,0,0
177925,-100,4,1,0,85,0,0
183068,-100,4,1,0,85,0,0
184353,-95.238095238095,4,1,0,85,0,0
185725,-90.909090909091,4,1,0,85,0,0
186411,-86.95652173913,4,1,0,85,0,0
187096,-83.333333333333,4,1,0,85,0,0
187953,-95.238095238095,4,1,0,85,0,0
188125,-90.909090909091,4,1,0,85,0,0
188468,-100,4,1,0,80,0,0
188553,-100,4,1,0,80,0,0
194018,-100,4,1,0,80,0,0
194189,-99.568192722406,4,1,0,80,0,0
194275,-99.352432786555,4,1,0,80,0,0
194360,-99.137605913559,4,1,0,80,0,0
194532,-98.713198477869,4,1,0,80,0,0
194703,-98.289959118556,4,1,0,80,0,0
194789,-98.082137260267,4,1,0,80,0,0
194875,-97.872762926006,4,1,0,80,0,0
194960,-97.664280583558,4,1,0,80,0,0
195046,-97.456684544848,4,1,0,80,0,0
195218,-97.046517351711,4,1,0,80,0,0
195389,-96.639788240484,4,1,0,80,0,0
195560,-96.234105386474,4,1,0,80,0,0
195646,-96.032538542098,4,1,0,80,0,0
195732,-95.834143496014,4,1,0,80,0,0
195903,-95.435182495885,4,1,0,80,0,0
196075,-95.04182032926,4,1,0,80,0,0
196160,-94.845212036658,4,1,0,80,0,0
196246,-94.649415492451,4,1,0,80,0,0
196418,-94.262491035142,4,1,0,80,0,0
196589,-93.878717173401,4,1,0,80,0,0
196675,-93.686886687101,4,1,0,80,0,0
196760,-93.495838569701,4,1,0,80,0,0
196846,-93.305568044677,4,1,0,80,0,0
196932,-93.118269412432,4,1,0,80,0,0
197103,-92.741556120049,4,1,0,80,0,0
197275,-92.370042401668,4,1,0,80,0,0
197360,-92.184321885301,4,1,0,80,0,0
197446,-91.999346694977,4,1,0,80,0,0
197532,-91.817250372578,4,1,0,80,0,0
197618,-91.633743899605,4,1,0,80,0,0
197703,-91.450969477688,4,1,0,80,0,0
197789,-91.271035392699,4,1,0,80,0,0
197875,-91.089703606164,4,1,0,80,0,0
197960,-90.909090909091,4,1,0,80,0,0
198132,-83.333333333333,4,1,0,80,0,0
198303,-84.750791139241,4,1,0,80,0,0
198360,-85.231228244654,4,1,0,80,0,0
198418,-85.717143428686,4,1,0,80,0,0
198475,-86.208630922442,4,1,0,80,0,0
198646,-87.726481727915,4,1,0,80,0,0
198703,-88.241350906096,4,1,0,80,0,0
198760,-88.762299326774,4,1,0,80,0,0
198818,-89.289435299021,4,1,0,80,0,0
198989,-90.909090909091,4,1,0,80,0,0
199182,-83.333333333333,4,1,0,80,0,0
199439,-95.238095238095,4,1,0,85,0,0
199525,-95.238095238095,4,1,0,85,0,0
209125,-83.333333333333,4,1,0,85,0,0
210410,-83.333333333333,4,1,0,70,0,0
210475,-71.428571428571,4,1,0,70,0,0
210818,-73.395231851872,4,1,0,70,0,0
211160,-75.473255558001,4,1,0,70,0,0
211503,-77.672377176837,4,1,0,70,0,0
211846,-80.003499970834,4,1,0,70,0,0
212189,-82.471437161756,4,1,0,70,0,0
212532,-85.104402593776,4,1,0,70,0,0
212875,-87.911031344145,4,1,0,70,0,0
213218,-90.909090909091,4,1,0,70,0,0
213560,-94.118858083997,4,1,0,70,0,0
213903,-97.563578161124,4,1,0,70,0,0
214246,-101.270028797165,4,1,0,70,0,0
214589,-105.257099002302,4,1,0,70,0,0
215960,-125,4,1,0,70,0,0
216582,-111.111111111111,4,1,0,75,0,0
217332,-100,4,1,0,80,0,0
217589,-98.766321044547,4,1,0,80,0,0
217675,-98.360263887561,4,1,0,80,0,0
217846,-97.55808440019,4,1,0,80,0,0
217932,-97.166469893743,4,1,0,80,0,0
218018,-96.773434927802,4,1,0,80,0,0
218103,-96.383566777533,4,1,0,80,0,0
218275,-95.617622455619,4,1,0,80,0,0
218360,-95.236993149417,4,1,0,80,0,0
218532,-94.489092996556,4,1,0,80,0,0
218703,-93.748576115187,4,1,0,80,0,0
218960,-92.663484056927,4,1,0,80,0,0
219046,-92.305966801256,4,1,0,80,0,0
219132,-91.95530726257,4,1,0,80,0,0
219218,-91.603223364944,4,1,0,80,0,0
219389,-90.911099328385,4,1,0,80,0,0
219475,-90.566951316137,4,1,0,80,0,0
219560,-90.225399052798,4,1,0,80,0,0
219646,-89.886413280909,4,1,0,80,0,0
219732,-89.55386289445,4,1,0,80,0,0
219903,-88.88840886508,4,1,0,80,0,0
220075,-88.236555450725,4,1,0,80,0,0
220332,-87.274655355249,4,1,0,80,0,0
220418,-86.957440513926,4,1,0,80,0,0
220589,-86.333501174891,4,1,0,80,0,0
220760,-85.714880853191,4,1,0,80,0,0
221018,-84.80689171922,4,1,0,80,0,0
221103,-84.507331498747,4,1,0,80,0,0
221275,-83.917937841586,4,1,0,80,0,0
221446,-83.333333333333,4,1,0,80,0,0
222818,-90.909090909091,4,1,0,80,0,0
222989,-92.303552206674,4,1,0,80,0,0
223075,-93.021153498463,4,1,0,80,0,0
223160,-93.75,4,1,0,80,0,0
223332,-95.233688107358,4,1,0,80,0,0
223418,-95.997760985167,4,1,0,80,0,0
223503,-96.774193548387,4,1,0,80,0,0
223589,-97.554038680319,4,1,0,80,0,0
223675,-98.355954884343,4,1,0,80,0,0
223760,-99.4395052184,4,1,0,80,0,0
223846,-100,4,1,0,80,0,0
224125,-90.909090909091,4,1,0,100,0,0
224210,-90.909090909091,4,1,0,100,0,1
233789,-83.333333333333,4,1,0,100,0,1
233961,-76.934590630145,4,1,0,100,0,1
234132,-71.41864665833,4,1,0,100,0,1
234304,-66.666666666667,4,1,0,100,0,1
234582,-83.333333333334,4,1,0,100,0,1
234754,-80,4,1,0,100,0,1
235182,-100,4,1,0,100,0,0
235525,-90.909090909091,4,1,0,100,0,1
240646,-90.909090909091,4,1,0,100,0,1
240818,-90.566868464502,4,1,0,100,0,1
240903,-90.395728505197,4,1,0,100,0,1
240989,-90.227212913413,4,1,0,100,0,1
241160,-89.888131445551,4,1,0,100,0,1
241332,-89.553538387862,4,1,0,100,0,1
241503,-89.219492095162,4,1,0,100,0,1
241589,-89.055329465755,4,1,0,100,0,1
241675,-88.889849185428,4,1,0,100,0,1
241846,-88.560726740431,4,1,0,100,0,1
242018,-88.235924932976,4,1,0,100,0,1
242189,-87.913496880075,4,1,0,100,0,1
242275,-87.752229000469,4,1,0,100,0,1
242360,-87.591551694771,4,1,0,100,0,1
242446,-87.431461724827,4,1,0,100,0,1
242532,-87.273807250896,4,1,0,100,0,1
242618,-87.114875595553,4,1,0,100,0,1
242703,-86.95652173913,4,1,0,100,0,1
242875,-86.643359588897,4,1,0,100,0,1
243046,-86.330633315147,4,1,0,100,0,1
243132,-86.176920337669,4,1,0,100,0,1
243218,-86.021955044433,4,1,0,100,0,1
243389,-85.715476289691,4,1,0,100,0,1
243646,-85.257180751855,4,1,0,100,0,1
243732,-85.107263286373,4,1,0,100,0,1
243903,-84.805508029107,4,1,0,100,0,1
244075,-84.50762088657,4,1,0,100,0,1
244246,-84.210095386253,4,1,0,100,0,1
244332,-84.063834569566,4,1,0,100,0,1
244418,-83.916369199388,4,1,0,100,0,1
244589,-83.624684933734,4,1,0,100,0,1
244760,-83.333333333333,4,1,0,100,0,1
245446,-90.915119363395,4,1,0,100,0,1
245789,-95.234787440956,4,1,0,100,0,1
246132,-100,4,1,0,90,0,1
246153,-100,4,1,0,90,0,0
255732,-66.666666666667,4,1,0,90,0,0
255903,-68.960890856645,4,1,0,90,0,0
256075,-71.433534848169,4,1,0,90,0,0
256246,-74.074074074074,4,1,0,90,0,0
256418,-76.934590630145,4,1,0,90,0,0
256589,-80.00622616546,4,1,0,90,0,0
256760,-83.333333333333,4,1,0,90,0,0
257125,-100,4,1,0,90,0,0
262525,-90.9090909090909,4,1,0,90,0,0
263896,-86.9565217391304,4,1,0,90,0,0
265332,-83.333333333333,4,1,0,90,0,0
265418,-83.085231600083,4,1,0,90,0,0
265503,-82.8386027889,4,1,0,90,0,0
265589,-82.596276284544,4,1,0,90,0,0
265675,-82.352537487561,4,1,0,90,0,0
265760,-82.110232987786,4,1,0,90,0,0
265846,-81.869350162033,4,1,0,90,0,0
265932,-81.632653061224,4,1,0,90,0,0
266018,-81.394560130231,4,1,0,90,0,0
266103,-81.157852022183,4,1,0,90,0,0
266189,-80.92524530465,4,1,0,90,0,0
266275,-80.69125508523,4,1,0,90,0,0
266360,-80.458614100372,4,1,0,90,0,0
266446,-80.227310713689,4,1,0,90,0,0
266532,-80,4,1,0,90,0,0
266618,-79.771322209666,4,1,0,90,0,0
266703,-79.543948031287,4,1,0,90,0,0
266789,-79.320487821,4,1,0,90,0,0
266875,-79.095672807567,4,1,0,90,0,0
266960,-78.87212856157,4,1,0,90,0,0
267046,-78.64984433885,4,1,0,90,0,0
267103,-78.50320554756,4,1,0,90,0,0
267160,-78.357112540403,4,1,0,90,0,0
267218,-78.211562275956,4,1,0,90,0,0
267303,-77.992980631743,4,1,0,90,0,0
267389,-77.778137861749,4,1,0,90,0,0
267475,-77.561968781308,4,1,0,90,0,0
267560,-77.346997969641,4,1,0,90,0,0
267618,-77.205172746574,4,1,0,90,0,0
267675,-77.063866679511,4,1,0,90,0,0
267732,-76.923076923077,4,1,0,90,0,0
268096,-66.6666666666667,4,1,0,90,0,0
268268,-100,4,1,0,75,0,0
270839,-100,4,1,0,75,0,0
270860,-100,4,1,0,74,0,0
270882,-100,4,1,0,73,0,0
270903,-100,4,1,0,72,0,0
270925,-100,4,1,0,71,0,0
270946,-100,4,1,0,70,0,0
270968,-100,4,1,0,68,0,0
270989,-100,4,1,0,67,0,0
271010,-100,4,1,0,66,0,0
271032,-100,4,1,0,65,0,0
271053,-100,4,1,0,64,0,0
271075,-100,4,1,0,63,0,0
271096,-100,4,1,0,62,0,0
271118,-100,4,1,0,61,0,0
271139,-100,4,1,0,60,0,0
271160,-100,4,1,0,59,0,0
271182,-100,4,1,0,57,0,0
271203,-100,4,1,0,56,0,0
271225,-100,4,1,0,55,0,0
271246,-100,4,1,0,54,0,0
271268,-100,4,1,0,53,0,0
271289,-100,4,1,0,52,0,0
271310,-100,4,1,0,51,0,0
271332,-100,4,1,0,50,0,0
271353,-100,4,1,0,49,0,0
271375,-100,4,1,0,48,0,0
271396,-100,4,1,0,47,0,0
271418,-100,4,1,0,45,0,0
271439,-100,4,1,0,44,0,0
271460,-100,4,1,0,43,0,0
271482,-100,4,1,0,42,0,0
271503,-100,4,1,0,41,0,0
271525,-100,4,1,0,40,0,0
271546,-100,4,1,0,39,0,0
271568,-100,4,1,0,38,0,0
271589,-100,4,1,0,37,0,0
271610,-100,4,1,0,36,0,0
271632,-100,4,1,0,35,0,0
271653,-100,4,1,0,33,0,0
271675,-100,4,1,0,32,0,0
271696,-100,4,1,0,31,0,0
271718,-100,4,1,0,30,0,0
271739,-100,4,1,0,29,0,0
271760,-100,4,1,0,28,0,0
271782,-100,4,1,0,27,0,0
271803,-100,4,1,0,26,0,0
271825,-100,4,1,0,25,0,0
271846,-100,4,1,0,24,0,0
271868,-100,4,1,0,22,0,0
271889,-100,4,1,0,21,0,0
271910,-100,4,1,0,20,0,0
271932,-100,4,1,0,19,0,0
271953,-100,4,1,0,18,0,0
271975,-100,4,1,0,17,0,0
271996,-100,4,1,0,16,0,0
272018,-100,4,1,0,15,0,0
272039,-100,4,1,0,14,0,0
272060,-100,4,1,0,13,0,0
272082,-100,4,1,0,12,0,0
272103,-100,4,1,0,10,0,0
272125,-100,4,1,0,9,0,0
272146,-100,4,1,0,8,0,0
272168,-100,4,1,0,7,0,0
272189,-100,4,1,0,6,0,0
272210,-100,4,1,0,5,0,0
272232,-100,4,1,0,6,0,0
272253,-100,4,1,0,8,0,0
272275,-100,4,1,0,9,0,0
272296,-100,4,1,0,10,0,0
272318,-100,4,1,0,11,0,0
272339,-100,4,1,0,13,0,0
272360,-100,4,1,0,14,0,0
272382,-100,4,1,0,15,0,0
272403,-100,4,1,0,16,0,0
272425,-100,4,1,0,18,0,0
272446,-100,4,1,0,19,0,0
272468,-100,4,1,0,20,0,0
272489,-100,4,1,0,21,0,0
272510,-100,4,1,0,22,0,0
272532,-100,4,1,0,24,0,0
272553,-100,4,1,0,25,0,0
272575,-100,4,1,0,26,0,0
272596,-100,4,1,0,28,0,0
272618,-100,4,1,0,29,0,0
272639,-100,4,1,0,30,0,0
272660,-100,4,1,0,31,0,0
272682,-100,4,1,0,33,0,0
272703,-100,4,1,0,34,0,0
272725,-100,4,1,0,35,0,0
272746,-100,4,1,0,36,0,0
272768,-100,4,1,0,38,0,0
272789,-100,4,1,0,39,0,0
272810,-100,4,1,0,40,0,0
272832,-100,4,1,0,41,0,0
272853,-100,4,1,0,43,0,0
272875,-100,4,1,0,44,0,0
272896,-100,4,1,0,45,0,0
272918,-100,4,1,0,46,0,0
272939,-100,4,1,0,48,0,0
272960,-100,4,1,0,49,0,0
272982,-100,4,1,0,50,0,0
273003,-100,4,1,0,51,0,0
273025,-100,4,1,0,53,0,0
273046,-100,4,1,0,54,0,0
273068,-100,4,1,0,55,0,0
273089,-100,4,1,0,56,0,0
273110,-100,4,1,0,57,0,0
273132,-100,4,1,0,59,0,0
273153,-100,4,1,0,60,0,0
273175,-100,4,1,0,61,0,0
273196,-100,4,1,0,63,0,0
273218,-100,4,1,0,64,0,0
273239,-100,4,1,0,65,0,0
273260,-100,4,1,0,66,0,0
273282,-100,4,1,0,68,0,0
273303,-100,4,1,0,69,0,0
273325,-100,4,1,0,70,0,0
273346,-100,4,1,0,71,0,0
273368,-100,4,1,0,73,0,0
273389,-100,4,1,0,74,0,0
273410,-100,4,1,0,75,0,0
273432,-100,4,1,0,76,0,0
273453,-100,4,1,0,77,0,0
273475,-100,4,1,0,79,0,0
273496,-100,4,1,0,40,0,0
273582,-21.505376344086,4,1,0,40,0,1
273667,-133.333333333333,4,1,0,40,0,1
283182,-133.333333333333,4,1,0,40,0,1
283203,-133.333333333333,4,1,0,40,0,1
283224,-133.333333333333,4,1,0,41,0,1
283246,-133.333333333333,4,1,0,41,0,1
283267,-133.333333333333,4,1,0,41,0,1
283289,-133.333333333333,4,1,0,42,0,1
283310,-133.333333333333,4,1,0,42,0,1
283332,-133.333333333333,4,1,0,43,0,1
283353,-133.333333333333,4,1,0,43,0,1
283374,-133.333333333333,4,1,0,43,0,1
283396,-133.333333333333,4,1,0,44,0,1
283417,-133.333333333333,4,1,0,44,0,1
283439,-133.333333333333,4,1,0,44,0,1
283460,-133.333333333333,4,1,0,45,0,1
283482,-133.333333333333,4,1,0,45,0,1
283503,-133.333333333333,4,1,0,45,0,1
283524,-133.333333333333,4,1,0,46,0,1
283546,-133.333333333333,4,1,0,46,0,1
283567,-133.333333333333,4,1,0,46,0,1
283589,-133.333333333333,4,1,0,47,0,1
283610,-133.333333333333,4,1,0,47,0,1
283632,-133.333333333333,4,1,0,48,0,1
283653,-133.333333333333,4,1,0,48,0,1
283674,-133.333333333333,4,1,0,48,0,1
283696,-133.333333333333,4,1,0,49,0,1
283717,-133.333333333333,4,1,0,49,0,1
283739,-133.333333333333,4,1,0,49,0,1
283760,-133.333333333333,4,1,0,50,0,1
283782,-133.333333333333,4,1,0,50,0,1
283803,-133.333333333333,4,1,0,50,0,1
283824,-133.333333333333,4,1,0,51,0,1
283846,-133.333333333333,4,1,0,51,0,1
283867,-133.333333333333,4,1,0,51,0,1
283889,-133.333333333333,4,1,0,52,0,1
283910,-133.333333333333,4,1,0,52,0,1
283932,-133.333333333333,4,1,0,53,0,1
283953,-133.333333333333,4,1,0,53,0,1
283974,-133.333333333333,4,1,0,53,0,1
283996,-133.333333333333,4,1,0,54,0,1
284017,-133.333333333333,4,1,0,54,0,1
284039,-133.333333333333,4,1,0,54,0,1
284060,-133.333333333333,4,1,0,55,0,1
284082,-133.333333333333,4,1,0,55,0,1
284103,-133.333333333333,4,1,0,55,0,1
284124,-133.333333333333,4,1,0,56,0,1
284146,-133.333333333333,4,1,0,56,0,1
284167,-133.333333333333,4,1,0,56,0,1
284189,-133.333333333333,4,1,0,57,0,1
284210,-133.333333333333,4,1,0,57,0,1
284232,-133.333333333333,4,1,0,58,0,1
284253,-133.333333333333,4,1,0,58,0,1
284274,-133.333333333333,4,1,0,58,0,1
284296,-133.333333333333,4,1,0,59,0,1
284317,-133.333333333333,4,1,0,59,0,1
284339,-133.333333333333,4,1,0,59,0,1
284360,-133.333333333333,4,1,0,60,0,1
284382,-133.333333333333,4,1,0,60,0,1
284468,-133.333333333333,4,1,0,70,0,1
284553,-111.111111111111,4,1,0,70,0,0
290017,-100,4,1,0,80,0,0
290360,-97.402105582065,4,1,0,80,0,0
290531,-96.14953271028,4,1,0,80,0,0
290617,-95.54234769688,4,1,0,80,0,0
290703,-94.935774398346,4,1,0,80,0,0
290874,-93.752278194941,4,1,0,80,0,0
291045,-92.591259269926,4,1,0,80,0,0
291217,-91.465149359886,4,1,0,80,0,0
291303,-90.909090909091,4,1,0,80,0,0
291388,-90.359752670039,4,1,0,80,0,0
291474,-89.823287001467,4,1,0,80,0,0
291560,-89.286954106783,4,1,0,80,0,0
291731,-88.233276157804,4,1,0,80,0,0
291903,-87.210090872101,4,1,0,80,0,0
291988,-86.704422869471,4,1,0,80,0,0
292074,-86.210364014212,4,1,0,80,0,0
292245,-85.227649280933,4,1,0,80,0,0
292331,-84.744645799012,4,1,0,80,0,0
292417,-84.272608125819,4,1,0,80,0,0
292588,-83.333333333333,4,1,0,80,0,0
292695,-83.333333333333,4,1,0,90,0,0
292760,-66.666666666667,4,1,0,90,0,0
293017,-70.171849427169,4,1,0,90,0,0
293274,-74.066076441373,4,1,0,90,0,0
293445,-76.923076923077,4,1,0,90,0,0
293617,-79.990671641791,4,1,0,90,0,0
293703,-81.627796287482,4,1,0,90,0,0
293788,-83.333333333333,4,1,0,90,0,0
294131,-76.923076923077,4,1,0,90,0,0
294217,-78.115030535047,4,1,0,90,0,0
294303,-79.359199925919,4,1,0,90,0,0
294388,-80.64364354945,4,1,0,90,0,0
294474,-81.954671511906,4,1,0,90,0,0
294560,-83.325230918814,4,1,0,90,0,0
294645,-84.74241075843,4,1,0,90,0,0
294731,-86.208630922442,4,1,0,90,0,0
294817,-87.708525227715,4,1,0,90,0,0
294988,-90.909090909091,4,1,0,90,0,0
295181,-83.3333333333333,4,1,0,90,0,0
295438,-90.909090909091,4,1,0,100,0,0
295525,-90.909090909091,4,1,0,100,0,1
305103,-83.333333333333,4,1,0,100,0,1
305275,-76.934590630145,4,1,0,100,0,1
305446,-71.41864665833,4,1,0,100,0,1
305618,-66.666666666667,4,1,0,100,0,1
305896,-83.333333333334,4,1,0,100,0,1
306068,-80,4,1,0,100,0,1
306496,-100,4,1,0,100,0,0
306839,-90.909090909091,4,1,0,100,0,1
311960,-90.909090909091,4,1,0,100,0,1
312131,-90.564874741338,4,1,0,100,0,1
312217,-90.395728505197,4,1,0,100,0,1
312303,-90.22523411628,4,1,0,100,0,1
312474,-89.888131445551,4,1,0,100,0,1
312560,-89.719544641689,4,1,0,100,0,1
312645,-89.551589029168,4,1,0,100,0,1
312731,-89.38426106983,4,1,0,100,0,1
312817,-89.219492095162,4,1,0,100,0,1
312903,-89.053401736043,4,1,0,100,0,1
312988,-88.887928613098,4,1,0,100,0,1
313160,-88.560726740431,4,1,0,100,0,1
313331,-88.234032514048,4,1,0,100,0,1
313503,-87.911618266128,4,1,0,100,0,1
313588,-87.750357272359,4,1,0,100,0,1
313674,-87.591551694771,4,1,0,100,0,1
313845,-87.271955876114,4,1,0,100,0,1
313931,-87.113030957523,4,1,0,100,0,1
314017,-86.95652173913,4,1,0,100,0,1
314188,-86.64153486511,4,1,0,100,0,1
314274,-86.486713757148,4,1,0,100,0,1
314360,-86.330633315147,4,1,0,100,0,1
314445,-86.175115207373,4,1,0,100,0,1
314531,-86.020156400284,4,1,0,100,0,1
314703,-85.713690438986,4,1,0,100,0,1
314874,-85.409400431822,4,1,0,100,0,1
314960,-85.257180751855,4,1,0,100,0,1
315045,-85.105502689284,4,1,0,100,0,1
315131,-84.954363358526,4,1,0,100,0,1
315217,-84.805508029107,4,1,0,100,0,1
315388,-84.505885011195,4,1,0,100,0,1
315560,-84.210095386253,4,1,0,100,0,1
315645,-84.06211687781,4,1,0,100,0,1
315731,-83.914657528658,4,1,0,100,0,1
315903,-83.62298514137,4,1,0,100,0,1
316074,-83.333333333333,4,1,0,100,0,1
316245,-85.111662531017,4,1,0,100,0,1
316331,-86.02959618761,4,1,0,100,0,1
316417,-86.95652173913,4,1,0,100,0,1
316503,-87.914904523901,4,1,0,100,0,1
316588,-88.894648179344,4,1,0,100,0,1
316674,-89.884696016771,4,1,0,100,0,1
316760,-90.909090909091,4,1,0,100,0,1
316931,-93.029563330621,4,1,0,100,0,1
317017,-94.114418987515,4,1,0,100,0,1
317103,-95.238095238095,4,1,0,100,0,1
317274,-97.554038680319,4,1,0,100,0,1
317381,-97.554038680319,4,1,0,80,0,1
317445,-100,4,1,0,80,0,1
318753,-95.2380952380952,4,1,0,80,0,1
320188,-90.909090909091,4,1,0,90,0,1
320360,-89.554839271714,4,1,0,90,0,1
320445,-88.888888888889,4,1,0,90,0,1
320531,-88.232769719337,4,1,0,90,0,1
320703,-86.95652173913,4,1,0,90,0,1
320788,-86.328518642929,4,1,0,90,0,1
320874,-85.716668056366,4,1,0,90,0,1
320960,-85.106382978723,4,1,0,90,0,1
321045,-84.504726674887,4,1,0,90,0,1
321131,-83.911517427149,4,1,0,90,0,1
321217,-83.333333333333,4,1,0,90,0,1
321410,-76.9230769230769,4,1,0,90,0,0
321495,-83.3333333333333,4,1,0,40,0,0
322867,-66.666666666667,4,1,0,80,0,0
322931,-90.909090909091,4,1,0,80,0,0
323017,-91.59761204669,4,1,0,80,0,0
323103,-92.304929514232,4,1,0,80,0,0
323188,-93.023255813953,4,1,0,80,0,0
323274,-93.744300565384,4,1,0,80,0,0
323445,-95.238095238095,4,1,0,80,0,0
323531,-96.002988419873,4,1,0,80,0,0
323617,-96.771156923656,4,1,0,80,0,0
323703,-97.560975609756,4,1,0,80,0,0
323788,-98.363792938475,4,1,0,80,0,0
323845,-98.903213392342,4,1,0,80,0,0
323903,-99.448582760956,4,1,0,80,0,0
323960,-100,4,1,0,80,0,0
324238,-90.9090909090909,4,1,0,95,0,0
324325,-90.9090909090909,4,1,0,95,0,1
333903,-83.333333333333,4,1,0,95,0,1
334075,-76.934590630145,4,1,0,95,0,1
334246,-71.41864665833,4,1,0,95,0,1
334418,-66.666666666667,4,1,0,95,0,1
334696,-83.333333333334,4,1,0,95,0,1
334868,-80,4,1,0,95,0,1
335296,-100,4,1,0,95,0,0
335639,-90.909090909091,4,1,0,95,0,1
340695,-86.95652173913,4,1,0,95,0,1
342067,-83.333333333333,4,1,0,95,0,1
343502,-80,4,1,0,95,0,1
344124,-76.9230769230769,4,1,0,95,0,1
344895,-66.682867557716,4,1,0,95,0,1
345131,-71.124935199585,4,1,0,95,0,1
345388,-76.201055262427,4,1,0,95,0,1
345581,-80.023330417031,4,1,0,95,0,1
345924,-88.917692806222,4,1,0,95,0,1
346245,-100,4,1,0,80,0,1
346268,-99.9999999999999,4,1,0,80,0,0
346438,-111.111111111111,4,1,0,80,0,0
355845,-100,4,1,0,80,0,0
356103,-103.091543365813,4,1,0,80,0,0
356274,-105.256693687055,4,1,0,80,0,0
356360,-106.380337636544,4,1,0,80,0,0
356445,-107.528230865747,4,1,0,80,0,0
356531,-108.701166920345,4,1,0,80,0,0
356703,-111.111111111111,4,1,0,80,0,0
356895,-83.333333333333,4,1,0,80,0,0
357239,-125,4,1,0,80,0,0
357581,-111.111111111111,4,1,0,80,0,0
362638,-100,4,1,0,80,0,0
364009,-95.238095238095,4,1,0,80,0,0
365381,-90.909090909091,4,1,0,80,0,0
366067,-86.95652173913,4,1,0,80,0,0
366752,-83.333333333333,4,1,0,80,0,0
367503,-100,4,1,0,80,0,0
367674,-105.24700828475,4,1,0,80,0,0
367760,-108.099590293098,4,1,0,80,0,0
367845,-111.111111111111,4,1,0,80,0,0
367931,-114.295234921693,4,1,0,80,0,0
368017,-117.626886145405,4,1,0,80,0,0
368124,-125,4,1,0,70,0,0
377788,-100,4,1,0,70,0,0
378045,-103.091543365813,4,1,0,70,0,0
378217,-105.256693687055,4,1,0,70,0,0
378303,-106.380337636544,4,1,0,70,0,0
378388,-107.528230865747,4,1,0,70,0,0
378474,-108.687381103361,4,1,0,70,0,0
378560,-109.885882805488,4,1,0,70,0,0
378645,-111.111111111111,4,1,0,70,0,0
378838,-83.3333333333333,4,1,0,70,0,0
379095,-111.111111111111,4,1,0,80,0,0
384581,-100,4,1,0,80,0,0
385952,-95.238095238095,4,1,0,80,0,0
387324,-90.909090909091,4,1,0,80,0,0
388010,-86.95652173913,4,1,0,80,0,0
388695,-83.333333333333,4,1,0,80,0,0
389445,-90.909090909091,4,1,0,80,0,0
389531,-93.029563330621,4,1,0,80,0,0
389617,-95.224875069406,4,1,0,80,0,0
389703,-97.554038680319,4,1,0,80,0,0
389788,-100,4,1,0,80,0,0
389874,-102.54110612855,4,1,0,80,0,0
389960,-105.24700828475,4,1,0,80,0,0
390131,-111.111111111111,4,1,0,80,0,0

[HitObjects]
208,163,668,5,4,0:0:0:0:
256,192,1010,1,8,0:0:0:0:
256,192,1353,1,0,0:0:0:0:
256,192,1696,1,8,0:0:0:0:
256,192,1868,1,8,0:0:0:0:
256,192,2039,1,0,0:0:0:0:
256,192,2382,1,8,0:0:0:0:
256,192,2725,1,0,0:0:0:0:
256,192,2896,1,0,0:0:0:0:
256,192,3068,1,8,0:0:0:0:
256,192,3239,1,8,0:0:0:0:
256,192,3410,1,0,0:0:0:0:
256,192,3753,1,8,0:0:0:0:
256,192,4096,1,0,0:0:0:0:
256,192,4439,1,8,0:0:0:0:
256,192,4610,1,0,0:0:0:0:
256,192,4782,1,0,0:0:0:0:
256,192,5125,1,8,0:0:0:0:
256,192,5468,1,0,0:0:0:0:
256,192,5639,1,0,0:0:0:0:
256,192,5810,1,8,0:0:0:0:
256,192,5982,1,0,0:0:0:0:
256,192,6153,1,0,0:0:0:0:
256,192,6496,1,8,0:0:0:0:
256,192,6839,1,0,0:0:0:0:
256,192,7182,1,8,0:0:0:0:
256,192,7353,1,8,0:0:0:0:
256,192,7525,1,0,0:0:0:0:
256,192,7868,1,8,0:0:0:0:
256,192,8210,1,0,0:0:0:0:
256,192,8382,1,8,0:0:0:0:
263,200,8553,1,8,0:0:0:0:
256,192,8725,1,8,0:0:0:0:
256,192,8896,1,0,0:0:0:0:
256,192,9239,1,8,0:0:0:0:
256,192,9582,1,0,0:0:0:0:
256,192,9753,1,8,0:0:0:0:
256,192,9925,1,8,0:0:0:0:
256,192,10268,1,4,0:0:0:0:
256,192,10525,1,8,0:0:0:0:
256,192,10696,1,8,0:0:0:0:
256,192,10782,1,0,0:0:0:0:
256,192,10868,1,0,0:0:0:0:
256,192,10953,1,8,0:0:0:0:
256,192,11125,1,0,0:0:0:0:
256,192,11296,1,12,0:0:0:0:
256,192,11639,1,4,0:0:0:0:
256,192,11982,1,8,0:0:0:0:
256,192,12153,1,8,0:0:0:0:
256,192,12325,1,0,0:0:0:0:
256,192,12496,1,0,0:0:0:0:
256,192,12582,1,0,0:0:0:0:
256,192,12668,1,8,0:0:0:0:
256,192,12839,1,8,0:0:0:0:
256,192,13010,1,0,0:0:0:0:
256,192,13353,1,8,0:0:0:0:
256,192,13525,1,0,0:0:0:0:
256,192,13696,1,8,0:0:0:0:
256,192,13782,1,8,0:0:0:0:
256,192,13868,1,0,0:0:0:0:
256,192,13953,1,0,0:0:0:0:
256,192,14039,1,8,0:0:0:0:
256,192,14210,1,8,0:0:0:0:
256,192,14382,1,0,0:0:0:0:
256,192,14725,1,8,0:0:0:0:
256,192,14896,1,8,0:0:0:0:
256,192,15068,1,0,0:0:0:0:
256,192,15239,1,8,0:0:0:0:
256,192,15325,1,0,0:0:0:0:
256,192,15410,1,8,0:0:0:0:
256,192,15582,1,8,0:0:0:0:
256,192,15753,1,0,0:0:0:0:
256,192,15925,1,0,0:0:0:0:
256,192,16010,1,0,0:0:0:0:
256,192,16096,1,8,0:0:0:0:
256,192,16268,1,8,0:0:0:0:
256,192,16439,1,0,0:0:0:0:
256,192,16525,1,8,0:0:0:0:
256,192,16610,1,0,0:0:0:0:
256,192,16696,1,0,0:0:0:0:
256,192,16782,1,8,0:0:0:0:
256,192,16953,1,8,0:0:0:0:
256,192,17125,1,4,0:0:0:0:
256,192,17468,1,8,0:0:0:0:
256,192,18153,1,8,0:0:0:0:
256,192,18496,1,4,0:0:0:0:
256,192,18839,1,8,0:0:0:0:
256,192,19010,1,0,0:0:0:0:
256,192,19096,1,8,0:0:0:0:
256,192,19182,1,0,0:0:0:0:
256,192,19353,1,0,0:0:0:0:
256,192,19525,1,8,0:0:0:0:
256,192,19696,1,8,0:0:0:0:
256,192,19868,1,4,0:0:0:0:
256,192,20210,1,8,0:0:0:0:
256,192,20382,1,8,0:0:0:0:
256,192,20553,1,4,0:0:0:0:
256,192,20725,1,8,0:0:0:0:
256,192,20810,1,0,0:0:0:0:
256,192,20896,1,8,0:0:0:0:
256,192,21068,1,8,0:0:0:0:
256,192,21239,1,4,0:0:0:0:
256,192,21925,1,0,0:0:0:0:
256,192,22096,1,8,0:0:0:0:
256,192,22182,1,8,0:0:0:0:
256,192,22268,1,0,0:0:0:0:
256,192,22439,1,8,0:0:0:0:
256,192,22610,1,4,0:0:0:0:
256,192,27582,5,0,0:0:0:0:
256,192,27753,1,12,0:0:0:0:
256,192,28096,1,4,0:0:0:0:
256,192,28439,1,8,0:0:0:0:
256,192,28782,1,8,0:0:0:0:
256,192,29125,1,8,0:0:0:0:
256,192,29468,1,4,0:0:0:0:
256,192,29810,1,8,0:0:0:0:
256,192,29982,1,8,0:0:0:0:
256,192,30153,1,8,0:0:0:0:
256,192,30496,1,8,0:0:0:0:
256,192,30839,1,4,0:0:0:0:
256,192,31096,1,8,0:0:0:0:
256,192,31182,1,8,0:0:0:0:
256,192,31353,1,8,0:0:0:0:
256,192,31525,1,4,0:0:0:0:
256,192,31696,1,8,0:0:0:0:
256,192,31782,1,8,0:0:0:0:
256,192,31868,1,8,0:0:0:0:
256,192,32039,1,8,0:0:0:0:
256,192,32210,1,4,0:0:0:0:
256,192,32468,1,12,0:0:0:0:
256,192,32725,1,12,0:0:0:0:
256,192,32896,1,4,0:0:0:0:
256,192,33239,1,12,0:0:0:0:
172,98,33582,5,4,0:0:0:0:
188,136,33925,1,8,0:0:0:0:
190,151,34096,1,0,0:0:0:0:
190,150,34182,1,8,0:0:0:0:
190,153,34353,1,8,0:0:0:0:
190,153,34439,1,0,0:0:0:0:
188,136,34610,1,8,0:0:0:0:
186,89,34696,1,0,0:0:0:0:
186,89,34782,1,8,0:0:0:0:
190,150,34953,1,0,0:0:0:0:
190,150,35125,1,0,0:0:0:0:
183,60,35210,1,8,0:0:0:0:
188,136,35296,1,8,0:0:0:0:
186,88,35382,1,0,0:0:0:0:
184,95,35468,1,8,0:0:0:0:
176,88,35639,1,0,0:0:0:0:
136,97,35810,1,8,0:0:0:0:
176,88,35896,1,0,0:0:0:0:
188,136,35982,1,8,0:0:0:0:
176,88,36068,1,8,0:0:0:0:
176,88,36153,1,0,0:0:0:0:
176,88,36239,1,0,0:0:0:0:
176,88,36325,1,8,0:0:0:0:
176,88,36496,1,0,0:0:0:0:
188,136,36668,1,8,0:0:0:0:
176,88,36839,1,0,0:0:0:0:
176,88,36925,1,8,0:0:0:0:
186,88,37096,1,8,0:0:0:0:
186,88,37182,1,0,0:0:0:0:
136,97,37353,1,8,0:0:0:0:
184,67,37439,1,8,0:0:0:0:
186,88,37525,1,0,0:0:0:0:
186,89,37610,1,8,0:0:0:0:
186,89,37696,1,0,0:0:0:0:
183,61,37868,1,0,0:0:0:0:
179,60,37953,1,8,0:0:0:0:
136,97,38039,1,8,0:0:0:0:
184,67,38125,1,0,0:0:0:0:
184,67,38210,1,8,0:0:0:0:
183,60,38296,1,8,0:0:0:0:
184,67,38382,1,0,0:0:0:0:
136,97,38553,1,8,0:0:0:0:
136,97,38725,1,8,0:0:0:0:
183,60,38810,1,0,0:0:0:0:
183,60,38896,1,8,0:0:0:0:
183,61,39068,1,0,0:0:0:0:
179,60,39239,1,0,0:0:0:0:
183,60,39325,1,0,0:0:0:0:
136,97,39410,1,8,0:0:0:0:
183,60,39582,1,0,0:0:0:0:
183,60,39668,1,0,0:0:0:0:
183,60,39839,1,8,0:0:0:0:
183,60,39925,1,0,0:0:0:0:
136,97,40096,1,8,0:0:0:0:
179,60,40268,1,0,0:0:0:0:
183,60,40439,1,8,0:0:0:0:
183,60,40525,1,8,0:0:0:0:
183,60,40610,1,0,0:0:0:0:
136,97,40782,1,8,0:0:0:0:
183,60,40953,1,0,0:0:0:0:
183,61,41039,1,0,0:0:0:0:
179,60,41210,1,0,0:0:0:0:
136,97,41296,1,8,0:0:0:0:
136,97,41468,1,8,0:0:0:0:
183,60,41639,1,0,0:0:0:0:
183,60,41810,1,8,0:0:0:0:
183,60,41896,1,8,0:0:0:0:
183,60,41982,1,0,0:0:0:0:
136,97,42153,1,8,0:0:0:0:
183,60,42325,1,0,0:0:0:0:
183,60,42410,1,8,0:0:0:0:
183,60,42496,1,0,0:0:0:0:
183,60,42582,1,0,0:0:0:0:
183,60,42668,1,8,0:0:0:0:
183,60,42753,1,0,0:0:0:0:
136,97,42839,1,8,0:0:0:0:
209,164,43010,1,8,0:0:0:0:
209,164,43182,1,4,0:0:0:0:
136,97,43353,1,4,0:0:0:0:
164,91,43525,1,12,0:0:0:0:
164,91,43696,1,12,0:0:0:0:
192,145,44039,1,0,0:0:0:0:
192,145,44210,1,12,0:0:0:0:
102,95,44553,1,0,0:0:0:0:
109,98,44639,1,0,0:0:0:0:
164,107,44896,1,12,0:0:0:0:
190,151,45068,1,0,0:0:0:0:
190,150,45153,1,8,0:0:0:0:
190,153,45325,1,8,0:0:0:0:
190,153,45410,1,0,0:0:0:0:
158,135,45496,1,0,0:0:0:0:
188,136,45582,1,8,0:0:0:0:
186,89,45668,1,0,0:0:0:0:
186,89,45753,1,8,0:0:0:0:
190,150,45925,1,0,0:0:0:0:
190,150,46096,1,0,0:0:0:0:
183,60,46182,1,8,0:0:0:0:
188,136,46268,1,8,0:0:0:0:
186,88,46353,1,0,0:0:0:0:
184,95,46439,1,8,0:0:0:0:
176,88,46610,1,0,0:0:0:0:
136,97,46782,1,8,0:0:0:0:
176,88,46868,1,0,0:0:0:0:
188,136,46953,1,8,0:0:0:0:
176,88,47039,1,8,0:0:0:0:
176,88,47125,1,0,0:0:0:0:
176,88,47210,1,0,0:0:0:0:
176,88,47296,1,8,0:0:0:0:
176,88,47468,1,0,0:0:0:0:
188,136,47639,1,8,0:0:0:0:
176,88,47810,1,0,0:0:0:0:
176,88,47896,1,8,0:0:0:0:
186,88,48068,1,8,0:0:0:0:
186,88,48153,1,0,0:0:0:0:
211,143,48239,1,0,0:0:0:0:
136,97,48325,1,8,0:0:0:0:
184,67,48410,1,8,0:0:0:0:
186,88,48496,1,0,0:0:0:0:
186,89,48582,1,8,0:0:0:0:
186,89,48668,1,0,0:0:0:0:
183,61,48839,1,0,0:0:0:0:
179,60,48925,1,8,0:0:0:0:
136,97,49010,1,8,0:0:0:0:
184,67,49096,1,0,0:0:0:0:
184,67,49182,1,8,0:0:0:0:
183,60,49268,1,8,0:0:0:0:
184,67,49353,1,0,0:0:0:0:
136,97,49525,1,8,0:0:0:0:
136,97,49696,1,8,0:0:0:0:
183,60,49782,1,0,0:0:0:0:
183,60,49868,1,8,0:0:0:0:
211,143,50039,1,4,0:0:0:0:
166,50,50382,1,0,0:0:0:0:
176,163,50553,1,0,0:0:0:0:
196,230,50639,1,0,0:0:0:0:
219,110,50810,1,0,0:0:0:0:
179,74,50896,1,8,0:0:0:0:
166,50,51068,1,0,0:0:0:0:
166,50,51153,1,0,0:0:0:0:
179,74,51239,1,8,0:0:0:0:
171,113,51410,1,4,0:0:0:0:
166,50,51753,1,0,0:0:0:0:
179,74,51925,1,8,0:0:0:0:
147,187,52010,1,0,0:0:0:0:
171,55,52182,1,0,0:0:0:0:
179,74,52268,1,8,0:0:0:0:
231,82,52353,1,8,0:0:0:0:
166,50,52439,1,0,0:0:0:0:
166,50,52525,1,0,0:0:0:0:
179,74,52610,1,8,0:0:0:0:
166,50,52782,1,4,0:0:0:0:
139,66,52953,1,0,0:0:0:0:
134,56,53039,1,0,0:0:0:0:
139,66,53125,1,8,0:0:0:0:
136,110,53296,1,8,0:0:0:0:
116,189,53382,1,8,0:0:0:0:
116,189,53468,1,0,0:0:0:0:
116,189,53553,1,0,0:0:0:0:
154,144,53639,1,8,0:0:0:0:
129,60,53725,1,0,0:0:0:0:
129,60,53810,1,8,0:0:0:0:
129,60,53896,1,8,0:0:0:0:
151,87,53982,1,8,0:0:0:0:
151,87,54153,1,4,0:0:0:0:
193,88,54410,1,4,0:0:0:0:
193,88,54668,1,4,0:0:0:0:
196,92,54839,1,12,0:0:0:0:
239,145,55182,1,12,0:0:0:0:
166,165,55525,5,4,0:0:0:0:
191,125,55868,1,8,0:0:0:0:
191,125,56039,1,0,0:0:0:0:
169,57,56125,1,0,0:0:0:0:
201,57,56296,1,0,0:0:0:0:
191,125,56382,1,0,0:0:0:0:
191,125,56553,1,8,0:0:0:0:
192,133,56725,1,8,0:0:0:0:
226,138,56896,1,4,0:0:0:0:
191,125,57239,1,8,0:0:0:0:
191,125,57410,1,0,0:0:0:0:
191,125,57496,1,0,0:0:0:0:
156,86,57668,1,0,0:0:0:0:
156,86,57753,1,0,0:0:0:0:
158,97,57925,1,8,0:0:0:0:
192,133,58096,1,8,0:0:0:0:
226,138,58268,1,4,0:0:0:0:
226,138,58610,1,8,0:0:0:0:
226,138,58782,1,8,0:0:0:0:
175,85,58953,1,4,0:0:0:0:
226,138,59125,1,0,0:0:0:0:
226,138,59210,1,0,0:0:0:0:
226,138,59296,1,8,0:0:0:0:
201,57,59382,1,8,0:0:0:0:
175,85,59468,1,8,0:0:0:0:
226,138,59639,1,4,0:0:0:0:
175,85,60668,1,12,0:0:0:0:
281,264,61010,1,4,0:0:0:0:
281,264,61353,1,0,0:0:0:0:
281,264,61696,1,8,0:0:0:0:
281,264,61868,1,0,0:0:0:0:
289,122,61953,1,8,0:0:0:0:
289,122,62210,1,8,0:0:0:0:
281,264,62553,1,0,0:0:0:0:
281,264,62725,1,0,0:0:0:0:
333,175,63068,1,8,0:0:0:0:
333,175,63239,1,0,0:0:0:0:
304,123,63325,1,0,0:0:0:0:
304,123,63582,1,8,0:0:0:0:
332,178,63753,1,0,0:0:0:0:
303,123,63925,1,8,0:0:0:0:
303,123,64096,1,0,0:0:0:0:
368,141,64439,1,8,0:0:0:0:
368,141,64610,1,0,0:0:0:0:
368,141,64696,1,0,0:0:0:0:
368,141,64782,1,8,0:0:0:0:
368,141,64953,1,8,0:0:0:0:
375,141,65296,1,8,0:0:0:0:
366,139,65468,1,0,0:0:0:0:
366,139,65639,1,0,0:0:0:0:
375,141,65810,1,8,0:0:0:0:
375,141,65982,1,0,0:0:0:0:
375,141,66068,1,8,0:0:0:0:
375,141,66239,1,0,0:0:0:0:
381,141,66325,1,8,0:0:0:0:
381,141,66496,1,0,0:0:0:0:
375,141,66839,1,0,0:0:0:0:
232,114,67182,1,8,0:0:0:0:
232,114,67353,1,0,0:0:0:0:
232,114,67439,1,8,0:0:0:0:
232,112,67696,1,0,0:0:0:0:
178,152,68039,1,0,0:0:0:0:
178,152,68210,1,0,0:0:0:0:
196,155,68553,1,8,0:0:0:0:
264,133,68725,1,0,0:0:0:0:
264,133,68810,1,8,0:0:0:0:
264,133,69068,1,8,0:0:0:0:
264,133,69239,1,0,0:0:0:0:
261,135,69582,1,0,0:0:0:0:
261,135,69753,1,0,0:0:0:0:
196,155,69925,1,8,0:0:0:0:
334,154,70096,1,0,0:0:0:0:
334,154,70182,1,8,0:0:0:0:
334,154,70268,1,0,0:0:0:0:
322,154,70439,1,8,0:0:0:0:
322,154,70782,1,8,0:0:0:0:
322,154,70953,1,0,0:0:0:0:
322,154,71125,1,0,0:0:0:0:
196,155,71296,1,8,0:0:0:0:
325,154,71468,1,0,0:0:0:0:
325,154,71553,1,8,0:0:0:0:
340,153,71725,1,0,0:0:0:0:
323,154,71810,1,8,0:0:0:0:
281,264,71982,1,4,0:0:0:0:
281,264,72325,1,0,0:0:0:0:
201,162,72496,1,0,0:0:0:0:
281,264,72668,1,8,0:0:0:0:
281,264,72839,1,0,0:0:0:0:
289,122,72925,1,8,0:0:0:0:
289,122,73182,1,8,0:0:0:0:
281,264,73525,1,0,0:0:0:0:
281,264,73696,1,0,0:0:0:0:
201,162,73868,1,8,0:0:0:0:
201,162,73953,1,0,0:0:0:0:
333,175,74039,1,8,0:0:0:0:
333,175,74210,1,0,0:0:0:0:
304,123,74296,1,0,0:0:0:0:
304,123,74553,1,8,0:0:0:0:
332,178,74725,1,0,0:0:0:0:
303,123,74896,1,8,0:0:0:0:
303,123,75068,1,0,0:0:0:0:
217,189,75239,1,0,0:0:0:0:
368,141,75410,1,8,0:0:0:0:
368,141,75582,1,0,0:0:0:0:
368,141,75668,1,0,0:0:0:0:
368,141,75753,1,8,0:0:0:0:
368,141,75925,1,8,0:0:0:0:
375,141,76268,1,8,0:0:0:0:
366,139,76439,1,0,0:0:0:0:
366,139,76610,1,0,0:0:0:0:
217,189,76696,1,0,0:0:0:0:
375,141,76782,1,8,0:0:0:0:
375,141,76953,1,0,0:0:0:0:
375,141,77039,1,8,0:0:0:0:
375,141,77210,1,0,0:0:0:0:
381,141,77296,1,8,0:0:0:0:
381,141,77468,1,0,0:0:0:0:
375,141,77810,1,0,0:0:0:0:
217,189,77982,1,0,0:0:0:0:
232,114,78153,1,8,0:0:0:0:
232,114,78325,1,0,0:0:0:0:
232,114,78410,1,8,0:0:0:0:
232,112,78668,1,0,0:0:0:0:
178,152,79010,1,0,0:0:0:0:
178,152,79182,1,0,0:0:0:0:
217,189,79353,1,0,0:0:0:0:
196,155,79525,1,8,0:0:0:0:
264,133,79696,1,0,0:0:0:0:
264,133,79782,1,8,0:0:0:0:
264,133,80039,1,8,0:0:0:0:
264,133,80210,1,0,0:0:0:0:
217,189,80382,1,8,0:0:0:0:
217,189,80468,1,8,0:0:0:0:
261,135,80553,1,0,0:0:0:0:
261,135,80725,1,0,0:0:0:0:
196,155,80896,1,8,0:0:0:0:
334,154,81068,1,0,0:0:0:0:
334,154,81153,5,0,0:0:0:0:
334,154,81239,1,8,0:0:0:0:
313,131,81410,1,4,0:0:0:0:
313,131,81753,1,4,0:0:0:0:
313,131,82096,1,4,0:0:0:0:
313,131,82268,1,8,0:0:0:0:
313,131,82353,1,8,0:0:0:0:
313,131,82439,1,0,0:0:0:0:
313,131,82525,1,0,0:0:0:0:
313,131,82610,1,8,0:0:0:0:
256,192,82953,5,4,0:0:0:0:
256,192,84153,1,8,0:0:0:0:
256,192,85010,1,8,0:0:0:0:
256,192,85525,1,0,0:0:0:0:
256,192,86382,1,0,0:0:0:0:
256,192,86553,1,8,0:0:0:0:
256,192,86725,1,8,0:0:0:0:
256,192,86896,1,0,0:0:0:0:
256,192,87582,1,0,0:0:0:0:
256,192,87753,1,8,0:0:0:0:
256,192,87839,1,8,0:0:0:0:
256,192,87925,1,0,0:0:0:0:
144,193,88010,1,0,0:0:0:0:
256,192,88096,1,8,0:0:0:0:
256,192,88439,1,4,0:0:0:0:
256,192,88696,1,8,0:0:0:0:
256,192,88782,1,0,0:0:0:0:
256,192,88953,1,8,0:0:0:0:
256,192,89125,1,0,0:0:0:0:
256,192,89210,1,0,0:0:0:0:
256,192,89382,1,0,0:0:0:0:
256,192,89468,1,8,0:0:0:0:
256,192,89639,1,8,0:0:0:0:
256,192,89810,1,4,0:0:0:0:
256,192,90068,1,0,0:0:0:0:
256,192,90153,1,8,0:0:0:0:
256,192,90325,1,0,0:0:0:0:
256,192,90496,1,8,0:0:0:0:
256,192,90582,1,0,0:0:0:0:
256,192,90668,1,0,0:0:0:0:
256,192,90753,1,8,0:0:0:0:
256,192,90839,1,0,0:0:0:0:
256,192,91010,1,8,0:0:0:0:
256,192,91182,1,4,0:0:0:0:
256,192,91525,1,8,0:0:0:0:
256,192,91696,1,8,0:0:0:0:
256,192,91868,1,4,0:0:0:0:
256,192,92125,1,8,0:0:0:0:
256,192,92210,1,0,0:0:0:0:
256,192,92382,1,8,0:0:0:0:
256,192,92553,1,4,0:0:0:0:
256,192,93925,1,0,0:0:0:0:
256,192,94096,1,8,0:0:0:0:
256,192,94182,1,0,0:0:0:0:
256,192,94268,1,8,0:0:0:0:
256,192,94439,1,0,0:0:0:0:
256,192,94525,1,0,0:0:0:0:
256,192,94610,1,8,0:0:0:0:
256,192,94696,1,8,0:0:0:0:
256,192,94782,1,0,0:0:0:0:
256,192,94953,1,12,0:0:0:0:
256,192,95296,1,4,0:0:0:0:
256,192,95553,1,0,0:0:0:0:
256,192,95639,1,8,0:0:0:0:
256,192,95810,1,0,0:0:0:0:
256,192,95982,1,8,0:0:0:0:
256,192,96068,1,8,0:0:0:0:
256,192,96239,1,0,0:0:0:0:
256,192,96325,1,8,0:0:0:0:
256,192,96410,1,8,0:0:0:0:
256,192,96496,1,0,0:0:0:0:
256,192,96582,1,0,0:0:0:0:
256,192,96668,1,8,0:0:0:0:
256,192,96839,1,0,0:0:0:0:
256,192,96925,1,8,0:0:0:0:
256,192,97010,1,8,0:0:0:0:
256,192,97182,1,0,0:0:0:0:
256,192,97268,1,0,0:0:0:0:
256,192,97353,1,8,0:0:0:0:
256,192,97439,1,0,0:0:0:0:
256,192,97610,1,0,0:0:0:0:
256,192,97696,1,8,0:0:0:0:
256,192,97868,1,0,0:0:0:0:
256,192,97953,1,0,0:0:0:0:
256,192,98039,1,8,0:0:0:0:
256,192,98210,1,0,0:0:0:0:
256,192,98296,1,8,0:0:0:0:
256,192,98382,1,8,0:0:0:0:
256,192,98468,1,8,0:0:0:0:
256,192,98553,1,0,0:0:0:0:
256,192,98725,1,8,0:0:0:0:
256,192,98810,1,8,0:0:0:0:
256,192,98982,1,0,0:0:0:0:
256,192,99068,1,8,0:0:0:0:
256,192,99153,1,8,0:0:0:0:
256,192,99239,1,0,0:0:0:0:
256,192,99410,1,8,0:0:0:0:
256,192,99582,1,0,0:0:0:0:
256,192,99668,1,8,0:0:0:0:
256,192,99753,1,8,0:0:0:0:
256,192,99839,1,8,0:0:0:0:
256,192,99925,1,0,0:0:0:0:
256,192,100010,1,0,0:0:0:0:
256,192,100096,1,8,0:0:0:0:
256,192,100182,1,0,0:0:0:0:
256,192,100353,1,0,0:0:0:0:
256,192,100439,1,8,0:0:0:0:
256,192,100610,1,8,0:0:0:0:
256,192,100696,1,8,0:0:0:0:
256,192,100782,1,0,0:0:0:0:
256,192,101039,1,0,0:0:0:0:
256,192,101125,1,8,0:0:0:0:
256,192,101296,1,0,0:0:0:0:
256,192,101382,1,0,0:0:0:0:
256,192,101468,1,8,0:0:0:0:
256,192,101553,1,8,0:0:0:0:
256,192,101725,1,0,0:0:0:0:
256,192,101810,1,8,0:0:0:0:
256,192,101896,1,0,0:0:0:0:
256,192,101982,1,0,0:0:0:0:
256,192,102153,1,8,0:0:0:0:
256,192,102325,1,0,0:0:0:0:
256,192,102410,1,8,0:0:0:0:
256,192,102496,1,8,0:0:0:0:
256,192,102668,1,0,0:0:0:0:
256,192,102753,1,0,0:0:0:0:
256,192,102839,1,8,0:0:0:0:
256,192,102925,1,0,0:0:0:0:
256,192,103096,1,0,0:0:0:0:
256,192,103182,1,8,0:0:0:0:
256,192,103353,1,0,0:0:0:0:
256,192,103525,1,8,0:0:0:0:
256,192,103610,1,8,0:0:0:0:
256,192,103696,1,0,0:0:0:0:
256,192,103782,1,8,0:0:0:0:
256,192,103868,1,8,0:0:0:0:
256,192,103953,1,8,0:0:0:0:
256,192,104039,1,0,0:0:0:0:
256,192,104210,1,8,0:0:0:0:
256,192,104296,1,8,0:0:0:0:
256,192,104468,1,0,0:0:0:0:
256,192,104553,1,8,0:0:0:0:
256,192,104725,1,8,0:0:0:0:
256,192,104896,1,4,0:0:0:0:
256,192,105153,1,8,0:0:0:0:
256,192,105410,1,8,0:0:0:0:
256,192,105582,1,0,0:0:0:0:
256,192,105668,1,8,0:0:0:0:
256,192,105753,1,0,0:0:0:0:
256,192,105925,1,12,0:0:0:0:
256,192,106268,1,4,0:0:0:0:
256,192,106525,1,0,0:0:0:0:
256,192,106610,1,8,0:0:0:0:
256,192,106782,1,0,0:0:0:0:
256,192,106953,1,8,0:0:0:0:
256,192,107039,1,8,0:0:0:0:
256,192,107210,1,0,0:0:0:0:
256,192,107296,1,8,0:0:0:0:
256,192,107382,1,0,0:0:0:0:
256,192,107468,1,8,0:0:0:0:
256,192,107553,1,8,0:0:0:0:
256,192,107639,1,0,0:0:0:0:
256,192,107810,1,0,0:0:0:0:
256,192,107896,1,8,0:0:0:0:
256,192,107982,1,8,0:0:0:0:
256,192,108153,1,0,0:0:0:0:
256,192,108325,1,8,0:0:0:0:
256,192,108410,1,0,0:0:0:0:
256,192,108582,1,0,0:0:0:0:
256,192,108668,1,8,0:0:0:0:
256,192,108839,1,0,0:0:0:0:
256,192,108925,1,0,0:0:0:0:
256,192,109010,1,8,0:0:0:0:
256,192,109182,1,0,0:0:0:0:
256,192,109268,1,8,0:0:0:0:
256,192,109353,1,8,0:0:0:0:
256,192,109439,1,8,0:0:0:0:
256,192,109525,1,0,0:0:0:0:
256,192,109696,1,8,0:0:0:0:
256,192,109782,1,8,0:0:0:0:
256,192,109953,1,0,0:0:0:0:
256,192,110039,1,8,0:0:0:0:
256,192,110125,1,8,0:0:0:0:
256,192,110210,1,0,0:0:0:0:
256,192,110382,1,8,0:0:0:0:
256,192,110468,1,0,0:0:0:0:
256,192,110553,1,0,0:0:0:0:
256,192,110639,1,8,0:0:0:0:
256,192,110725,1,8,0:0:0:0:
256,192,110896,1,0,0:0:0:0:
256,192,111068,1,8,0:0:0:0:
256,192,111153,1,0,0:0:0:0:
256,192,111325,1,0,0:0:0:0:
256,192,111410,1,8,0:0:0:0:
256,192,111496,1,0,0:0:0:0:
256,192,111582,1,8,0:0:0:0:
256,192,111668,1,8,0:0:0:0:
256,192,111753,1,0,0:0:0:0:
256,192,111839,1,0,0:0:0:0:
256,192,112010,1,0,0:0:0:0:
256,192,112096,1,8,0:0:0:0:
256,192,112268,1,0,0:0:0:0:
256,192,112439,1,8,0:0:0:0:
256,192,112525,1,8,0:0:0:0:
256,192,112696,1,0,0:0:0:0:
256,192,112782,1,8,0:0:0:0:
256,192,112868,1,0,0:0:0:0:
256,192,112953,1,8,0:0:0:0:
256,192,113125,1,4,0:0:0:0:
256,192,113296,1,0,0:0:0:0:
256,192,113382,1,8,0:0:0:0:
256,192,113468,1,8,0:0:0:0:
256,192,113639,1,0,0:0:0:0:
256,192,113725,1,0,0:0:0:0:
256,192,113810,1,8,0:0:0:0:
256,192,113896,1,0,0:0:0:0:
256,192,114068,1,0,0:0:0:0:
256,192,114153,1,8,0:0:0:0:
256,192,114325,1,8,0:0:0:0:
256,192,114496,1,4,0:0:0:0:
256,192,114668,1,0,0:0:0:0:
256,192,114753,1,8,0:0:0:0:
256,192,114839,1,8,0:0:0:0:
256,192,114925,1,0,0:0:0:0:
256,192,115010,1,8,0:0:0:0:
256,192,115182,1,4,0:0:0:0:
256,192,115353,1,8,0:0:0:0:
256,192,115439,1,0,0:0:0:0:
256,192,115525,1,8,0:0:0:0:
256,192,115696,1,8,0:0:0:0:
256,192,115868,1,4,0:0:0:0:
256,192,116553,1,0,0:0:0:0:
256,192,116668,1,0,0:0:0:0:
256,192,116782,1,0,0:0:0:0:
256,192,116896,1,12,0:0:0:0:
194,171,117239,5,4,0:0:0:0:
102,148,117496,1,0,0:0:0:0:
225,176,117582,1,8,0:0:0:0:
102,148,117753,1,0,0:0:0:0:
102,148,117839,1,0,0:0:0:0:
102,148,117925,1,8,0:0:0:0:
102,148,118010,1,0,0:0:0:0:
101,153,118182,1,0,0:0:0:0:
225,176,118268,1,8,0:0:0:0:
108,158,118439,1,8,0:0:0:0:
108,158,118525,1,8,0:0:0:0:
101,153,118610,1,0,0:0:0:0:
177,143,118782,1,0,0:0:0:0:
177,143,118868,1,8,0:0:0:0:
177,143,118953,1,8,0:0:0:0:
177,143,119039,1,0,0:0:0:0:
135,117,119125,1,8,0:0:0:0:
135,117,119296,1,0,0:0:0:0:
201,143,119468,1,12,0:0:0:0:
201,143,119639,1,12,0:0:0:0:
108,158,119810,1,0,0:0:0:0:
177,143,119896,1,8,0:0:0:0:
177,143,119982,1,0,0:0:0:0:
108,158,120153,1,0,0:0:0:0:
176,143,120239,1,0,0:0:0:0:
201,143,120325,1,8,0:0:0:0:
177,72,120496,1,8,0:0:0:0:
108,158,120582,1,8,0:0:0:0:
108,158,120668,1,0,0:0:0:0:
177,143,120753,1,8,0:0:0:0:
108,158,120839,1,0,0:0:0:0:
201,143,121010,1,8,0:0:0:0:
108,158,121182,1,0,0:0:0:0:
108,158,121268,1,0,0:0:0:0:
108,158,121353,1,8,0:0:0:0:
108,158,121439,1,8,0:0:0:0:
108,158,121525,1,0,0:0:0:0:
169,122,121610,1,0,0:0:0:0:
201,143,121696,1,8,0:0:0:0:
184,79,121868,1,8,0:0:0:0:
184,178,121953,1,8,0:0:0:0:
108,158,122039,1,0,0:0:0:0:
214,146,122210,1,8,0:0:0:0:
170,69,122296,1,0,0:0:0:0:
201,143,122382,1,8,0:0:0:0:
174,110,122553,1,0,0:0:0:0:
177,72,122725,1,8,0:0:0:0:
176,125,122982,1,0,0:0:0:0:
201,143,123068,1,8,0:0:0:0:
176,125,123239,1,0,0:0:0:0:
176,125,123325,1,0,0:0:0:0:
176,125,123410,1,8,0:0:0:0:
203,128,123496,1,0,0:0:0:0:
176,125,123668,1,0,0:0:0:0:
201,143,123753,1,8,0:0:0:0:
176,125,123839,1,8,0:0:0:0:
176,125,123925,1,0,0:0:0:0:
176,178,124096,1,8,0:0:0:0:
176,125,124182,1,8,0:0:0:0:
176,125,124268,1,0,0:0:0:0:
176,125,124353,1,0,0:0:0:0:
201,143,124439,1,8,0:0:0:0:
176,125,124525,1,0,0:0:0:0:
176,125,124610,1,8,0:0:0:0:
176,125,124782,1,0,0:0:0:0:
217,82,124953,1,12,0:0:0:0:
217,82,125125,1,12,0:0:0:0:
181,82,125296,1,0,0:0:0:0:
174,110,125382,1,8,0:0:0:0:
174,110,125468,1,8,0:0:0:0:
174,110,125553,1,8,0:0:0:0:
180,90,125639,1,0,0:0:0:0:
217,82,125810,1,8,0:0:0:0:
180,90,125982,1,8,0:0:0:0:
141,141,126068,1,8,0:0:0:0:
180,90,126153,1,0,0:0:0:0:
186,85,126239,1,8,0:0:0:0:
180,92,126325,1,0,0:0:0:0:
180,92,126410,1,0,0:0:0:0:
217,82,126496,1,8,0:0:0:0:
182,67,126582,1,8,0:0:0:0:
180,90,126668,1,8,0:0:0:0:
217,82,126839,1,4,0:0:0:0:
217,82,127010,1,4,0:0:0:0:
217,82,127182,1,12,0:0:0:0:
217,82,127353,1,12,0:0:0:0:
141,141,127696,1,0,0:0:0:0:
141,141,127868,1,12,0:0:0:0:
141,141,128210,1,0,0:0:0:0:
141,141,128296,1,0,0:0:0:0:
196,145,128553,1,12,0:0:0:0:
102,148,128725,1,0,0:0:0:0:
102,148,128810,1,0,0:0:0:0:
102,148,128896,1,8,0:0:0:0:
102,148,128982,1,0,0:0:0:0:
101,153,129153,1,0,0:0:0:0:
225,176,129239,1,8,0:0:0:0:
163,157,129325,1,0,0:0:0:0:
108,158,129410,1,8,0:0:0:0:
101,153,129582,1,0,0:0:0:0:
156,57,129753,1,0,0:0:0:0:
156,57,129839,1,8,0:0:0:0:
225,176,129925,1,8,0:0:0:0:
182,121,130010,1,0,0:0:0:0:
135,117,130096,1,8,0:0:0:0:
135,117,130182,1,8,0:0:0:0:
135,117,130268,1,0,0:0:0:0:
201,143,130439,1,12,0:0:0:0:
201,143,130610,1,12,0:0:0:0:
108,158,130782,1,0,0:0:0:0:
108,158,130868,1,8,0:0:0:0:
108,158,130953,1,0,0:0:0:0:
108,158,131125,1,0,0:0:0:0:
108,158,131210,1,0,0:0:0:0:
201,143,131296,1,8,0:0:0:0:
108,158,131468,1,8,0:0:0:0:
108,158,131553,1,8,0:0:0:0:
108,158,131639,1,0,0:0:0:0:
108,158,131725,1,8,0:0:0:0:
108,158,131810,1,0,0:0:0:0:
201,143,131982,1,8,0:0:0:0:
108,158,132153,1,0,0:0:0:0:
108,158,132239,1,0,0:0:0:0:
108,158,132325,1,8,0:0:0:0:
108,158,132410,1,8,0:0:0:0:
108,158,132496,1,0,0:0:0:0:
169,122,132582,1,0,0:0:0:0:
201,143,132668,1,8,0:0:0:0:
184,79,132839,1,8,0:0:0:0:
196,106,132925,1,8,0:0:0:0:
196,106,133010,1,0,0:0:0:0:
196,106,133182,1,8,0:0:0:0:
143,138,133268,1,0,0:0:0:0:
196,106,133353,1,8,0:0:0:0:
143,138,133525,1,8,0:0:0:0:
143,138,133696,1,4,0:0:0:0:
131,120,133868,1,0,0:0:0:0:
143,138,133953,1,0,0:0:0:0:
196,106,134039,1,8,0:0:0:0:
131,120,134210,1,8,0:0:0:0:
131,120,134296,1,8,0:0:0:0:
143,138,134382,1,0,0:0:0:0:
131,117,134468,1,8,0:0:0:0:
143,138,134553,1,0,0:0:0:0:
220,110,134639,1,0,0:0:0:0:
196,106,134725,1,8,0:0:0:0:
143,138,134896,1,8,0:0:0:0:
143,138,135068,1,4,0:0:0:0:
143,138,135239,1,0,0:0:0:0:
173,70,135325,1,0,0:0:0:0:
196,106,135410,1,8,0:0:0:0:
176,178,135582,1,0,0:0:0:0:
220,110,135668,1,8,0:0:0:0:
144,133,135753,1,0,0:0:0:0:
144,133,135839,1,0,0:0:0:0:
196,106,135925,1,8,0:0:0:0:
144,133,136010,1,0,0:0:0:0:
196,106,136096,1,8,0:0:0:0:
144,133,136268,1,8,0:0:0:0:
129,205,136439,1,4,0:0:0:0:
172,44,136696,1,0,0:0:0:0:
196,106,136782,1,8,0:0:0:0:
176,60,136953,1,8,0:0:0:0:
192,86,137125,1,4,0:0:0:0:
192,86,137296,1,0,0:0:0:0:
179,71,137382,1,0,0:0:0:0:
196,106,137468,1,8,0:0:0:0:
219,110,137553,1,8,0:0:0:0:
163,64,137639,1,8,0:0:0:0:
133,116,137810,1,4,0:0:0:0:
189,72,137982,1,0,0:0:0:0:
189,72,138068,1,8,0:0:0:0:
189,72,138239,1,0,0:0:0:0:
189,72,138325,1,8,0:0:0:0:
134,168,138496,1,8,0:0:0:0:
189,73,138582,1,8,0:0:0:0:
189,73,138668,1,0,0:0:0:0:
189,73,138753,1,0,0:0:0:0:
161,107,138839,1,8,0:0:0:0:
161,107,138896,1,0,0:0:0:0:
161,107,138953,1,0,0:0:0:0:
160,115,139010,1,8,0:0:0:0:
157,136,139182,1,4,0:0:0:0:
156,111,139525,1,8,0:0:0:0:
156,111,139868,1,8,0:0:0:0:
156,111,140210,1,8,0:0:0:0:
181,80,140553,1,4,0:0:0:0:
156,111,140896,1,8,0:0:0:0:
156,111,141239,1,8,0:0:0:0:
156,111,141582,1,8,0:0:0:0:
210,148,141925,1,0,0:0:0:0:
189,72,142096,1,8,0:0:0:0:
189,72,142268,1,0,0:0:0:0:
189,72,142439,1,8,0:0:0:0:
189,77,142525,1,8,0:0:0:0:
189,72,142610,1,0,0:0:0:0:
189,72,142696,1,0,0:0:0:0:
189,72,142782,1,8,0:0:0:0:
189,72,142868,1,8,0:0:0:0:
189,77,142953,1,0,0:0:0:0:
165,124,143125,1,12,0:0:0:0:
189,77,144153,1,0,0:0:0:0:
179,80,144210,1,0,0:0:0:0:
179,80,144268,1,0,0:0:0:0:
179,80,144325,1,8,0:0:0:0:
355,150,144668,1,4,0:0:0:0:
267,172,145010,1,8,0:0:0:0:
269,200,145182,1,0,0:0:0:0:
269,200,145268,1,8,0:0:0:0:
163,167,145439,1,8,0:0:0:0:
163,167,145525,1,0,0:0:0:0:
163,167,145610,1,0,0:0:0:0:
163,167,145696,1,8,0:0:0:0:
163,167,145782,1,0,0:0:0:0:
163,167,145868,1,8,0:0:0:0:
163,167,146039,1,0,0:0:0:0:
163,167,146210,1,8,0:0:0:0:
374,221,146296,1,8,0:0:0:0:
163,167,146468,1,0,0:0:0:0:
163,167,146553,1,8,0:0:0:0:
374,221,146639,1,8,0:0:0:0:
374,221,146725,1,0,0:0:0:0:
374,221,146896,1,0,0:0:0:0:
374,221,146982,1,0,0:0:0:0:
374,221,147068,1,8,0:0:0:0:
374,221,147239,1,8,0:0:0:0:
374,221,147410,1,0,0:0:0:0:
374,221,147582,1,8,0:0:0:0:
326,155,147668,1,0,0:0:0:0:
326,155,147753,1,8,0:0:0:0:
326,155,147925,1,8,0:0:0:0:
326,155,148010,1,8,0:0:0:0:
326,155,148096,1,0,0:0:0:0:
326,155,148182,1,8,0:0:0:0:
326,155,148268,1,0,0:0:0:0:
326,155,148353,1,0,0:0:0:0:
326,155,148439,1,8,0:0:0:0:
326,155,148610,1,8,0:0:0:0:
326,155,148782,1,0,0:0:0:0:
208,125,148953,1,0,0:0:0:0:
208,125,149039,1,8,0:0:0:0:
208,125,149210,1,0,0:0:0:0:
208,125,149296,1,8,0:0:0:0:
208,125,149382,1,8,0:0:0:0:
208,125,149468,1,0,0:0:0:0:
208,125,149639,1,0,0:0:0:0:
208,125,149725,1,0,0:0:0:0:
208,125,149810,1,8,0:0:0:0:
208,125,149982,1,8,0:0:0:0:
208,125,150153,1,0,0:0:0:0:
292,203,150325,1,8,0:0:0:0:
292,203,150410,1,0,0:0:0:0:
292,203,150496,1,8,0:0:0:0:
292,203,150668,1,8,0:0:0:0:
299,207,150753,1,0,0:0:0:0:
292,203,150839,1,0,0:0:0:0:
292,203,150925,1,8,0:0:0:0:
292,203,151010,1,0,0:0:0:0:
292,203,151096,1,0,0:0:0:0:
298,207,151182,1,8,0:0:0:0:
244,91,151353,1,8,0:0:0:0:
244,91,151439,1,8,0:0:0:0:
244,91,151525,1,0,0:0:0:0:
244,91,151696,1,8,0:0:0:0:
342,185,151782,1,0,0:0:0:0:
320,191,151868,1,8,0:0:0:0:
342,185,151953,1,8,0:0:0:0:
320,191,152039,1,0,0:0:0:0:
320,191,152125,1,8,0:0:0:0:
320,191,152296,1,0,0:0:0:0:
342,185,152382,1,0,0:0:0:0:
342,185,152468,1,0,0:0:0:0:
342,185,152553,1,8,0:0:0:0:
342,185,152725,1,8,0:0:0:0:
410,225,152896,1,0,0:0:0:0:
410,225,153068,1,8,0:0:0:0:
410,225,153153,1,0,0:0:0:0:
410,225,153239,1,8,0:0:0:0:
410,225,153410,1,8,0:0:0:0:
410,225,153496,1,8,0:0:0:0:
410,225,153582,1,0,0:0:0:0:
410,225,153668,1,0,0:0:0:0:
410,225,153753,1,8,0:0:0:0:
410,225,153839,1,0,0:0:0:0:
410,225,153925,1,8,0:0:0:0:
410,225,154096,1,8,0:0:0:0:
231,173,154268,1,4,0:0:0:0:
231,173,154439,1,4,0:0:0:0:
231,173,154610,1,12,0:0:0:0:
231,173,154782,1,12,0:0:0:0:
256,147,155125,1,0,0:0:0:0:
278,233,155296,1,12,0:0:0:0:
278,233,155639,1,0,0:0:0:0:
278,233,155725,1,0,0:0:0:0:
267,172,155982,1,12,0:0:0:0:
269,200,156153,1,0,0:0:0:0:
269,200,156239,1,8,0:0:0:0:
163,167,156410,1,8,0:0:0:0:
163,167,156496,1,0,0:0:0:0:
163,167,156582,1,0,0:0:0:0:
163,167,156668,1,8,0:0:0:0:
163,167,156753,1,0,0:0:0:0:
163,167,156839,1,8,0:0:0:0:
163,167,157010,1,0,0:0:0:0:
163,167,157182,1,8,0:0:0:0:
374,221,157268,1,8,0:0:0:0:
163,167,157439,1,0,0:0:0:0:
163,167,157525,1,8,0:0:0:0:
374,221,157610,1,8,0:0:0:0:
374,221,157696,1,0,0:0:0:0:
374,221,157868,1,0,0:0:0:0:
374,221,157953,1,0,0:0:0:0:
374,221,158039,1,8,0:0:0:0:
374,221,158210,1,8,0:0:0:0:
374,221,158382,1,0,0:0:0:0:
374,221,158553,1,8,0:0:0:0:
326,155,158639,1,0,0:0:0:0:
326,155,158725,1,8,0:0:0:0:
326,155,158896,1,8,0:0:0:0:
326,155,158982,1,8,0:0:0:0:
326,155,159068,1,0,0:0:0:0:
326,155,159153,1,8,0:0:0:0:
326,155,159239,1,0,0:0:0:0:
326,155,159325,1,0,0:0:0:0:
326,155,159410,1,8,0:0:0:0:
326,155,159582,1,8,0:0:0:0:
326,155,159753,1,0,0:0:0:0:
208,125,159925,1,0,0:0:0:0:
208,125,160010,5,8,0:0:0:0:
208,125,160182,1,0,0:0:0:0:
208,125,160268,1,8,0:0:0:0:
208,125,160353,1,8,0:0:0:0:
208,125,160439,1,0,0:0:0:0:
208,125,160610,1,0,0:0:0:0:
208,125,160696,1,0,0:0:0:0:
208,125,160782,1,8,0:0:0:0:
208,125,160953,1,8,0:0:0:0:
197,299,161125,5,4,0:0:0:0:
363,244,161468,1,8,0:0:0:0:
178,244,161639,1,0,0:0:0:0:
178,244,161725,1,8,0:0:0:0:
171,244,161896,1,8,0:0:0:0:
171,244,161982,1,0,0:0:0:0:
171,244,162068,1,0,0:0:0:0:
171,244,162153,1,8,0:0:0:0:
171,244,162325,1,8,0:0:0:0:
197,299,162496,1,4,0:0:0:0:
171,244,162839,1,8,0:0:0:0:
171,244,163010,1,0,0:0:0:0:
220,213,163096,1,8,0:0:0:0:
182,245,163268,1,0,0:0:0:0:
220,213,163353,1,0,0:0:0:0:
220,213,163439,1,8,0:0:0:0:
180,245,163525,1,0,0:0:0:0:
180,245,163610,1,8,0:0:0:0:
171,244,163696,1,8,0:0:0:0:
257,219,163868,5,4,0:0:0:0:
228,304,164039,1,8,0:0:0:0:
228,304,164125,1,8,0:0:0:0:
228,304,164210,1,0,0:0:0:0:
228,304,164382,1,8,0:0:0:0:
216,302,164468,1,8,0:0:0:0:
216,302,164553,1,0,0:0:0:0:
216,302,164639,1,0,0:0:0:0:
216,302,164725,1,8,0:0:0:0:
216,302,164810,1,0,0:0:0:0:
216,302,164896,1,8,0:0:0:0:
216,302,165068,1,8,0:0:0:0:
197,299,165239,5,4,0:0:0:0:
197,299,165496,1,4,0:0:0:0:
197,299,165753,1,4,0:0:0:0:
197,299,165925,1,12,0:0:0:0:
197,299,166268,1,12,0:0:0:0:
256,192,166610,5,4,0:0:0:0:
256,192,166953,1,8,0:0:0:0:
256,192,167125,1,0,0:0:0:0:
256,192,167210,1,0,0:0:0:0:
256,192,167382,1,8,0:0:0:0:
256,192,167468,1,0,0:0:0:0:
256,192,167553,1,0,0:0:0:0:
256,192,167639,1,8,0:0:0:0:
256,192,167810,1,8,0:0:0:0:
256,192,167896,1,8,0:0:0:0:
256,192,167982,1,0,0:0:0:0:
256,192,168153,1,0,0:0:0:0:
256,192,168325,1,8,0:0:0:0:
256,192,168496,1,0,0:0:0:0:
256,192,168582,1,0,0:0:0:0:
256,192,168668,1,8,0:0:0:0:
256,192,168753,1,8,0:0:0:0:
256,192,168839,1,0,0:0:0:0:
256,192,169010,1,8,0:0:0:0:
256,192,169182,1,0,0:0:0:0:
256,192,169268,1,0,0:0:0:0:
256,192,169353,1,8,0:0:0:0:
256,192,169525,1,0,0:0:0:0:
256,192,169696,1,8,0:0:0:0:
256,192,169868,1,0,0:0:0:0:
256,192,169953,1,8,0:0:0:0:
256,192,170125,1,8,0:0:0:0:
256,192,170210,1,0,0:0:0:0:
256,192,170296,1,0,0:0:0:0:
256,192,170382,1,8,0:0:0:0:
256,192,170553,1,0,0:0:0:0:
256,192,170639,1,8,0:0:0:0:
256,192,170725,1,0,0:0:0:0:
256,192,170896,1,0,0:0:0:0:
256,192,171068,1,8,0:0:0:0:
256,192,171239,1,0,0:0:0:0:
256,192,171325,1,8,0:0:0:0:
256,192,171410,1,8,0:0:0:0:
256,192,171496,1,8,0:0:0:0:
256,192,171582,1,0,0:0:0:0:
256,192,171753,1,8,0:0:0:0:
256,192,171925,1,8,0:0:0:0:
256,192,172096,1,0,0:0:0:0:
256,192,172439,1,8,0:0:0:0:
256,192,172610,1,0,0:0:0:0:
256,192,172696,1,0,0:0:0:0:
256,192,172868,1,8,0:0:0:0:
256,192,172953,1,0,0:0:0:0:
256,192,173039,1,0,0:0:0:0:
256,192,173125,1,8,0:0:0:0:
256,192,173296,1,8,0:0:0:0:
256,192,173468,1,0,0:0:0:0:
256,192,173639,1,0,0:0:0:0:
256,192,173725,1,0,0:0:0:0:
256,192,173810,1,8,0:0:0:0:
256,192,173982,1,0,0:0:0:0:
256,192,174068,1,8,0:0:0:0:
256,192,174153,1,8,0:0:0:0:
256,192,174239,1,0,0:0:0:0:
256,192,174325,1,0,0:0:0:0:
256,192,174496,1,8,0:0:0:0:
256,192,174668,1,0,0:0:0:0:
256,192,174753,1,8,0:0:0:0:
256,192,174839,1,0,0:0:0:0:
256,192,175010,1,0,0:0:0:0:
256,192,175182,1,8,0:0:0:0:
256,192,175268,1,8,0:0:0:0:
256,192,175353,1,0,0:0:0:0:
256,192,175439,1,8,0:0:0:0:
256,192,175610,1,8,0:0:0:0:
256,192,175696,1,0,0:0:0:0:
256,192,175782,1,0,0:0:0:0:
256,192,175868,1,8,0:0:0:0:
256,192,176039,1,8,0:0:0:0:
256,192,176210,1,4,0:0:0:0:
256,192,176468,1,0,0:0:0:0:
256,192,176639,1,8,0:0:0:0:
256,192,176725,1,0,0:0:0:0:
256,192,176810,1,0,0:0:0:0:
256,192,176896,1,8,0:0:0:0:
256,192,176982,1,8,0:0:0:0:
256,192,177068,1,0,0:0:0:0:
256,192,177239,1,12,0:0:0:0:
256,192,177582,1,0,0:0:0:0:
256,192,177668,1,0,0:0:0:0:
256,192,177925,1,12,0:0:0:0:
256,192,178182,1,0,0:0:0:0:
256,192,178268,1,8,0:0:0:0:
256,192,178439,1,0,0:0:0:0:
256,192,178525,1,0,0:0:0:0:
256,192,178610,1,8,0:0:0:0:
256,192,178782,1,8,0:0:0:0:
256,192,178868,1,8,0:0:0:0:
256,192,178953,1,0,0:0:0:0:
256,192,179125,1,0,0:0:0:0:
256,192,179296,1,8,0:0:0:0:
256,192,179468,1,0,0:0:0:0:
256,192,179553,1,0,0:0:0:0:
256,192,179639,1,8,0:0:0:0:
256,192,179725,1,8,0:0:0:0:
256,192,179810,1,0,0:0:0:0:
256,192,179982,1,8,0:0:0:0:
256,192,180153,1,0,0:0:0:0:
256,192,180239,1,0,0:0:0:0:
256,192,180325,1,8,0:0:0:0:
256,192,180496,1,0,0:0:0:0:
256,192,180668,1,8,0:0:0:0:
256,192,180753,1,8,0:0:0:0:
256,192,180839,1,0,0:0:0:0:
256,192,180925,1,8,0:0:0:0:
256,192,181096,1,8,0:0:0:0:
256,192,181182,1,0,0:0:0:0:
256,192,181268,1,0,0:0:0:0:
256,192,181353,1,8,0:0:0:0:
256,192,181525,1,0,0:0:0:0:
256,192,181610,1,8,0:0:0:0:
256,192,181696,1,0,0:0:0:0:
256,192,181868,1,0,0:0:0:0:
256,192,182039,1,8,0:0:0:0:
256,192,182210,1,0,0:0:0:0:
256,192,182296,1,8,0:0:0:0:
256,192,182382,1,8,0:0:0:0:
256,192,182468,1,8,0:0:0:0:
256,192,182553,1,0,0:0:0:0:
256,192,182639,1,0,0:0:0:0:
256,192,182725,1,8,0:0:0:0:
256,192,182896,1,8,0:0:0:0:
256,192,183068,1,4,0:0:0:0:
256,192,183410,1,8,0:0:0:0:
256,192,184096,1,8,0:0:0:0:
256,192,184439,1,4,0:0:0:0:
256,192,184782,1,8,0:0:0:0:
256,192,184953,1,0,0:0:0:0:
256,192,185039,1,8,0:0:0:0:
256,192,185210,1,8,0:0:0:0:
256,192,185296,1,0,0:0:0:0:
256,192,185468,1,8,0:0:0:0:
256,192,185639,1,8,0:0:0:0:
256,192,185810,1,4,0:0:0:0:
256,192,185982,1,0,0:0:0:0:
256,192,186068,1,0,0:0:0:0:
256,192,186153,1,8,0:0:0:0:
256,192,186325,1,8,0:0:0:0:
256,192,186496,1,4,0:0:0:0:
256,192,186668,1,8,0:0:0:0:
256,192,186753,1,0,0:0:0:0:
256,192,186839,1,8,0:0:0:0:
256,192,187010,1,8,0:0:0:0:
256,192,187182,1,4,0:0:0:0:
256,192,188039,1,0,0:0:0:0:
256,192,188210,1,12,0:0:0:0:
166,203,188553,5,4,0:0:0:0:
166,203,188810,1,8,0:0:0:0:
166,203,188896,1,0,0:0:0:0:
166,203,189068,1,8,0:0:0:0:
166,203,189239,1,0,0:0:0:0:
166,203,189325,1,0,0:0:0:0:
166,203,189410,1,8,0:0:0:0:
166,203,189582,1,0,0:0:0:0:
151,175,189753,1,8,0:0:0:0:
166,203,189925,1,0,0:0:0:0:
171,97,190096,1,8,0:0:0:0:
151,175,190182,1,8,0:0:0:0:
166,203,190268,1,0,0:0:0:0:
151,175,190439,1,8,0:0:0:0:
166,203,190610,1,0,0:0:0:0:
151,175,190696,1,8,0:0:0:0:
151,175,190868,1,8,0:0:0:0:
166,203,190953,1,0,0:0:0:0:
151,175,191125,1,8,0:0:0:0:
166,203,191296,1,0,0:0:0:0:
171,97,191468,1,0,0:0:0:0:
151,175,191553,1,8,0:0:0:0:
166,203,191639,1,0,0:0:0:0:
151,175,191810,1,8,0:0:0:0:
166,203,191982,1,0,0:0:0:0:
151,175,192068,1,0,0:0:0:0:
151,175,192153,1,8,0:0:0:0:
151,175,192239,1,8,0:0:0:0:
166,203,192325,1,0,0:0:0:0:
151,175,192496,1,8,0:0:0:0:
166,203,192668,1,0,0:0:0:0:
151,175,192839,1,8,0:0:0:0:
151,175,192925,1,8,0:0:0:0:
166,203,193010,1,0,0:0:0:0:
151,175,193182,1,8,0:0:0:0:
151,175,193268,1,8,0:0:0:0:
166,203,193353,1,0,0:0:0:0:
166,203,193525,1,8,0:0:0:0:
151,175,193610,1,8,0:0:0:0:
189,62,194039,1,0,0:0:0:0:
189,62,194210,1,0,0:0:0:0:
166,203,194296,1,8,0:0:0:0:
166,203,194382,1,0,0:0:0:0:
166,203,194553,1,8,0:0:0:0:
166,203,194725,1,0,0:0:0:0:
166,203,194810,1,0,0:0:0:0:
166,203,194896,1,8,0:0:0:0:
189,62,194982,1,8,0:0:0:0:
166,203,195068,1,0,0:0:0:0:
151,175,195239,1,8,0:0:0:0:
166,203,195410,1,0,0:0:0:0:
171,97,195582,1,8,0:0:0:0:
151,175,195668,1,8,0:0:0:0:
166,203,195753,1,0,0:0:0:0:
151,175,195925,1,8,0:0:0:0:
166,203,196096,1,0,0:0:0:0:
178,34,196182,1,0,0:0:0:0:
178,34,196268,1,8,0:0:0:0:
166,203,196439,1,0,0:0:0:0:
151,175,196610,1,8,0:0:0:0:
159,193,196696,1,0,0:0:0:0:
181,42,196868,1,0,0:0:0:0:
178,67,196953,1,8,0:0:0:0:
166,203,197125,1,0,0:0:0:0:
151,175,197296,1,8,0:0:0:0:
179,63,197382,1,0,0:0:0:0:
166,203,197468,1,0,0:0:0:0:
151,175,197553,1,0,0:0:0:0:
151,175,197639,1,8,0:0:0:0:
151,175,197725,1,8,0:0:0:0:
166,203,197810,1,0,0:0:0:0:
181,78,197896,1,0,0:0:0:0:
151,175,197982,1,8,0:0:0:0:
230,135,198153,1,4,0:0:0:0:
230,135,198325,1,8,0:0:0:0:
134,111,198382,1,0,0:0:0:0:
134,111,198439,1,0,0:0:0:0:
134,111,198496,1,8,0:0:0:0:
134,111,198668,1,8,0:0:0:0:
134,111,198725,1,0,0:0:0:0:
134,111,198782,1,0,0:0:0:0:
161,87,198839,1,8,0:0:0:0:
161,87,199010,1,0,0:0:0:0:
161,87,199182,1,12,0:0:0:0:
212,102,199525,1,4,0:0:0:0:
204,149,199696,1,0,0:0:0:0:
212,102,199868,1,8,0:0:0:0:
172,74,200039,1,0,0:0:0:0:
172,74,200125,1,0,0:0:0:0:
172,74,200210,1,8,0:0:0:0:
205,149,200382,1,0,0:0:0:0:
212,102,200553,1,8,0:0:0:0:
169,107,200725,1,0,0:0:0:0:
169,107,200810,1,8,0:0:0:0:
203,125,200896,1,0,0:0:0:0:
168,79,201068,1,8,0:0:0:0:
168,79,201153,1,0,0:0:0:0:
168,79,201239,1,8,0:0:0:0:
164,155,201410,1,0,0:0:0:0:
164,155,201582,1,8,0:0:0:0:
184,77,201753,1,8,0:0:0:0:
178,97,201839,1,0,0:0:0:0:
212,102,201925,1,8,0:0:0:0:
168,79,202010,1,8,0:0:0:0:
168,79,202096,1,0,0:0:0:0:
180,103,202268,1,8,0:0:0:0:
178,97,202525,1,0,0:0:0:0:
212,102,202610,1,8,0:0:0:0:
178,76,202782,1,8,0:0:0:0:
178,76,202953,1,0,0:0:0:0:
179,67,203125,1,0,0:0:0:0:
179,67,203210,1,8,0:0:0:0:
212,102,203296,1,8,0:0:0:0:
179,67,203382,1,0,0:0:0:0:
179,67,203468,1,8,0:0:0:0:
179,67,203639,1,0,0:0:0:0:
179,67,203810,1,0,0:0:0:0:
179,67,203896,1,0,0:0:0:0:
212,102,203982,1,8,0:0:0:0:
179,67,204068,1,8,0:0:0:0:
179,67,204153,1,0,0:0:0:0:
179,67,204239,1,8,0:0:0:0:
179,67,204325,1,0,0:0:0:0:
179,67,204496,1,0,0:0:0:0:
184,92,204582,1,8,0:0:0:0:
184,92,205010,1,0,0:0:0:0:
178,76,205182,1,0,0:0:0:0:
184,92,205353,1,8,0:0:0:0:
178,76,205525,1,0,0:0:0:0:
178,76,205610,1,0,0:0:0:0:
178,76,205696,1,8,0:0:0:0:
179,206,205782,1,0,0:0:0:0:
178,76,205868,1,0,0:0:0:0:
184,92,206039,1,8,0:0:0:0:
169,107,206210,1,0,0:0:0:0:
178,76,206296,1,8,0:0:0:0:
178,77,206382,1,0,0:0:0:0:
178,81,206553,1,8,0:0:0:0:
178,81,206639,1,0,0:0:0:0:
184,92,206725,1,8,0:0:0:0:
178,82,206896,1,0,0:0:0:0:
154,70,207068,1,8,0:0:0:0:
184,92,207239,1,8,0:0:0:0:
175,82,207325,1,0,0:0:0:0:
184,92,207410,1,8,0:0:0:0:
171,102,207496,1,8,0:0:0:0:
176,107,207582,1,0,0:0:0:0:
176,207,207668,1,0,0:0:0:0:
180,103,207753,1,8,0:0:0:0:
176,107,208010,1,0,0:0:0:0:
184,92,208096,1,8,0:0:0:0:
181,85,208268,1,8,0:0:0:0:
176,107,208439,1,0,0:0:0:0:
180,103,208525,1,0,0:0:0:0:
176,107,208610,1,0,0:0:0:0:
176,107,208696,1,0,0:0:0:0:
184,92,208782,1,8,0:0:0:0:
176,107,208953,1,8,0:0:0:0:
191,92,209125,1,4,0:0:0:0:
191,92,209468,1,8,0:0:0:0:
191,92,209810,1,8,0:0:0:0:
191,92,209982,1,0,0:0:0:0:
184,92,210153,1,12,0:0:0:0:
293,133,210496,1,4,0:0:0:0:
293,133,210839,1,0,0:0:0:0:
293,133,211182,1,8,0:0:0:0:
293,133,211525,1,0,0:0:0:0:
293,133,211868,1,0,0:0:0:0:
293,133,212210,1,0,0:0:0:0:
293,133,212553,1,8,0:0:0:0:
293,133,212896,1,8,0:0:0:0:
293,133,213239,1,0,0:0:0:0:
293,133,213582,1,8,0:0:0:0:
309,104,213925,1,8,0:0:0:0:
293,133,214268,1,8,0:0:0:0:
256,192,214610,12,0,215982,0:0:0:0:
235,161,216668,5,8,0:0:0:0:
235,161,216839,1,8,0:0:0:0:
358,148,216896,1,8,0:0:0:0:
358,148,216953,1,8,0:0:0:0:
358,148,217010,1,0,0:0:0:0:
358,148,217182,1,8,0:0:0:0:
358,148,217353,1,4,0:0:0:0:
209,194,217610,1,8,0:0:0:0:
333,134,217696,1,0,0:0:0:0:
209,194,217868,1,8,0:0:0:0:
209,194,217953,1,8,0:0:0:0:
333,134,218039,1,0,0:0:0:0:
209,194,218125,1,0,0:0:0:0:
333,134,218296,1,0,0:0:0:0:
209,194,218382,1,8,0:0:0:0:
333,134,218553,1,0,0:0:0:0:
312,155,218725,1,4,0:0:0:0:
237,234,218982,1,8,0:0:0:0:
237,234,219068,1,0,0:0:0:0:
237,234,219153,1,0,0:0:0:0:
237,234,219239,1,8,0:0:0:0:
333,134,219410,1,0,0:0:0:0:
237,234,219496,1,0,0:0:0:0:
237,234,219582,1,8,0:0:0:0:
333,134,219668,1,0,0:0:0:0:
237,234,219753,1,8,0:0:0:0:
333,134,219925,1,0,0:0:0:0:
313,155,220096,1,4,0:0:0:0:
240,241,220353,1,8,0:0:0:0:
333,134,220439,1,0,0:0:0:0:
240,241,220610,1,8,0:0:0:0:
313,155,220782,1,4,0:0:0:0:
329,135,221039,1,0,0:0:0:0:
241,241,221125,1,8,0:0:0:0:
329,135,221296,1,0,0:0:0:0:
313,155,221468,1,4,0:0:0:0:
219,195,222839,5,0,0:0:0:0:
219,195,223010,1,0,0:0:0:0:
219,195,223096,1,0,0:0:0:0:
276,211,223182,1,8,0:0:0:0:
276,211,223353,1,8,0:0:0:0:
276,211,223439,1,8,0:0:0:0:
276,211,223525,1,0,0:0:0:0:
276,211,223610,1,8,0:0:0:0:
395,170,223696,1,0,0:0:0:0:
212,166,223782,1,0,0:0:0:0:
395,170,223868,1,8,0:0:0:0:
256,192,224210,5,4,0:0:0:0:
256,192,224468,1,0,0:0:0:0:
256,192,224553,1,8,0:0:0:0:
256,192,224725,1,0,0:0:0:0:
256,192,224810,1,0,0:0:0:0:
256,192,224896,1,8,0:0:0:0:
256,192,224982,1,0,0:0:0:0:
256,192,225153,1,0,0:0:0:0:
256,192,225239,1,8,0:0:0:0:
256,192,225410,1,0,0:0:0:0:
256,192,225496,1,0,0:0:0:0:
256,192,225582,1,8,0:0:0:0:
256,192,225753,1,0,0:0:0:0:
256,192,225839,1,8,0:0:0:0:
256,192,225925,1,8,0:0:0:0:
256,192,226010,1,0,0:0:0:0:
256,192,226096,1,8,0:0:0:0:
256,192,226182,1,8,0:0:0:0:
256,192,226268,1,0,0:0:0:0:
256,192,226439,1,12,0:0:0:0:
256,192,226610,1,12,0:0:0:0:
256,192,226782,1,0,0:0:0:0:
256,192,226868,1,8,0:0:0:0:
256,192,226953,1,0,0:0:0:0:
256,192,227125,1,0,0:0:0:0:
256,192,227296,1,8,0:0:0:0:
256,192,227468,1,8,0:0:0:0:
256,192,227553,1,8,0:0:0:0:
256,192,227639,1,0,0:0:0:0:
256,192,227810,1,0,0:0:0:0:
256,192,227982,1,8,0:0:0:0:
256,192,228153,1,0,0:0:0:0:
256,192,228239,1,8,0:0:0:0:
256,192,228410,1,8,0:0:0:0:
256,192,228496,1,0,0:0:0:0:
256,192,228582,1,0,0:0:0:0:
256,192,228668,1,8,0:0:0:0:
256,192,228839,1,8,0:0:0:0:
256,192,228925,1,8,0:0:0:0:
256,192,229010,1,0,0:0:0:0:
256,192,229182,1,0,0:0:0:0:
256,192,229268,1,0,0:0:0:0:
256,192,229353,1,8,0:0:0:0:
256,192,229439,1,0,0:0:0:0:
256,192,229525,1,8,0:0:0:0:
256,192,229610,1,8,0:0:0:0:
256,192,229696,1,0,0:0:0:0:
256,192,229953,1,0,0:0:0:0:
256,192,230039,1,8,0:0:0:0:
256,192,230210,1,0,0:0:0:0:
256,192,230296,1,0,0:0:0:0:
256,192,230382,1,8,0:0:0:0:
256,192,230468,1,8,0:0:0:0:
256,192,230639,1,0,0:0:0:0:
256,192,230725,1,8,0:0:0:0:
256,192,230896,1,0,0:0:0:0:
256,192,231068,1,8,0:0:0:0:
256,192,231153,1,8,0:0:0:0:
256,192,231239,1,0,0:0:0:0:
256,192,231325,1,0,0:0:0:0:
256,192,231410,1,8,0:0:0:0:
256,192,231496,1,0,0:0:0:0:
256,192,231582,1,8,0:0:0:0:
256,192,231668,1,8,0:0:0:0:
256,192,231753,1,0,0:0:0:0:
256,192,231925,1,12,0:0:0:0:
256,192,232096,1,12,0:0:0:0:
256,192,232268,1,0,0:0:0:0:
256,192,232353,1,0,0:0:0:0:
256,192,232439,1,8,0:0:0:0:
256,192,232610,1,0,0:0:0:0:
256,192,232782,1,8,0:0:0:0:
256,192,232953,1,8,0:0:0:0:
256,192,233039,1,8,0:0:0:0:
256,192,233125,1,0,0:0:0:0:
256,192,233210,1,8,0:0:0:0:
256,192,233296,1,0,0:0:0:0:
256,192,233382,1,0,0:0:0:0:
256,192,233468,1,8,0:0:0:0:
256,192,233639,1,8,0:0:0:0:
256,192,233810,1,4,0:0:0:0:
256,192,233982,1,4,0:0:0:0:
256,192,234153,1,12,0:0:0:0:
256,192,234325,1,12,0:0:0:0:
256,192,234668,1,0,0:0:0:0:
256,192,234839,1,12,0:0:0:0:
256,192,235182,1,0,0:0:0:0:
256,192,235268,1,0,0:0:0:0:
256,192,235525,1,12,0:0:0:0:
256,192,235696,1,0,0:0:0:0:
256,192,235868,1,8,0:0:0:0:
256,192,235953,1,0,0:0:0:0:
256,192,236125,1,0,0:0:0:0:
256,192,236210,1,8,0:0:0:0:
256,192,236382,1,0,0:0:0:0:
256,192,236468,1,0,0:0:0:0:
256,192,236553,1,8,0:0:0:0:
256,192,236639,1,0,0:0:0:0:
256,192,236810,1,0,0:0:0:0:
256,192,236896,1,8,0:0:0:0:
256,192,237068,1,8,0:0:0:0:
256,192,237153,1,8,0:0:0:0:
256,192,237239,1,0,0:0:0:0:
256,192,237325,1,0,0:0:0:0:
256,192,237410,1,8,0:0:0:0:
256,192,237496,1,0,0:0:0:0:
256,192,237582,1,8,0:0:0:0:
256,192,237753,1,0,0:0:0:0:
256,192,237839,1,0,0:0:0:0:
256,192,237925,1,8,0:0:0:0:
256,192,238096,1,0,0:0:0:0:
256,192,238268,1,8,0:0:0:0:
256,192,238439,1,8,0:0:0:0:
256,192,238525,1,8,0:0:0:0:
256,192,238610,1,0,0:0:0:0:
256,192,238782,1,0,0:0:0:0:
256,192,238953,1,8,0:0:0:0:
256,192,239125,1,0,0:0:0:0:
256,192,239210,1,8,0:0:0:0:
256,192,239382,1,8,0:0:0:0:
256,192,239468,1,0,0:0:0:0:
256,192,239553,1,0,0:0:0:0:
256,192,239639,1,8,0:0:0:0:
256,192,239810,1,0,0:0:0:0:
256,192,239896,1,8,0:0:0:0:
256,192,239982,1,0,0:0:0:0:
256,192,240153,1,0,0:0:0:0:
256,192,240325,1,12,0:0:0:0:
256,192,240668,1,4,0:0:0:0:
256,192,240839,1,0,0:0:0:0:
256,192,240925,1,0,0:0:0:0:
256,192,241010,1,8,0:0:0:0:
256,192,241182,1,8,0:0:0:0:
256,192,241353,1,0,0:0:0:0:
256,192,241525,1,8,0:0:0:0:
256,192,241610,1,0,0:0:0:0:
256,192,241696,1,8,0:0:0:0:
256,192,241868,1,8,0:0:0:0:
256,192,242039,1,4,0:0:0:0:
256,192,242210,1,8,0:0:0:0:
256,192,242296,1,0,0:0:0:0:
256,192,242382,1,8,0:0:0:0:
256,192,242468,1,8,0:0:0:0:
256,192,242553,1,0,0:0:0:0:
256,192,242639,1,0,0:0:0:0:
256,192,242725,1,8,0:0:0:0:
256,192,242896,1,0,0:0:0:0:
256,192,243068,1,8,0:0:0:0:
256,192,243153,1,8,0:0:0:0:
256,192,243239,1,8,0:0:0:0:
256,192,243410,1,4,0:0:0:0:
256,192,243668,1,0,0:0:0:0:
256,192,243753,1,8,0:0:0:0:
256,192,243925,1,8,0:0:0:0:
256,192,244096,1,4,0:0:0:0:
256,192,244268,1,0,0:0:0:0:
256,192,244353,1,0,0:0:0:0:
256,192,244439,1,8,0:0:0:0:
256,192,244610,1,8,0:0:0:0:
256,192,244782,1,4,0:0:0:0:
256,192,245468,1,0,0:0:0:0:
256,192,245810,1,8,0:0:0:0:
196,213,246153,5,4,0:0:0:0:
279,252,246325,1,0,0:0:0:0:
196,213,246496,1,8,0:0:0:0:
281,247,246668,1,0,0:0:0:0:
156,168,246753,1,0,0:0:0:0:
161,89,246839,1,8,0:0:0:0:
195,191,246925,1,0,0:0:0:0:
199,142,247010,1,0,0:0:0:0:
196,213,247182,1,8,0:0:0:0:
281,247,247353,1,8,0:0:0:0:
281,247,247439,1,8,0:0:0:0:
280,256,247525,1,0,0:0:0:0:
279,252,247696,1,0,0:0:0:0:
196,213,247868,1,8,0:0:0:0:
161,89,248039,1,0,0:0:0:0:
161,89,248125,1,8,0:0:0:0:
161,89,248210,1,0,0:0:0:0:
199,142,248296,1,0,0:0:0:0:
205,187,248382,1,8,0:0:0:0:
196,213,248553,1,8,0:0:0:0:
279,252,248725,1,8,0:0:0:0:
279,252,248810,1,8,0:0:0:0:
279,252,248896,1,0,0:0:0:0:
279,252,249068,1,0,0:0:0:0:
196,213,249239,1,8,0:0:0:0:
160,92,249410,1,0,0:0:0:0:
124,173,249496,1,0,0:0:0:0:
124,173,249582,1,8,0:0:0:0:
140,104,249668,1,8,0:0:0:0:
140,105,249753,1,0,0:0:0:0:
199,142,249839,1,0,0:0:0:0:
196,213,249925,1,8,0:0:0:0:
161,129,250096,1,0,0:0:0:0:
279,252,250182,1,8,0:0:0:0:
279,252,250268,1,0,0:0:0:0:
279,252,250439,1,0,0:0:0:0:
271,164,250525,1,0,0:0:0:0:
196,213,250610,1,8,0:0:0:0:
199,142,250782,1,8,0:0:0:0:
199,142,250953,1,0,0:0:0:0:
139,103,251125,1,8,0:0:0:0:
279,252,251210,1,0,0:0:0:0:
196,213,251296,1,8,0:0:0:0:
205,187,251382,1,8,0:0:0:0:
279,252,251468,1,8,0:0:0:0:
150,130,251639,1,0,0:0:0:0:
204,168,251810,1,0,0:0:0:0:
196,213,251982,1,8,0:0:0:0:
171,25,252153,5,0,0:0:0:0:
159,81,252239,1,8,0:0:0:0:
199,142,252325,1,0,0:0:0:0:
157,86,252410,1,0,0:0:0:0:
204,168,252496,1,0,0:0:0:0:
196,213,252668,1,8,0:0:0:0:
204,168,252839,1,8,0:0:0:0:
204,168,252925,1,8,0:0:0:0:
204,168,253010,1,0,0:0:0:0:
204,168,253182,1,0,0:0:0:0:
196,213,253353,1,8,0:0:0:0:
204,168,253525,1,0,0:0:0:0:
181,87,253610,1,0,0:0:0:0:
181,87,253696,1,8,0:0:0:0:
181,87,253782,1,0,0:0:0:0:
205,187,253868,1,8,0:0:0:0:
196,213,254039,1,8,0:0:0:0:
204,168,254210,1,8,0:0:0:0:
204,168,254296,1,8,0:0:0:0:
204,168,254382,1,0,0:0:0:0:
204,168,254553,1,0,0:0:0:0:
204,168,254639,1,0,0:0:0:0:
196,213,254725,1,8,0:0:0:0:
204,168,254896,1,0,0:0:0:0:
199,153,254982,1,0,0:0:0:0:
199,153,255068,1,8,0:0:0:0:
168,87,255153,1,0,0:0:0:0:
168,87,255325,1,0,0:0:0:0:
196,213,255410,1,8,0:0:0:0:
204,168,255496,1,8,0:0:0:0:
204,168,255582,1,8,0:0:0:0:
207,201,255753,1,4,0:0:0:0:
140,193,255925,1,8,0:0:0:0:
140,193,256096,1,4,0:0:0:0:
140,193,256268,1,0,0:0:0:0:
140,193,256439,1,12,0:0:0:0:
140,193,256610,1,0,0:0:0:0:
140,193,256782,1,12,0:0:0:0:
196,213,257125,5,4,0:0:0:0:
279,252,257296,1,0,0:0:0:0:
196,213,257468,1,8,0:0:0:0:
281,247,257639,1,0,0:0:0:0:
199,142,257725,1,0,0:0:0:0:
166,41,257810,1,8,0:0:0:0:
162,53,257896,1,0,0:0:0:0:
199,142,257982,1,0,0:0:0:0:
208,122,258068,1,0,0:0:0:0:
196,213,258153,1,8,0:0:0:0:
281,247,258325,1,8,0:0:0:0:
281,247,258410,1,8,0:0:0:0:
280,256,258496,1,0,0:0:0:0:
279,252,258668,1,0,0:0:0:0:
162,138,258753,1,0,0:0:0:0:
196,213,258839,1,8,0:0:0:0:
279,252,259010,1,0,0:0:0:0:
199,142,259096,1,8,0:0:0:0:
199,142,259182,1,0,0:0:0:0:
199,142,259268,1,0,0:0:0:0:
167,231,259353,1,8,0:0:0:0:
162,138,259439,1,0,0:0:0:0:
196,213,259525,1,8,0:0:0:0:
279,252,259696,1,8,0:0:0:0:
279,252,259782,1,8,0:0:0:0:
279,252,259868,1,0,0:0:0:0:
279,252,260039,1,0,0:0:0:0:
162,138,260125,1,0,0:0:0:0:
196,213,260210,1,8,0:0:0:0:
162,138,260296,1,0,0:0:0:0:
124,173,260468,1,0,0:0:0:0:
124,173,260553,1,8,0:0:0:0:
140,104,260639,1,8,0:0:0:0:
140,105,260725,1,0,0:0:0:0:
196,213,260896,1,8,0:0:0:0:
161,129,261068,1,0,0:0:0:0:
279,252,261153,1,8,0:0:0:0:
279,252,261239,1,0,0:0:0:0:
279,252,261410,1,0,0:0:0:0:
124,178,261496,1,0,0:0:0:0:
196,213,261582,1,8,0:0:0:0:
199,142,261753,1,8,0:0:0:0:
199,142,261925,1,0,0:0:0:0:
139,103,262010,1,0,0:0:0:0:
139,103,262096,1,8,0:0:0:0:
279,252,262182,1,0,0:0:0:0:
196,213,262268,1,8,0:0:0:0:
150,130,262353,1,8,0:0:0:0:
279,252,262439,1,8,0:0:0:0:
211,143,262610,1,4,0:0:0:0:
166,50,262953,1,0,0:0:0:0:
196,230,263125,1,8,0:0:0:0:
171,170,263296,1,0,0:0:0:0:
179,74,263468,1,8,0:0:0:0:
166,50,263639,1,0,0:0:0:0:
166,50,263725,1,0,0:0:0:0:
179,74,263810,1,8,0:0:0:0:
171,113,263982,1,4,0:0:0:0:
166,50,264325,1,0,0:0:0:0:
179,74,264496,1,8,0:0:0:0:
180,79,264668,1,0,0:0:0:0:
136,119,264839,1,8,0:0:0:0:
166,50,265010,1,0,0:0:0:0:
136,119,265096,1,0,0:0:0:0:
179,74,265182,1,8,0:0:0:0:
166,50,265353,1,0,0:0:0:0:
163,124,265439,1,0,0:0:0:0:
166,50,265525,1,8,0:0:0:0:
145,110,265610,1,0,0:0:0:0:
144,119,265696,1,8,0:0:0:0:
143,127,265782,1,8,0:0:0:0:
141,131,265868,1,8,0:0:0:0:
141,135,265953,1,8,0:0:0:0:
141,139,266039,1,0,0:0:0:0:
140,144,266125,1,0,0:0:0:0:
189,126,266210,1,8,0:0:0:0:
146,118,266296,1,0,0:0:0:0:
156,98,266382,1,8,0:0:0:0:
156,98,266468,1,8,0:0:0:0:
151,87,266553,1,0,0:0:0:0:
146,118,266639,1,8,0:0:0:0:
144,119,266725,1,0,0:0:0:0:
146,122,266810,1,0,0:0:0:0:
146,126,266896,1,8,0:0:0:0:
146,126,266982,1,8,0:0:0:0:
180,135,267068,1,0,0:0:0:0:
140,62,267125,1,0,0:0:0:0:
140,62,267182,1,0,0:0:0:0:
140,62,267239,1,8,0:0:0:0:
202,87,267325,1,8,0:0:0:0:
180,135,267410,1,0,0:0:0:0:
202,87,267496,1,0,0:0:0:0:
141,70,267582,1,8,0:0:0:0:
141,71,267639,1,0,0:0:0:0:
141,72,267696,1,0,0:0:0:0:
180,135,267753,1,8,0:0:0:0:
179,162,268096,5,4,0:0:0:0:
176,172,269468,1,8,0:0:0:0:
171,112,269982,1,0,0:0:0:0:
176,172,270496,1,8,0:0:0:0:
256,192,270839,12,0,273582,0:0:0:0:
256,192,283182,12,0,284382,0:0:0:0:
266,237,284553,5,4,0:0:0:0:
279,212,284810,1,8,0:0:0:0:
279,212,284895,1,0,0:0:0:0:
279,212,285067,1,8,0:0:0:0:
279,212,285238,1,0,0:0:0:0:
279,212,285324,1,0,0:0:0:0:
279,212,285495,1,8,0:0:0:0:
279,212,285581,1,0,0:0:0:0:
279,212,285753,1,8,0:0:0:0:
279,212,285924,1,0,0:0:0:0:
279,212,286181,1,8,0:0:0:0:
279,211,286267,1,0,0:0:0:0:
279,211,286438,1,8,0:0:0:0:
307,221,286610,1,0,0:0:0:0:
307,221,286953,1,0,0:0:0:0:
285,127,287124,1,8,0:0:0:0:
307,221,287295,1,0,0:0:0:0:
307,221,287467,1,8,0:0:0:0:
301,221,287638,1,0,0:0:0:0:
193,124,287810,1,8,0:0:0:0:
193,124,287895,1,0,0:0:0:0:
193,124,287981,1,0,0:0:0:0:
193,124,288153,1,8,0:0:0:0:
193,124,288324,1,0,0:0:0:0:
351,107,288495,1,8,0:0:0:0:
351,107,288581,1,8,0:0:0:0:
336,91,288667,1,0,0:0:0:0:
351,107,288753,1,8,0:0:0:0:
351,107,288838,1,8,0:0:0:0:
336,91,289010,1,0,0:0:0:0:
325,128,289181,1,8,0:0:0:0:
325,128,289267,1,0,0:0:0:0:
325,128,289353,1,0,0:0:0:0:
320,132,289524,1,8,0:0:0:0:
320,132,289695,1,0,0:0:0:0:
311,198,289781,1,0,0:0:0:0:
311,198,289867,1,8,0:0:0:0:
266,170,290038,1,4,0:0:0:0:
247,183,290381,1,8,0:0:0:0:
332,191,290553,1,0,0:0:0:0:
332,191,290638,1,8,0:0:0:0:
247,183,290724,1,0,0:0:0:0:
344,157,290895,1,0,0:0:0:0:
247,183,291067,1,8,0:0:0:0:
344,157,291238,1,0,0:0:0:0:
344,157,291324,1,8,0:0:0:0:
247,183,291410,1,0,0:0:0:0:
210,128,291495,1,0,0:0:0:0:
344,157,291581,1,0,0:0:0:0:
247,183,291753,1,8,0:0:0:0:
213,127,291924,1,8,0:0:0:0:
344,157,292010,1,8,0:0:0:0:
247,183,292095,1,0,0:0:0:0:
341,157,292267,1,8,0:0:0:0:
341,157,292353,1,0,0:0:0:0:
247,183,292438,1,8,0:0:0:0:
341,157,292610,1,8,0:0:0:0:
247,183,292781,1,4,0:0:0:0:
247,183,293038,1,4,0:0:0:0:
247,183,293295,1,4,0:0:0:0:
247,183,293467,1,4,0:0:0:0:
259,183,293638,1,0,0:0:0:0:
259,183,293724,1,0,0:0:0:0:
259,183,293810,1,8,0:0:0:0:
233,196,294153,1,8,0:0:0:0:
233,196,294238,1,0,0:0:0:0:
233,196,294324,1,0,0:0:0:0:
233,196,294410,1,8,0:0:0:0:
233,196,294495,1,0,0:0:0:0:
233,196,294581,1,0,0:0:0:0:
233,196,294667,1,8,0:0:0:0:
233,196,294753,1,0,0:0:0:0:
233,196,294838,1,8,0:0:0:0:
233,196,295010,1,0,0:0:0:0:
233,196,295181,1,12,0:0:0:0:
233,196,295524,1,4,0:0:0:0:
345,200,295781,1,0,0:0:0:0:
345,200,295867,1,8,0:0:0:0:
337,200,296038,1,8,0:0:0:0:
337,200,296124,1,8,0:0:0:0:
340,199,296210,1,0,0:0:0:0:
337,200,296295,1,8,0:0:0:0:
337,200,296467,1,0,0:0:0:0:
337,200,296553,1,8,0:0:0:0:
337,200,296638,1,8,0:0:0:0:
337,200,296724,1,0,0:0:0:0:
337,200,296895,1,0,0:0:0:0:
331,200,296981,1,8,0:0:0:0:
329,200,297067,1,0,0:0:0:0:
328,200,297153,1,0,0:0:0:0:
328,200,297238,1,8,0:0:0:0:
328,200,297410,1,8,0:0:0:0:
328,200,297581,1,0,0:0:0:0:
335,207,297753,1,12,0:0:0:0:
340,207,297924,1,12,0:0:0:0:
285,231,298095,1,0,0:0:0:0:
278,222,298181,1,0,0:0:0:0:
278,221,298267,1,0,0:0:0:0:
256,212,298438,1,0,0:0:0:0:
256,212,298610,1,8,0:0:0:0:
256,212,298781,1,0,0:0:0:0:
256,212,298867,1,8,0:0:0:0:
256,212,298953,1,0,0:0:0:0:
256,212,299124,1,0,0:0:0:0:
256,212,299295,1,8,0:0:0:0:
256,212,299467,1,8,0:0:0:0:
256,212,299553,1,8,0:0:0:0:
256,212,299638,1,0,0:0:0:0:
256,212,299724,1,8,0:0:0:0:
256,212,299810,1,0,0:0:0:0:
256,212,299895,1,0,0:0:0:0:
256,212,299981,1,8,0:0:0:0:
256,212,300153,1,8,0:0:0:0:
256,212,300324,1,0,0:0:0:0:
256,212,300495,1,8,0:0:0:0:
256,212,300581,1,0,0:0:0:0:
256,212,300667,1,8,0:0:0:0:
252,272,300753,1,8,0:0:0:0:
252,272,300838,1,0,0:0:0:0:
252,272,300924,1,8,0:0:0:0:
256,212,301010,1,0,0:0:0:0:
273,250,301267,1,0,0:0:0:0:
273,250,301353,1,8,0:0:0:0:
306,238,301524,1,0,0:0:0:0:
306,238,301610,1,8,0:0:0:0:
306,238,301695,1,0,0:0:0:0:
306,238,301781,1,0,0:0:0:0:
318,162,301953,1,8,0:0:0:0:
329,160,302038,1,8,0:0:0:0:
336,155,302124,1,0,0:0:0:0:
239,187,302210,1,8,0:0:0:0:
239,187,302295,1,8,0:0:0:0:
335,155,302381,1,0,0:0:0:0:
335,99,302553,1,0,0:0:0:0:
239,187,302638,1,0,0:0:0:0:
239,187,302724,1,8,0:0:0:0:
239,187,302810,1,8,0:0:0:0:
335,99,302895,1,0,0:0:0:0:
337,234,303067,1,0,0:0:0:0:
337,234,303238,1,12,0:0:0:0:
337,234,303410,1,12,0:0:0:0:
337,234,303581,1,0,0:0:0:0:
338,223,303667,1,8,0:0:0:0:
344,216,303753,1,0,0:0:0:0:
338,223,303924,1,8,0:0:0:0:
336,223,304010,1,0,0:0:0:0:
344,216,304095,1,8,0:0:0:0:
222,196,304181,1,8,0:0:0:0:
222,196,304267,1,0,0:0:0:0:
222,196,304353,1,8,0:0:0:0:
222,196,304438,1,0,0:0:0:0:
341,223,304524,1,0,0:0:0:0:
222,196,304610,1,0,0:0:0:0:
222,196,304695,1,0,0:0:0:0:
254,187,304781,1,8,0:0:0:0:
254,187,304953,1,8,0:0:0:0:
254,187,305124,1,4,0:0:0:0:
254,187,305295,1,4,0:0:0:0:
254,187,305467,1,12,0:0:0:0:
254,187,305638,1,12,0:0:0:0:
344,141,305981,1,0,0:0:0:0:
241,188,306153,1,12,0:0:0:0:
114,185,306496,1,0,0:0:0:0:
121,195,306582,1,0,0:0:0:0:
439,252,306839,1,12,0:0:0:0:
337,200,307010,1,8,0:0:0:0:
337,200,307095,1,8,0:0:0:0:
340,199,307181,1,0,0:0:0:0:
337,200,307267,1,8,0:0:0:0:
337,200,307438,1,0,0:0:0:0:
337,200,307524,1,8,0:0:0:0:
337,200,307610,1,8,0:0:0:0:
337,200,307695,1,0,0:0:0:0:
337,200,307867,1,8,0:0:0:0:
331,200,307953,1,8,0:0:0:0:
329,200,308038,1,0,0:0:0:0:
328,200,308124,1,0,0:0:0:0:
328,200,308210,1,8,0:0:0:0:
211,100,308381,1,0,0:0:0:0:
211,100,308467,1,0,0:0:0:0:
328,200,308553,1,8,0:0:0:0:
335,207,308724,1,12,0:0:0:0:
340,207,308895,1,12,0:0:0:0:
285,231,309067,1,0,0:0:0:0:
278,222,309153,1,0,0:0:0:0:
278,221,309238,1,0,0:0:0:0:
256,212,309410,1,0,0:0:0:0:
256,212,309581,1,8,0:0:0:0:
256,212,309753,1,0,0:0:0:0:
256,212,309838,1,8,0:0:0:0:
256,212,309924,1,0,0:0:0:0:
256,212,310095,1,0,0:0:0:0:
256,212,310267,1,8,0:0:0:0:
256,212,310438,1,8,0:0:0:0:
256,212,310524,1,8,0:0:0:0:
256,212,310610,1,0,0:0:0:0:
320,178,310695,1,0,0:0:0:0:
276,154,310781,1,8,0:0:0:0:
256,212,310867,1,0,0:0:0:0:
256,212,310953,1,8,0:0:0:0:
256,212,311124,1,8,0:0:0:0:
256,212,311295,1,0,0:0:0:0:
281,155,311381,1,8,0:0:0:0:
256,212,311467,1,0,0:0:0:0:
256,212,311553,1,0,0:0:0:0:
256,212,311638,1,8,0:0:0:0:
252,272,311810,1,8,0:0:0:0:
256,212,311981,1,4,0:0:0:0:
112,163,312153,1,8,0:0:0:0:
273,250,312238,1,0,0:0:0:0:
273,250,312324,1,8,0:0:0:0:
306,238,312495,1,0,0:0:0:0:
306,238,312581,1,8,0:0:0:0:
306,238,312667,1,0,0:0:0:0:
306,238,312753,1,0,0:0:0:0:
219,119,312838,1,8,0:0:0:0:
219,119,312924,1,0,0:0:0:0:
329,160,313010,1,8,0:0:0:0:
227,99,313181,1,8,0:0:0:0:
335,155,313353,1,4,0:0:0:0:
335,99,313524,1,8,0:0:0:0:
239,187,313610,1,0,0:0:0:0:
239,187,313695,1,8,0:0:0:0:
335,99,313867,1,0,0:0:0:0:
285,121,313953,1,8,0:0:0:0:
337,234,314038,1,0,0:0:0:0:
240,224,314210,1,8,0:0:0:0:
240,224,314295,1,0,0:0:0:0:
240,224,314381,1,8,0:0:0:0:
240,224,314467,1,8,0:0:0:0:
263,220,314553,1,8,0:0:0:0:
263,222,314724,1,4,0:0:0:0:
248,214,314895,1,8,0:0:0:0:
247,216,314981,1,0,0:0:0:0:
248,214,315067,1,8,0:0:0:0:
247,216,315153,1,8,0:0:0:0:
248,214,315238,1,0,0:0:0:0:
264,157,315410,1,4,0:0:0:0:
264,157,315581,1,8,0:0:0:0:
264,157,315667,1,0,0:0:0:0:
264,157,315753,1,8,0:0:0:0:
264,157,315924,1,8,0:0:0:0:
258,147,316095,1,4,0:0:0:0:
191,162,316267,1,8,0:0:0:0:
286,145,316353,1,8,0:0:0:0:
286,145,316438,1,8,0:0:0:0:
286,145,316524,1,0,0:0:0:0:
286,145,316610,1,8,0:0:0:0:
286,145,316695,1,8,0:0:0:0:
292,130,316781,1,0,0:0:0:0:
290,130,316953,1,0,0:0:0:0:
278,130,317038,1,0,0:0:0:0:
292,130,317124,1,8,0:0:0:0:
289,132,317295,1,8,0:0:0:0:
301,150,317467,1,4,0:0:0:0:
301,188,317638,1,8,0:0:0:0:
301,188,317810,1,8,0:0:0:0:
301,188,318067,1,0,0:0:0:0:
301,188,318153,1,0,0:0:0:0:
301,188,318238,1,8,0:0:0:0:
301,188,318410,1,8,0:0:0:0:
301,188,318495,1,0,0:0:0:0:
301,188,318667,1,8,0:0:0:0:
267,152,318838,1,4,0:0:0:0:
304,187,319010,1,8,0:0:0:0:
304,187,319181,1,8,0:0:0:0:
418,203,319438,1,0,0:0:0:0:
304,187,319524,1,0,0:0:0:0:
304,187,319610,1,8,0:0:0:0:
304,187,319781,1,0,0:0:0:0:
304,187,319867,1,8,0:0:0:0:
304,187,319953,1,0,0:0:0:0:
304,187,320038,1,8,0:0:0:0:
185,188,320210,1,0,0:0:0:0:
252,207,320381,1,8,0:0:0:0:
252,207,320467,1,8,0:0:0:0:
320,193,320553,1,0,0:0:0:0:
252,207,320724,1,8,0:0:0:0:
252,207,320810,1,8,0:0:0:0:
320,193,320895,1,0,0:0:0:0:
252,207,320981,1,0,0:0:0:0:
252,207,321067,1,8,0:0:0:0:
252,207,321153,1,0,0:0:0:0:
320,193,321238,1,0,0:0:0:0:
271,241,321410,1,12,0:0:0:0:
423,145,322953,5,8,0:0:0:0:
423,145,323038,1,8,0:0:0:0:
423,145,323124,1,0,0:0:0:0:
428,143,323210,1,0,0:0:0:0:
306,203,323295,5,8,0:0:0:0:
429,149,323467,1,0,0:0:0:0:
307,203,323553,1,8,0:0:0:0:
307,203,323638,1,0,0:0:0:0:
312,202,323724,1,8,0:0:0:0:
389,132,323810,1,0,0:0:0:0:
389,132,323867,1,0,0:0:0:0:
389,132,323924,1,0,0:0:0:0:
389,132,323981,1,8,0:0:0:0:
256,192,324324,5,4,0:0:0:0:
256,192,324667,1,8,0:0:0:0:
256,192,324924,1,8,0:0:0:0:
256,192,325010,1,0,0:0:0:0:
256,192,325181,1,0,0:0:0:0:
256,192,325353,1,8,0:0:0:0:
256,192,325524,1,0,0:0:0:0:
256,192,325610,1,8,0:0:0:0:
256,192,325695,1,0,0:0:0:0:
256,192,325781,1,0,0:0:0:0:
256,192,325953,1,0,0:0:0:0:
256,192,326038,1,8,0:0:0:0:
256,192,326210,1,8,0:0:0:0:
256,192,326295,1,8,0:0:0:0:
256,192,326381,1,0,0:0:0:0:
256,192,326467,1,0,0:0:0:0:
256,192,326553,1,8,0:0:0:0:
256,192,326638,1,0,0:0:0:0:
256,192,326724,1,8,0:0:0:0:
256,192,326895,1,0,0:0:0:0:
256,192,326981,1,0,0:0:0:0:
256,192,327067,1,8,0:0:0:0:
256,192,327153,1,0,0:0:0:0:
256,192,327324,1,0,0:0:0:0:
256,192,327410,1,8,0:0:0:0:
256,192,327495,1,0,0:0:0:0:
256,192,327667,1,0,0:0:0:0:
256,192,327753,1,8,0:0:0:0:
256,192,327924,1,0,0:0:0:0:
256,192,328010,1,0,0:0:0:0:
256,192,328095,1,8,0:0:0:0:
256,192,328267,1,8,0:0:0:0:
256,192,328438,1,0,0:0:0:0:
256,192,328524,1,8,0:0:0:0:
256,192,328610,1,8,0:0:0:0:
256,192,328695,1,0,0:0:0:0:
256,192,328781,1,8,0:0:0:0:
256,192,328867,1,8,0:0:0:0:
256,192,328953,1,0,0:0:0:0:
256,192,329038,1,8,0:0:0:0:
256,192,329124,1,0,0:0:0:0:
256,192,329295,1,8,0:0:0:0:
256,192,329467,1,8,0:0:0:0:
256,192,329553,1,8,0:0:0:0:
256,192,329638,1,0,0:0:0:0:
256,192,329724,1,0,0:0:0:0:
256,192,329810,1,8,0:0:0:0:
256,192,329981,1,0,0:0:0:0:
256,192,330067,1,0,0:0:0:0:
256,192,330153,1,8,0:0:0:0:
256,192,330238,1,8,0:0:0:0:
256,192,330324,1,0,0:0:0:0:
256,192,330410,1,8,0:0:0:0:
256,192,330581,1,8,0:0:0:0:
256,192,330667,1,0,0:0:0:0:
256,192,330753,1,0,0:0:0:0:
256,192,330838,1,8,0:0:0:0:
256,192,331010,1,8,0:0:0:0:
256,192,331095,1,8,0:0:0:0:
256,192,331181,1,0,0:0:0:0:
256,192,331353,1,0,0:0:0:0:
256,192,331524,1,8,0:0:0:0:
256,192,331610,1,8,0:0:0:0:
256,192,331695,1,0,0:0:0:0:
256,192,331781,1,8,0:0:0:0:
256,192,331953,1,8,0:0:0:0:
256,192,332038,1,0,0:0:0:0:
256,192,332124,1,0,0:0:0:0:
256,192,332210,1,8,0:0:0:0:
256,192,332295,1,0,0:0:0:0:
256,192,332381,1,8,0:0:0:0:
256,192,332467,1,8,0:0:0:0:
256,192,332553,1,0,0:0:0:0:
256,192,332724,1,0,0:0:0:0:
256,192,332810,1,0,0:0:0:0:
256,192,332895,1,8,0:0:0:0:
256,192,333067,1,8,0:0:0:0:
256,192,333153,1,8,0:0:0:0:
256,192,333238,1,0,0:0:0:0:
256,192,333324,1,8,0:0:0:0:
256,192,333410,1,0,0:0:0:0:
256,192,333495,1,0,0:0:0:0:
256,192,333581,1,8,0:0:0:0:
256,192,333753,1,8,0:0:0:0:
256,192,333924,1,4,0:0:0:0:
256,192,334095,1,4,0:0:0:0:
256,192,334267,1,12,0:0:0:0:
256,192,334438,1,12,0:0:0:0:
256,192,334781,1,0,0:0:0:0:
256,192,334953,1,12,0:0:0:0:
192,69,335296,1,0,0:0:0:0:
195,93,335382,1,0,0:0:0:0:
168,153,335639,1,12,0:0:0:0:
256,192,335895,1,8,0:0:0:0:
256,192,335981,1,0,0:0:0:0:
256,192,336153,1,0,0:0:0:0:
256,192,336238,1,0,0:0:0:0:
256,192,336324,1,8,0:0:0:0:
256,192,336495,1,0,0:0:0:0:
256,192,336581,1,0,0:0:0:0:
256,192,336667,1,8,0:0:0:0:
256,192,336753,1,0,0:0:0:0:
256,192,336924,1,0,0:0:0:0:
256,192,337010,1,8,0:0:0:0:
256,192,337181,1,8,0:0:0:0:
256,192,337353,1,0,0:0:0:0:
256,192,337438,1,0,0:0:0:0:
256,192,337524,1,8,0:0:0:0:
256,192,337610,1,0,0:0:0:0:
256,192,337695,1,8,0:0:0:0:
256,192,337867,1,0,0:0:0:0:
256,192,337953,1,0,0:0:0:0:
256,192,338038,1,8,0:0:0:0:
256,192,338124,1,8,0:0:0:0:
256,192,338295,1,0,0:0:0:0:
256,192,338381,1,8,0:0:0:0:
256,192,338467,1,0,0:0:0:0:
256,192,338638,1,0,0:0:0:0:
256,192,338724,1,8,0:0:0:0:
256,192,338810,1,8,0:0:0:0:
256,192,338895,1,0,0:0:0:0:
256,192,338981,1,0,0:0:0:0:
256,192,339067,1,8,0:0:0:0:
256,192,339238,1,8,0:0:0:0:
256,192,339410,1,0,0:0:0:0:
256,192,339495,1,8,0:0:0:0:
256,192,339581,1,8,0:0:0:0:
256,192,339667,1,0,0:0:0:0:
256,192,339753,1,8,0:0:0:0:
256,192,339838,1,0,0:0:0:0:
256,192,339924,1,8,0:0:0:0:
256,192,340010,1,8,0:0:0:0:
256,192,340095,1,0,0:0:0:0:
256,192,340267,1,8,0:0:0:0:
256,192,340438,1,8,0:0:0:0:
256,192,340524,1,0,0:0:0:0:
256,192,340610,1,8,0:0:0:0:
256,192,340781,1,4,0:0:0:0:
256,192,341124,1,8,0:0:0:0:
256,192,341381,1,0,0:0:0:0:
256,192,341467,1,8,0:0:0:0:
256,192,341638,1,0,0:0:0:0:
256,192,341724,1,0,0:0:0:0:
256,192,341810,1,8,0:0:0:0:
256,192,341981,1,8,0:0:0:0:
256,192,342153,1,4,0:0:0:0:
256,192,342495,1,8,0:0:0:0:
256,192,342667,1,0,0:0:0:0:
256,192,342753,1,8,0:0:0:0:
256,192,342924,1,8,0:0:0:0:
256,192,343010,1,0,0:0:0:0:
256,192,343095,1,0,0:0:0:0:
256,192,343181,1,8,0:0:0:0:
256,192,343353,1,8,0:0:0:0:
256,192,343524,1,4,0:0:0:0:
256,192,343781,1,0,0:0:0:0:
256,192,343867,1,8,0:0:0:0:
256,192,344038,1,8,0:0:0:0:
256,192,344210,1,4,0:0:0:0:
256,192,344381,1,0,0:0:0:0:
256,192,344467,1,0,0:0:0:0:
256,192,344553,1,8,0:0:0:0:
256,192,344724,1,8,0:0:0:0:
256,192,344895,1,4,0:0:0:0:
256,192,345153,1,12,0:0:0:0:
256,192,345410,1,12,0:0:0:0:
256,192,345581,1,4,0:0:0:0:
256,192,345924,1,12,0:0:0:0:
241,221,346267,5,4,0:0:0:0:
241,221,346610,1,8,0:0:0:0:
179,140,346781,1,8,0:0:0:0:
134,148,346867,1,8,0:0:0:0:
179,140,346953,1,0,0:0:0:0:
176,154,347124,1,0,0:0:0:0:
241,221,347295,1,8,0:0:0:0:
212,157,347467,1,8,0:0:0:0:
153,67,347638,1,0,0:0:0:0:
241,221,347981,1,8,0:0:0:0:
179,140,348153,1,0,0:0:0:0:
171,166,348238,1,0,0:0:0:0:
218,112,348324,1,8,0:0:0:0:
218,112,348410,1,8,0:0:0:0:
218,112,348495,1,0,0:0:0:0:
241,221,348667,1,8,0:0:0:0:
136,188,348838,1,8,0:0:0:0:
173,122,349010,1,0,0:0:0:0:
241,221,349353,1,8,0:0:0:0:
179,140,349524,1,0,0:0:0:0:
181,57,349610,1,0,0:0:0:0:
159,168,349695,1,0,0:0:0:0:
176,154,349867,1,0,0:0:0:0:
241,221,350038,1,8,0:0:0:0:
196,135,350210,1,0,0:0:0:0:
216,111,350381,1,8,0:0:0:0:
196,135,350467,1,8,0:0:0:0:
179,140,350553,1,0,0:0:0:0:
241,221,350724,1,8,0:0:0:0:
179,140,350895,1,0,0:0:0:0:
216,111,351067,1,8,0:0:0:0:
216,111,351153,1,8,0:0:0:0:
216,111,351238,1,0,0:0:0:0:
176,83,351324,1,0,0:0:0:0:
241,221,351410,1,8,0:0:0:0:
173,137,351581,1,8,0:0:0:0:
164,162,351753,1,0,0:0:0:0:
241,221,352095,1,8,0:0:0:0:
179,140,352267,1,8,0:0:0:0:
179,140,352438,1,0,0:0:0:0:
176,154,352610,1,0,0:0:0:0:
176,94,352695,1,0,0:0:0:0:
241,221,352781,1,8,0:0:0:0:
191,44,352953,1,8,0:0:0:0:
157,60,353124,1,0,0:0:0:0:
241,221,353467,1,8,0:0:0:0:
158,86,353638,1,0,0:0:0:0:
158,86,353724,1,0,0:0:0:0:
218,112,353810,1,8,0:0:0:0:
218,112,353895,1,8,0:0:0:0:
218,112,353981,1,0,0:0:0:0:
241,221,354153,1,8,0:0:0:0:
136,188,354324,1,8,0:0:0:0:
173,122,354495,1,0,0:0:0:0:
241,221,354838,1,8,0:0:0:0:
179,140,355010,1,0,0:0:0:0:
181,57,355095,1,0,0:0:0:0:
159,168,355181,1,0,0:0:0:0:
176,154,355353,1,0,0:0:0:0:
241,221,355524,1,8,0:0:0:0:
175,70,355610,1,8,0:0:0:0:
91,191,355695,1,0,0:0:0:0:
141,165,355867,1,12,0:0:0:0:
141,165,356124,1,8,0:0:0:0:
141,165,356295,1,8,0:0:0:0:
141,165,356381,1,0,0:0:0:0:
141,165,356467,1,0,0:0:0:0:
141,165,356553,1,8,0:0:0:0:
141,170,356724,1,0,0:0:0:0:
141,170,356895,1,12,0:0:0:0:
157,217,357239,1,0,0:0:0:0:
157,217,357325,1,0,0:0:0:0:
198,123,357581,1,12,0:0:0:0:
179,140,357753,1,8,0:0:0:0:
134,148,357838,1,8,0:0:0:0:
179,140,357924,1,0,0:0:0:0:
176,154,358095,1,0,0:0:0:0:
241,221,358267,1,8,0:0:0:0:
212,157,358438,1,8,0:0:0:0:
153,67,358610,1,0,0:0:0:0:
241,221,358953,1,8,0:0:0:0:
179,140,359124,1,0,0:0:0:0:
218,112,359295,1,8,0:0:0:0:
218,112,359381,1,8,0:0:0:0:
218,112,359467,1,0,0:0:0:0:
201,189,359553,1,0,0:0:0:0:
241,221,359638,1,8,0:0:0:0:
136,188,359810,1,8,0:0:0:0:
173,122,359981,1,0,0:0:0:0:
241,221,360324,1,8,0:0:0:0:
179,140,360495,1,0,0:0:0:0:
181,57,360581,1,0,0:0:0:0:
159,168,360667,1,0,0:0:0:0:
176,154,360838,1,0,0:0:0:0:
241,221,361010,1,8,0:0:0:0:
196,135,361181,1,0,0:0:0:0:
216,111,361353,1,8,0:0:0:0:
196,135,361438,1,8,0:0:0:0:
179,140,361524,1,0,0:0:0:0:
241,221,361695,5,8,0:0:0:0:
179,140,361867,1,0,0:0:0:0:
216,111,362038,1,8,0:0:0:0:
216,111,362124,1,8,0:0:0:0:
216,111,362210,1,0,0:0:0:0:
176,83,362295,1,0,0:0:0:0:
241,221,362381,1,8,0:0:0:0:
191,168,362467,1,8,0:0:0:0:
173,137,362553,1,8,0:0:0:0:
191,168,362724,1,4,0:0:0:0:
256,192,363067,1,8,0:0:0:0:
256,192,363753,1,8,0:0:0:0:
256,192,364095,1,4,0:0:0:0:
256,192,364438,1,8,0:0:0:0:
256,192,364610,1,0,0:0:0:0:
256,192,364695,1,8,0:0:0:0:
256,192,364867,1,8,0:0:0:0:
256,192,364953,1,0,0:0:0:0:
256,192,365124,1,8,0:0:0:0:
256,192,365295,1,8,0:0:0:0:
256,192,365467,1,4,0:0:0:0:
256,192,365638,1,0,0:0:0:0:
256,192,365724,1,0,0:0:0:0:
256,192,365810,1,8,0:0:0:0:
256,192,365981,1,8,0:0:0:0:
256,192,366153,1,4,0:0:0:0:
256,192,366324,1,8,0:0:0:0:
256,192,366410,1,0,0:0:0:0:
256,192,366495,1,8,0:0:0:0:
256,192,366667,1,8,0:0:0:0:
186,146,366838,1,4,0:0:0:0:
139,82,367524,1,0,0:0:0:0:
141,168,367696,1,8,0:0:0:0:
141,168,367782,1,8,0:0:0:0:
141,168,367868,1,8,0:0:0:0:
221,138,367953,1,8,0:0:0:0:
141,168,368039,1,0,0:0:0:0:
331,183,368210,1,4,0:0:0:0:
331,183,368553,1,8,0:0:0:0:
331,183,368895,1,0,0:0:0:0:
357,184,369067,1,0,0:0:0:0:
331,183,369238,1,8,0:0:0:0:
331,183,369581,1,0,0:0:0:0:
331,183,369924,1,8,0:0:0:0:
155,51,370267,1,0,0:0:0:0:
356,184,370438,1,0,0:0:0:0:
356,184,370610,1,8,0:0:0:0:
274,145,370781,1,0,0:0:0:0:
356,184,370953,1,0,0:0:0:0:
356,184,371295,1,8,0:0:0:0:
356,184,371638,1,0,0:0:0:0:
356,184,371810,1,0,0:0:0:0:
356,184,371981,1,8,0:0:0:0:
356,184,372324,1,0,0:0:0:0:
356,184,372667,1,8,0:0:0:0:
356,184,373010,1,0,0:0:0:0:
356,184,373181,1,0,0:0:0:0:
356,184,373353,1,8,0:0:0:0:
274,145,373524,1,0,0:0:0:0:
356,184,373695,1,0,0:0:0:0:
356,184,374038,1,8,0:0:0:0:
356,184,374381,1,0,0:0:0:0:
356,184,374553,1,0,0:0:0:0:
356,184,374724,1,8,0:0:0:0:
356,184,375067,1,0,0:0:0:0:
358,184,375410,1,8,0:0:0:0:
358,184,375753,1,0,0:0:0:0:
358,184,375924,1,0,0:0:0:0:
358,184,376095,1,8,0:0:0:0:
299,137,376267,1,0,0:0:0:0:
358,184,376438,1,0,0:0:0:0:
358,184,376781,1,8,0:0:0:0:
358,184,377124,1,0,0:0:0:0:
358,184,377295,1,0,0:0:0:0:
358,184,377467,1,8,0:0:0:0:
358,184,377638,1,0,0:0:0:0:
358,184,377810,1,12,0:0:0:0:
360,184,378067,1,0,0:0:0:0:
360,184,378238,1,8,0:0:0:0:
360,184,378324,1,0,0:0:0:0:
360,184,378410,1,0,0:0:0:0:
360,184,378495,1,8,0:0:0:0:
370,156,378581,1,8,0:0:0:0:
360,184,378667,1,0,0:0:0:0:
355,182,378838,1,12,0:0:0:0:
316,187,379181,1,4,0:0:0:0:
322,185,379524,1,8,0:0:0:0:
347,279,379781,1,0,0:0:0:0:
322,185,379867,1,0,0:0:0:0:
290,218,380038,1,0,0:0:0:0:
322,185,380210,1,8,0:0:0:0:
272,282,380381,1,0,0:0:0:0:
322,185,380553,1,0,0:0:0:0:
322,185,380895,1,8,0:0:0:0:
347,279,381153,1,8,0:0:0:0:
322,185,381238,1,0,0:0:0:0:
309,194,381410,1,0,0:0:0:0:
322,185,381581,1,8,0:0:0:0:
311,281,381753,1,8,0:0:0:0:
322,185,381924,1,0,0:0:0:0:
322,185,382267,1,8,0:0:0:0:
336,281,382524,1,0,0:0:0:0:
322,185,382610,1,0,0:0:0:0:
309,194,382781,1,0,0:0:0:0:
322,185,382953,1,8,0:0:0:0:
272,282,383124,1,0,0:0:0:0:
322,185,383295,1,0,0:0:0:0:
322,185,383638,1,8,0:0:0:0:
309,194,383895,1,8,0:0:0:0:
322,185,383981,1,0,0:0:0:0:
309,194,384153,1,0,0:0:0:0:
322,185,384324,1,8,0:0:0:0:
318,281,384495,1,8,0:0:0:0:
322,185,384667,1,4,0:0:0:0:
322,185,385010,1,8,0:0:0:0:
328,187,385267,1,8,0:0:0:0:
328,187,385353,1,0,0:0:0:0:
328,187,385438,1,8,0:0:0:0:
328,187,385610,1,8,0:0:0:0:
328,187,385695,1,0,0:0:0:0:
328,187,385867,1,8,0:0:0:0:
328,187,386038,1,4,0:0:0:0:
345,187,386381,1,8,0:0:0:0:
345,187,386553,1,8,0:0:0:0:
345,187,386638,1,8,0:0:0:0:
345,187,386724,1,0,0:0:0:0:
345,187,386810,1,8,0:0:0:0:
345,187,386981,1,8,0:0:0:0:
345,187,387067,1,0,0:0:0:0:
345,187,387238,1,8,0:0:0:0:
358,178,387410,1,4,0:0:0:0:
362,196,387581,1,8,0:0:0:0:
362,196,387667,1,0,0:0:0:0:
362,196,387753,1,8,0:0:0:0:
362,196,387924,1,8,0:0:0:0:
345,198,388095,1,4,0:0:0:0:
364,196,388267,1,8,0:0:0:0:
364,196,388353,1,0,0:0:0:0:
231,151,388524,1,0,0:0:0:0:
231,151,388610,1,8,0:0:0:0:
351,198,388781,1,4,0:0:0:0:
316,307,389467,1,0,0:0:0:0:
316,307,389553,1,0,0:0:0:0:
316,307,389638,1,8,0:0:0:0:
316,307,389724,1,8,0:0:0:0:
316,307,389810,1,8,0:0:0:0:
316,307,389895,1,8,0:0:0:0:
316,307,389981,1,0,0:0:0:0:
316,307,390153,1,4,0:0:0:0:
