osu file format v14

[General]
AudioFilename: audio.ogg
AudioLeadIn: 0
PreviewTime: 62950
Countdown: 0
SampleSet: Soft
StackLeniency: 0.7
Mode: 3
LetterboxInBreaks: 0
SpecialStyle: 0
WidescreenStoryboard: 1

[Editor]
DistanceSpacing: 1.1
BeatDivisor: 4
GridSize: 32
TimelineZoom: 1.8

[Metadata]
Title:Kagayaki Summer Days (Short Ver.)
TitleUnicode:かがやきサマーデイズ (Short Ver.)
Artist:Abydos High School Countermeasure Council
ArtistUnicode:アビドス高等学校対策委員会
Creator:Ihram-San
Version:Normal!
Source:ブルーアーカイブ -Blue Archive-
Tags:Seiran- Soraru Aoki DenYi ホシノ hoshino 花守ゆみり Hanamori yumiri シロコ shiroko 小倉唯 Ogura yui ノノミ nonomi 三浦千幸 miura chiyuki セリカ serika 大橋彩香 ohashi ayaka アヤネ ayane 原田彩楓 sayaka harada Abydos Koutou Gakkou Taisaku Iinkai ミツキヨ Mitsukiyo IOSYS ブルアカ BuruAka Buru Aka NAT Games NEXON Yostar japanese pop jpop j-pop Video Game soundtrack BACD-0005
BeatmapID:3711680
BeatmapSetID:1808934

[Difficulty]
HPDrainRate:7.3
CircleSize:4
OverallDifficulty:7.3
ApproachRate:5
SliderMultiplier:1.4
SliderTickRate:1

[Events]
//Background and Video events
0,0,"90859193_p0a.jpg",0,0
Video,489,"video.mp4"
//Break Periods
//Storyboard Layer 0 (Background)
//Storyboard Layer 1 (Fail)
//Storyboard Layer 2 (Pass)
//Storyboard Layer 3 (Foreground)
//Storyboard Layer 4 (Overlay)
//Storyboard Sound Samples
Sample,18900,0,"cymbal_short.wav",40
Sample,19090,0,"cymbal_short.wav",40
Sample,19279,0,"cymbal_short.wav",40
Sample,29153,0,"LR_Hat Normal.wav",20
Sample,31052,0,"LR_Snare Drum .wav",70
Sample,31242,0,"LR_Snare Drum .wav",70
Sample,31431,0,"LR_Snare Drum .wav",70
Sample,35229,0,"LR_Hat Normal.wav",20
Sample,36748,0,"LR_Snare Drum .wav",70
Sample,37128,0,"LR_Snare Drum .wav",70
Sample,37507,0,"LR_Snare Drum .wav",70
Sample,56305,0,"LR_Snare Hat 2.wav",70
Sample,56685,0,"LR_Snare Hat 2.wav",70
Sample,57064,0,"LR_Snare Hat 2.wav",70
Sample,57444,0,"LR_Snare Hat 2.wav",70
Sample,57824,0,"LR_Snare Hat 2.wav",70
Sample,58204,0,"LR_Snare Hat 2.wav",70
Sample,58583,0,"LR_Snare Hat 2.wav",70
Sample,73583,0,"LR_Snare Drum .wav",50
Sample,73963,0,"LR_Snare Drum .wav",50
Sample,74153,0,"cymbal_short.wav",40
Sample,74343,0,"cymbal_short.wav",40
Sample,74533,0,"cymbal_short.wav",40
Sample,74723,0,"cymbal_short.wav",40
Sample,93900,0,"cymbal_short.wav",40
Sample,100925,0,"cymbal_short.wav",40
Sample,101115,0,"cymbal_short.wav",40
Sample,101305,0,"cymbal_short.wav",40

[TimingPoints]
1242,379.746835443038,4,2,1,50,1,0
63520,-100.0,4,2,1,50,0,1
92381,-100.0,4,2,1,50,0,0

[HitObjects]
64,192,1242,1,0,0:0:0:0:
448,192,1242,128,0,2001:0:0:0:0:
320,192,2001,128,0,2760:0:0:0:0:
192,192,2760,128,0,3520:0:0:0:0:
64,192,3520,128,0,4279:0:0:0:0:
448,192,4279,128,0,5039:0:0:0:0:
320,192,5039,128,0,5798:0:0:0:0:
64,192,5798,128,0,6558:0:0:0:0:
192,192,6558,128,0,7317:0:0:0:0:
448,192,7317,128,0,8077:0:0:0:0:
64,192,8077,128,0,8836:0:0:0:0:
320,192,8836,128,0,9596:0:0:0:0:
192,192,9596,128,0,10355:0:0:0:0:
64,192,10355,128,0,10640:0:0:0:40:LR_Snare Drum .wav
320,192,10640,128,0,10925:0:0:0:45:LR_Snare Drum .wav
192,192,10925,1,0,0:0:0:50:LR_Snare Drum .wav
448,192,11115,1,0,0:0:0:40:LR_Snare Drum .wav
320,192,11305,1,0,0:0:0:45:LR_Snare Drum .wav
64,192,11495,1,0,0:0:0:30:LR_Snare Hat 2.wav
192,192,11685,1,0,0:0:0:50:LR_Snare Drum .wav
320,192,11874,128,0,12159:0:0:0:50:LR_Snare Drum .wav
192,192,12159,128,0,12444:0:0:0:40:LR_Snare Hat 2.wav
448,192,12444,1,0,0:0:0:40:LR_Snare Hat 2.wav
64,192,12634,1,0,0:0:0:40:LR_Snare Hat 2.wav
320,192,12634,1,0,0:0:0:0:
192,192,13014,1,0,0:0:0:0:
64,192,13393,1,4,0:0:0:0:
448,192,13393,1,2,0:0:0:0:
320,192,13583,1,0,0:0:0:45:LR_Hat Normal.wav
192,192,13773,1,8,0:0:0:0:
64,192,13963,1,0,0:0:0:45:LR_Hat Normal.wav
320,192,14058,1,0,0:0:0:0:
448,192,14248,1,0,0:0:0:0:
192,192,14343,1,0,0:0:0:45:LR_Hat Normal.wav
64,192,14533,128,8,14723:0:0:0:0:
448,192,14723,128,0,14912:0:0:0:45:LR_Hat Normal.wav
320,192,14912,1,2,0:0:0:0:
192,192,15102,1,0,0:0:0:45:LR_Hat Normal.wav
64,192,15292,1,8,0:0:0:0:
448,192,15482,1,0,0:0:0:45:LR_Hat Normal.wav
320,192,15577,1,0,0:0:0:0:
64,192,15767,1,0,0:0:0:0:
192,192,15862,1,0,0:0:0:45:LR_Hat Normal.wav
448,192,16052,128,8,16431:0:0:0:0:
64,192,16431,1,2,0:0:0:0:
320,192,16621,1,0,0:0:0:45:LR_Hat Normal.wav
192,192,16811,1,8,0:0:0:0:
320,192,17001,1,0,0:0:0:45:LR_Hat Normal.wav
448,192,17096,1,0,0:0:0:0:
192,192,17286,1,0,0:0:0:0:
64,192,17381,1,0,0:0:0:45:LR_Hat Normal.wav
448,192,17571,128,8,17760:0:0:0:0:
64,192,17760,128,0,17950:0:0:0:45:LR_Hat Normal.wav
192,192,17950,1,2,0:0:0:0:
320,192,18140,128,0,18330:0:0:0:45:LR_Hat Normal.wav
64,192,18330,128,8,18520:0:0:0:0:
192,192,18520,128,0,18710:0:0:0:45:LR_Hat Normal.wav
448,192,18710,1,2,0:0:0:0:
448,192,18900,1,10,0:0:0:0:
64,192,19090,1,10,0:0:0:0:
64,192,19279,1,10,0:0:0:0:
320,192,19469,1,2,0:0:0:0:
448,192,19469,1,4,0:0:0:0:
192,192,19659,1,0,0:0:0:45:LR_Hat Normal.wav
320,192,19849,1,8,0:0:0:0:
448,192,20039,1,0,0:0:0:45:LR_Hat Normal.wav
192,192,20134,1,0,0:0:0:0:
64,192,20324,1,0,0:0:0:0:
320,192,20419,1,0,0:0:0:45:LR_Hat Normal.wav
448,192,20609,128,8,20798:0:0:0:0:
64,192,20798,128,0,20988:0:0:0:45:LR_Hat Normal.wav
192,192,20988,1,2,0:0:0:0:
320,192,21178,1,0,0:0:0:45:LR_Hat Normal.wav
448,192,21368,1,8,0:0:0:0:
64,192,21558,1,0,0:0:0:45:LR_Hat Normal.wav
192,192,21653,1,0,0:0:0:0:
448,192,21843,1,0,0:0:0:0:
320,192,21938,1,0,0:0:0:45:LR_Hat Normal.wav
64,192,22128,128,8,22507:0:0:0:0:
448,192,22507,1,2,0:0:0:0:
192,192,22697,1,0,0:0:0:45:LR_Hat Normal.wav
320,192,22887,1,8,0:0:0:0:
192,192,23077,1,0,0:0:0:45:LR_Hat Normal.wav
64,192,23172,1,0,0:0:0:0:
320,192,23362,1,0,0:0:0:0:
448,192,23457,1,0,0:0:0:45:LR_Hat Normal.wav
64,192,23647,128,10,23836:0:0:0:0:
448,192,23836,128,10,24026:0:0:0:0:
64,192,24216,1,10,0:0:0:0:
64,192,24406,1,10,0:0:0:0:
448,192,24596,1,10,0:0:0:0:
448,192,24786,128,10,25166:0:0:0:0:
192,192,25166,1,0,0:0:0:0:
320,192,25355,1,0,0:0:0:0:
64,192,25545,1,2,0:0:0:0:
448,192,25545,1,4,0:0:0:0:
320,192,25735,1,0,0:0:0:60:LR_HiHat Click.wav
192,192,25925,1,0,0:0:0:10:LR_Hat Normal.wav
64,192,26115,1,0,0:0:0:20:LR_Hat Normal.wav
320,192,26305,1,8,0:0:0:0:
448,192,26305,128,2,26590:0:0:0:0:
64,192,26590,128,2,26874:0:0:0:0:
192,192,26590,1,0,0:0:0:0:
320,192,26874,1,2,0:0:0:0:
448,192,26874,128,0,27064:0:0:0:0:
64,192,27254,1,0,0:0:0:60:LR_HiHat Click.wav
448,192,27444,1,0,0:0:0:60:LR_HiHat Click.wav
320,192,27634,1,0,0:0:0:60:LR_HiHat Click.wav
64,192,27824,128,10,28109:0:0:0:0:
192,192,27824,1,0,0:0:0:60:LR_HiHat Click.wav
320,192,28109,1,2,0:0:0:0:
448,192,28109,128,0,28393:0:0:0:60:LR_HiHat Click.wav
64,192,28393,128,2,28583:0:0:0:0:
192,192,28393,1,0,0:0:0:60:LR_HiHat Click.wav
320,192,28773,1,0,0:0:0:60:LR_HiHat Click.wav
64,192,28963,1,0,0:0:0:10:LR_Hat Normal.wav
448,192,29153,1,2,0:0:0:0:
192,192,29343,128,2,29628:0:0:0:0:
320,192,29343,1,8,0:0:0:0:
64,192,29628,1,2,0:0:0:0:
448,192,29628,128,0,29912:0:0:0:0:
192,192,29912,1,2,0:0:0:0:
320,192,29912,128,0,30102:0:0:0:60:LR_HiHat Click.wav
64,192,30292,1,0,0:0:0:60:LR_HiHat Click.wav
192,192,30482,1,0,0:0:0:60:LR_HiHat Click.wav
320,192,30672,1,2,0:0:0:0:
64,192,30862,1,0,0:0:0:70:LR_Snare Drum .wav
448,192,30862,1,0,0:0:0:0:
320,192,31052,1,2,0:0:0:0:
192,192,31242,1,2,0:0:0:0:
64,192,31431,1,2,0:0:0:0:
320,192,31621,1,2,0:0:0:0:
448,192,31621,1,0,0:0:0:0:
192,192,31811,1,0,0:0:0:60:LR_HiHat Click.wav
64,192,32001,1,0,0:0:0:10:LR_Hat Normal.wav
448,192,32191,1,0,0:0:0:20:LR_Hat Normal.wav
192,192,32381,128,2,32666:0:0:0:0:
320,192,32381,1,8,0:0:0:0:
64,192,32666,128,2,32950:0:0:0:0:
448,192,32666,1,0,0:0:0:60:LR_HiHat Click.wav
192,192,32950,1,2,0:0:0:0:
448,192,32950,128,0,33140:0:0:0:0:
192,192,33330,1,0,0:0:0:60:LR_HiHat Click.wav
320,192,33520,1,0,0:0:0:60:LR_HiHat Click.wav
448,192,33710,1,0,0:0:0:60:LR_HiHat Click.wav
64,192,33900,128,10,34185:0:0:0:0:
192,192,33900,1,0,0:0:0:60:LR_HiHat Click.wav
320,192,34185,1,2,0:0:0:0:
448,192,34185,128,0,34469:0:0:0:0:
64,192,34469,1,2,0:0:0:0:
320,192,34469,128,0,34659:0:0:0:0:
64,192,34849,1,0,0:0:0:60:LR_HiHat Click.wav
448,192,35039,1,0,0:0:0:10:LR_Hat Normal.wav
192,192,35229,1,2,0:0:0:0:
320,192,35419,1,2,0:0:0:0:
448,192,35419,128,8,35704:0:0:0:0:
64,192,35704,128,2,35988:0:0:0:0:
192,192,35704,1,0,0:0:0:0:
320,192,35988,1,6,0:0:0:0:
448,192,35988,1,0,0:0:0:70:LR_Snare Drum .wav
64,192,36273,1,0,0:0:0:70:LR_Snare Drum .wav
192,192,36273,1,0,0:0:0:0:
320,192,36463,1,0,0:0:0:70:LR_Snare Drum .wav
448,192,36463,1,0,0:0:0:0:
192,192,36748,1,2,0:0:0:0:
64,192,36938,1,4,0:0:0:0:
448,192,36938,128,0,37697:0:0:0:70:LR_Snare Drum .wav
320,192,37128,1,2,0:0:0:0:
64,192,37317,1,0,0:0:0:70:LR_Snare Drum .wav
192,192,37507,1,2,0:0:0:0:
64,192,37697,1,4,0:0:0:0:
320,192,37697,1,2,0:0:0:0:
192,192,37887,1,0,0:0:0:45:LR_Hat Normal.wav
320,192,38077,1,8,0:0:0:0:
448,192,38077,1,0,0:0:0:0:
64,192,38267,1,0,0:0:0:45:LR_Hat Normal.wav
448,192,38457,1,2,0:0:0:0:
320,192,38647,1,0,0:0:0:45:LR_Hat Normal.wav
64,192,38836,1,8,0:0:0:0:
192,192,38836,1,0,0:0:0:0:
448,192,39026,1,0,0:0:0:45:LR_Hat Normal.wav
192,192,39216,1,2,0:0:0:0:
320,192,39596,1,8,0:0:0:0:
448,192,39596,1,0,0:0:0:0:
192,192,39786,1,0,0:0:0:45:LR_Hat Normal.wav
64,192,39976,1,2,0:0:0:0:
448,192,40166,1,8,0:0:0:0:
192,192,40355,1,8,0:0:0:0:
320,192,40355,1,0,0:0:0:0:
64,192,40545,1,0,0:0:0:45:LR_Hat Normal.wav
448,192,40735,1,2,0:0:0:0:
64,192,41115,1,8,0:0:0:0:
320,192,41115,1,0,0:0:0:0:
192,192,41305,1,0,0:0:0:45:LR_Hat Normal.wav
448,192,41495,1,2,0:0:0:0:
320,192,41685,1,0,0:0:0:45:LR_Hat Normal.wav
64,192,41874,1,8,0:0:0:0:
192,192,41874,1,0,0:0:0:0:
320,192,42064,1,0,0:0:0:45:LR_Hat Normal.wav
448,192,42254,1,2,0:0:0:0:
64,192,42634,1,8,0:0:0:0:
320,192,42634,1,0,0:0:0:0:
192,192,42824,1,0,0:0:0:45:LR_Hat Normal.wav
320,192,43014,1,8,0:0:0:0:
448,192,43014,1,0,0:0:0:0:
192,192,43204,1,0,0:0:0:45:LR_Hat Normal.wav
64,192,43393,1,8,0:0:0:0:
448,192,43393,1,0,0:0:0:0:
320,192,43583,1,0,0:0:0:45:LR_Hat Normal.wav
192,192,43773,1,2,0:0:0:0:
320,192,44153,1,8,0:0:0:0:
448,192,44153,1,0,0:0:0:0:
192,192,44343,1,0,0:0:0:45:LR_Hat Normal.wav
64,192,44533,1,2,0:0:0:0:
320,192,44723,1,0,0:0:0:45:LR_Hat Normal.wav
64,192,44912,1,8,0:0:0:0:
448,192,44912,1,0,0:0:0:0:
192,192,45102,1,0,0:0:0:45:LR_Hat Normal.wav
448,192,45292,1,2,0:0:0:0:
64,192,45672,1,8,0:0:0:0:
192,192,45672,1,0,0:0:0:0:
448,192,45862,1,0,0:0:0:45:LR_Hat Normal.wav
192,192,46052,1,2,0:0:0:0:
448,192,46242,1,0,0:0:0:45:LR_Hat Normal.wav
320,192,46336,1,2,0:0:0:0:
64,192,46431,1,8,0:0:0:0:
192,192,46431,1,0,0:0:0:0:
320,192,46621,1,0,0:0:0:45:LR_Hat Normal.wav
64,192,46811,1,2,0:0:0:0:
448,192,46811,1,8,0:0:0:0:
64,192,47001,1,10,0:0:0:0:
320,192,47191,1,8,0:0:0:0:
448,192,47191,1,2,0:0:0:0:
320,192,47381,1,10,0:0:0:0:
64,192,47571,128,10,47760:0:0:0:0:
192,192,47760,128,10,47950:0:0:0:0:
320,192,47950,128,10,48140:0:0:0:0:
64,192,48140,1,2,0:0:0:0:
448,192,48140,1,0,0:0:0:40:cymbal_short.wav
192,192,48520,1,10,0:0:0:0:
320,192,48520,1,0,0:0:0:40:cymbal_short.wav
64,192,48900,128,12,49849:0:0:0:0:
448,192,48900,1,2,0:0:0:0:
192,192,49469,1,0,0:0:0:50:Tom 3.wav
320,192,49659,1,0,0:0:0:55:Tom 3.wav
192,192,49849,1,2,0:0:0:0:
448,192,49849,1,4,0:0:0:0:
320,192,50609,1,8,0:0:0:0:
448,192,50609,1,0,0:0:0:0:
64,192,50798,128,2,51178:0:0:0:0:
192,192,51178,128,2,51463:0:0:0:0:
64,192,52128,1,8,0:0:0:0:
192,192,52128,1,0,0:0:0:0:
448,192,52317,128,2,52697:0:0:0:0:
320,192,52697,128,2,52982:0:0:0:0:
320,192,53647,1,8,0:0:0:0:
448,192,53647,1,0,0:0:0:0:
64,192,53836,128,2,54216:0:0:0:0:
192,192,54216,128,2,54501:0:0:0:0:
64,192,54976,1,2,0:0:0:0:
192,192,54976,1,8,0:0:0:0:
320,192,55166,1,8,0:0:0:0:
448,192,55166,1,0,0:0:0:50:Tom 1.wav
64,192,55355,1,0,0:0:0:50:Tom 2.wav
320,192,55545,1,0,0:0:0:50:Tom 3.wav
192,192,55735,1,0,0:0:0:55:Tom 3.wav
320,192,55925,1,6,0:0:0:0:
448,192,55925,1,0,0:0:0:70:LR_Snare Hat 2.wav
320,192,56305,1,2,0:0:0:0:
448,192,56305,1,4,0:0:0:30:cymbal_short.wav
320,192,56685,1,2,0:0:0:0:
448,192,56685,1,4,0:0:0:40:cymbal_short.wav
320,192,57064,1,2,0:0:0:0:
448,192,57064,1,4,0:0:0:40:cymbal_short.wav
64,192,57444,1,2,0:0:0:0:
192,192,57444,1,4,0:0:0:40:cymbal_short.wav
64,192,57824,1,2,0:0:0:0:
192,192,57824,1,4,0:0:0:40:cymbal_short.wav
64,192,58204,1,2,0:0:0:0:
192,192,58204,1,4,0:0:0:40:cymbal_short.wav
64,192,58583,1,2,0:0:0:0:
192,192,58583,1,4,0:0:0:40:cymbal_short.wav
64,192,58963,1,2,0:0:0:0:
448,192,58963,1,8,0:0:0:0:
64,192,59153,1,10,0:0:0:0:
192,192,59343,1,8,0:0:0:0:
320,192,59343,1,2,0:0:0:0:
320,192,59533,1,10,0:0:0:0:
64,192,59723,128,10,59912:0:0:0:0:
192,192,59912,128,10,60102:0:0:0:0:
320,192,60102,128,10,60292:0:0:0:0:
448,192,60292,128,10,60482:0:0:0:0:
64,192,60482,128,0,60767:0:0:0:0:
320,192,60767,128,0,61052:0:0:0:0:
192,192,61052,128,0,61242:0:0:0:0:
448,192,61242,128,0,62001:0:0:0:0:
64,192,62001,128,0,62950:0:0:0:0:
192,192,62950,1,0,0:0:0:0:
320,192,63140,1,0,0:0:0:0:
448,192,63330,1,0,0:0:0:0:
64,192,63520,1,2,0:0:0:0:
192,192,63520,1,4,0:0:0:0:
320,192,63900,1,8,0:0:0:0:
448,192,63900,1,0,0:0:0:0:
192,192,64090,1,0,0:0:0:45:LR_Hat Normal.wav
64,192,64279,1,2,0:0:0:0:
448,192,64469,1,0,0:0:0:45:LR_Hat Normal.wav
64,192,64659,1,8,0:0:0:0:
320,192,64659,1,0,0:0:0:0:
192,192,64849,1,0,0:0:0:45:LR_Hat Normal.wav
320,192,65039,1,2,0:0:0:0:
192,192,65419,1,8,0:0:0:0:
448,192,65419,1,0,0:0:0:0:
64,192,65609,1,0,0:0:0:45:LR_Hat Normal.wav
192,192,65798,1,2,0:0:0:0:
320,192,65988,1,8,0:0:0:0:
448,192,65988,1,0,0:0:0:45:LR_Hat Normal.wav
448,192,66178,1,8,0:0:0:0:
64,192,66368,1,0,0:0:0:45:LR_Hat Normal.wav
320,192,66558,1,2,0:0:0:0:
192,192,66748,1,0,0:0:0:45:LR_Hat Normal.wav
64,192,66938,1,8,0:0:0:0:
448,192,66938,1,0,0:0:0:0:
64,192,67317,1,2,0:0:0:0:
192,192,67507,1,0,0:0:0:45:LR_Hat Normal.wav
320,192,67697,1,8,0:0:0:0:
448,192,67697,1,0,0:0:0:0:
64,192,67887,1,0,0:0:0:45:LR_Hat Normal.wav
448,192,68077,1,2,0:0:0:0:
64,192,68457,1,8,0:0:0:0:
192,192,68457,1,0,0:0:0:0:
448,192,68647,1,0,0:0:0:45:LR_Hat Normal.wav
320,192,68836,1,2,0:0:0:0:
192,192,69026,1,0,0:0:0:45:LR_Hat Normal.wav
64,192,69216,1,8,0:0:0:0:
320,192,69216,1,0,0:0:0:0:
448,192,69406,1,0,0:0:0:45:LR_Hat Normal.wav
64,192,69596,1,2,0:0:0:0:
320,192,69976,1,8,0:0:0:0:
448,192,69976,1,0,0:0:0:0:
192,192,70166,1,0,0:0:0:45:LR_Hat Normal.wav
64,192,70355,1,2,0:0:0:0:
448,192,70545,1,0,0:0:0:45:LR_Hat Normal.wav
64,192,70735,1,8,0:0:0:0:
320,192,70735,1,0,0:0:0:0:
192,192,70925,1,0,0:0:0:45:LR_Hat Normal.wav
320,192,71115,1,2,0:0:0:0:
192,192,71495,1,8,0:0:0:0:
448,192,71495,1,0,0:0:0:0:
64,192,71685,1,0,0:0:0:45:LR_Hat Normal.wav
192,192,71874,1,2,0:0:0:0:
320,192,72064,1,8,0:0:0:0:
448,192,72064,1,0,0:0:0:45:LR_Hat Normal.wav
448,192,72254,1,10,0:0:0:0:
64,192,72444,128,2,72824:0:0:0:0:
192,192,72444,1,4,0:0:0:0:
448,192,72824,1,2,0:0:0:0:
192,192,73014,1,8,0:0:0:0:
320,192,73014,1,0,0:0:0:0:
64,192,73204,1,2,0:0:0:0:
192,192,73393,1,8,0:0:0:0:
448,192,73393,1,0,0:0:0:50:LR_Snare Drum .wav
320,192,73583,1,2,0:0:0:0:
64,192,73773,1,8,0:0:0:0:
448,192,73773,1,0,0:0:0:50:LR_Snare Drum .wav
192,192,73963,1,2,0:0:0:0:
320,192,74153,1,2,0:0:0:0:
320,192,74343,1,2,0:0:0:0:
64,192,74533,1,2,0:0:0:0:
64,192,74723,1,2,0:0:0:0:
320,192,75102,1,2,0:0:0:0:
64,192,75292,1,14,0:0:0:0:
448,192,75292,1,0,0:0:0:50:LR_Snare Pop.wav
192,192,75482,1,2,0:0:0:0:
320,192,75672,1,2,0:0:0:0:
448,192,75672,1,4,0:0:0:0:
192,192,75862,1,0,0:0:0:45:LR_Hat Normal.wav
64,192,76052,1,8,0:0:0:0:
448,192,76052,1,0,0:0:0:0:
320,192,76242,1,0,0:0:0:45:LR_Hat Normal.wav
192,192,76431,1,2,0:0:0:0:
64,192,76621,1,0,0:0:0:45:LR_Hat Normal.wav
192,192,76811,1,8,0:0:0:0:
448,192,76811,1,0,0:0:0:0:
320,192,77001,1,0,0:0:0:45:LR_Hat Normal.wav
448,192,77191,1,2,0:0:0:0:
64,192,77571,1,8,0:0:0:0:
320,192,77571,1,0,0:0:0:0:
448,192,77760,1,0,0:0:0:45:LR_Hat Normal.wav
320,192,77950,1,2,0:0:0:0:
64,192,78140,1,8,0:0:0:0:
192,192,78140,1,0,0:0:0:45:LR_Hat Normal.wav
64,192,78330,1,8,0:0:0:0:
448,192,78520,1,0,0:0:0:45:LR_Hat Normal.wav
192,192,78710,1,2,0:0:0:0:
64,192,79090,1,8,0:0:0:0:
448,192,79090,1,0,0:0:0:0:
192,192,79279,1,0,0:0:0:45:LR_Hat Normal.wav
448,192,79469,1,2,0:0:0:0:
320,192,79659,1,0,0:0:0:45:LR_Hat Normal.wav
64,192,79849,1,8,0:0:0:0:
192,192,79849,1,0,0:0:0:0:
448,192,80039,1,0,0:0:0:45:LR_Hat Normal.wav
64,192,80229,1,2,0:0:0:0:
320,192,80609,1,8,0:0:0:0:
448,192,80609,1,0,0:0:0:0:
64,192,80798,1,0,0:0:0:45:LR_Hat Normal.wav
192,192,80988,1,2,0:0:0:0:
320,192,81178,1,0,0:0:0:45:LR_Hat Normal.wav
192,192,81368,1,8,0:0:0:0:
448,192,81368,1,0,0:0:0:0:
64,192,81558,1,0,0:0:0:45:LR_Hat Normal.wav
320,192,81748,1,4,0:0:0:0:
448,192,81748,1,2,0:0:0:0:
64,192,82128,1,8,0:0:0:0:
320,192,82128,1,0,0:0:0:0:
448,192,82317,1,0,0:0:0:45:LR_Hat Normal.wav
192,192,82507,1,2,0:0:0:0:
64,192,82697,1,0,0:0:0:45:LR_Hat Normal.wav
192,192,82887,1,8,0:0:0:0:
448,192,82887,1,0,0:0:0:0:
320,192,83077,1,0,0:0:0:45:LR_Hat Normal.wav
448,192,83267,1,2,0:0:0:0:
64,192,83647,1,8,0:0:0:0:
320,192,83647,1,0,0:0:0:0:
448,192,83836,1,0,0:0:0:45:LR_Hat Normal.wav
320,192,84026,1,2,0:0:0:0:
64,192,84216,1,8,0:0:0:0:
192,192,84216,1,0,0:0:0:45:LR_Hat Normal.wav
64,192,84406,1,8,0:0:0:0:
320,192,84596,1,2,0:0:0:0:
448,192,84596,128,4,84976:0:0:0:0:
192,192,84976,1,2,0:0:0:0:
64,192,85166,1,8,0:0:0:0:
320,192,85166,1,0,0:0:0:0:
448,192,85355,1,2,0:0:0:0:
192,192,85545,1,8,0:0:0:0:
320,192,85545,1,0,0:0:0:0:
64,192,85735,1,2,0:0:0:0:
192,192,85830,1,0,0:0:0:0:
320,192,85925,1,8,0:0:0:0:
448,192,85925,1,0,0:0:0:0:
64,192,86115,1,6,0:0:0:0:
192,192,86115,1,8,0:0:0:0:
448,192,86305,128,0,86590:0:0:0:0:
64,192,86590,128,0,86874:0:0:0:0:
320,192,86874,128,0,87064:0:0:0:45:LR_Hat Normal.wav
192,192,87064,128,2,87444:0:0:0:0:
320,192,87254,1,0,0:0:0:45:LR_Hat Normal.wav
64,192,87444,128,8,87824:0:0:0:0:
448,192,87444,1,0,0:0:0:0:
192,192,87824,1,4,0:0:0:0:
448,192,87824,1,2,0:0:0:0:
320,192,88014,1,0,0:0:0:45:LR_Hat Normal.wav
64,192,88204,1,8,0:0:0:0:
192,192,88204,1,0,0:0:0:0:
448,192,88393,1,0,0:0:0:45:LR_Hat Normal.wav
320,192,88583,1,2,0:0:0:0:
64,192,88773,1,0,0:0:0:45:LR_Hat Normal.wav
192,192,88963,1,8,0:0:0:0:
448,192,88963,1,0,0:0:0:0:
320,192,89153,1,0,0:0:0:45:LR_Hat Normal.wav
64,192,89343,1,2,0:0:0:0:
320,192,89723,1,8,0:0:0:0:
448,192,89723,1,0,0:0:0:0:
192,192,89912,1,0,0:0:0:45:LR_Hat Normal.wav
64,192,90102,1,2,0:0:0:0:
320,192,90292,1,8,0:0:0:0:
448,192,90292,1,0,0:0:0:45:LR_Hat Normal.wav
448,192,90482,1,8,0:0:0:0:
64,192,90672,128,2,91052:0:0:0:0:
192,192,90672,1,4,0:0:0:0:
320,192,91052,1,2,0:0:0:0:
192,192,91242,1,8,0:0:0:0:
448,192,91242,1,0,0:0:0:0:
64,192,91431,1,2,0:0:0:0:
192,192,91621,1,8,0:0:0:0:
320,192,91621,1,0,0:0:0:0:
448,192,91811,1,2,0:0:0:0:
320,192,91906,1,0,0:0:0:0:
64,192,92001,1,8,0:0:0:0:
192,192,92001,1,0,0:0:0:0:
320,192,92191,1,2,0:0:0:0:
448,192,92191,1,0,0:0:0:0:
64,192,92571,128,0,92760:0:0:0:0:
192,192,92760,128,0,92950:0:0:0:0:
448,192,92950,128,0,93330:0:0:0:0:
320,192,93330,128,0,93520:0:0:0:0:
64,192,93520,128,0,93710:0:0:0:0:
192,192,93710,128,0,93900:0:0:0:0:
448,192,93900,1,2,0:0:0:0:
64,192,94090,1,8,0:0:0:0:
320,192,94090,1,0,0:0:0:0:
192,192,94279,1,2,0:0:0:0:
448,192,94469,1,0,0:0:0:45:LR_Hat Normal.wav
320,192,94659,1,2,0:0:0:0:
192,192,94849,1,0,0:0:0:45:LR_Hat Normal.wav
64,192,95039,1,2,0:0:0:0:
320,192,95229,1,0,0:0:0:45:LR_Hat Normal.wav
64,192,95419,1,4,0:0:0:0:
448,192,95419,1,2,0:0:0:0:
192,192,95609,1,0,0:0:0:45:LR_Hat Normal.wav
320,192,95798,1,8,0:0:0:0:
448,192,95988,1,0,0:0:0:45:LR_Hat Normal.wav
192,192,96083,1,0,0:0:0:0:
64,192,96273,1,0,0:0:0:0:
320,192,96368,1,0,0:0:0:45:LR_Hat Normal.wav
448,192,96558,128,8,96748:0:0:0:0:
64,192,96748,128,0,96938:0:0:0:45:LR_Hat Normal.wav
192,192,96938,1,2,0:0:0:0:
320,192,97128,1,0,0:0:0:45:LR_Hat Normal.wav
448,192,97317,1,8,0:0:0:0:
64,192,97507,1,0,0:0:0:45:LR_Hat Normal.wav
192,192,97602,1,0,0:0:0:0:
448,192,97792,1,0,0:0:0:0:
320,192,97887,1,0,0:0:0:45:LR_Hat Normal.wav
64,192,98077,128,8,98457:0:0:0:0:
448,192,98457,1,2,0:0:0:0:
192,192,98647,1,0,0:0:0:45:LR_Hat Normal.wav
320,192,98836,1,8,0:0:0:0:
192,192,99026,1,0,0:0:0:45:LR_Hat Normal.wav
64,192,99121,1,0,0:0:0:0:
320,192,99311,1,0,0:0:0:0:
448,192,99406,1,0,0:0:0:45:LR_Hat Normal.wav
64,192,99596,128,8,99786:0:0:0:0:
448,192,99786,128,0,99976:0:0:0:45:LR_Hat Normal.wav
320,192,99976,1,2,0:0:0:0:
192,192,100166,128,0,100355:0:0:0:45:LR_Hat Normal.wav
448,192,100355,128,8,100545:0:0:0:0:
320,192,100545,128,0,100735:0:0:0:45:LR_Hat Normal.wav
64,192,100735,1,2,0:0:0:0:
64,192,100925,1,10,0:0:0:0:
448,192,101115,1,10,0:0:0:0:
448,192,101305,1,10,0:0:0:0:
64,192,101495,1,2,0:0:0:0:
192,192,101495,1,4,0:0:0:0:
320,192,101685,1,0,0:0:0:45:LR_Hat Normal.wav
192,192,101874,1,8,0:0:0:0:
64,192,102064,1,0,0:0:0:45:LR_Hat Normal.wav
320,192,102159,1,0,0:0:0:0:
448,192,102349,1,0,0:0:0:0:
192,192,102444,1,0,0:0:0:45:LR_Hat Normal.wav
64,192,102634,128,8,102824:0:0:0:0:
448,192,102824,128,0,103014:0:0:0:45:LR_Hat Normal.wav
320,192,103014,1,2,0:0:0:0:
192,192,103204,1,0,0:0:0:45:LR_Hat Normal.wav
64,192,103393,1,8,0:0:0:0:
448,192,103583,1,0,0:0:0:45:LR_Hat Normal.wav
320,192,103678,1,0,0:0:0:0:
64,192,103868,1,0,0:0:0:0:
192,192,103963,1,0,0:0:0:45:LR_Hat Normal.wav
448,192,104153,128,8,104533:0:0:0:0:
64,192,104533,1,2,0:0:0:0:
192,192,104533,1,4,0:0:0:0:
64,192,104817,1,8,0:0:0:0:
320,192,104817,1,0,0:0:0:0:
192,192,105102,1,8,0:0:0:0:
448,192,105102,1,0,0:0:0:0:
448,192,105292,1,2,0:0:0:0:
64,192,105482,1,8,0:0:0:0:
64,192,105672,1,10,0:0:0:0:
448,192,105862,128,0,106052:0:0:0:0:
64,192,106052,1,8,0:0:0:0:
320,192,106052,1,2,0:0:0:0:
192,192,106336,1,8,0:0:0:0:
448,192,106336,1,2,0:0:0:0:
64,192,106621,1,8,0:0:0:0:
192,192,106621,1,2,0:0:0:0:
320,192,106811,1,8,0:0:0:0:
448,192,106811,1,2,0:0:0:0:
192,192,107191,1,8,0:0:0:0:
320,192,107191,1,2,0:0:0:0:
64,192,107571,128,0,109090:0:0:0:80:LR_Long Bass.wav
192,192,107571,1,0,0:0:0:0:
448,192,109090,1,0,0:0:0:0:
