osu file format v14

[General]
AudioFilename: audio.mp3
AudioLeadIn: 0
PreviewTime: 17964
Countdown: 1
SampleSet: Normal
StackLeniency: 0.3
Mode: 0
LetterboxInBreaks: 0
WidescreenStoryboard: 0

[Editor]
Bookmarks: 59461,59550,59640,109221,132934,133023,133113,191137,206317,216287,234251
DistanceSpacing: 1.4
BeatDivisor: 4
GridSize: 8
TimelineZoom: 1

[Metadata]
Title:Finale
TitleUnicode:Finale
Artist:Absoute Zero/
ArtistUnicode:AbsoЯute Zero/あき
Creator:SDpeople
Version:Blossom
Source:東方Project
Tags:東方妖々夢 ~ Perfect Cherry Blossom.
BeatmapID:2046091
BeatmapSetID:977623

[Difficulty]
HPDrainRate:5
CircleSize:4
OverallDifficulty:6
ApproachRate:8.6
SliderMultiplier:1.89999990463257
SliderTickRate:1

[Events]
//Background and Video events
0,0,"BG.jpg",0,0
//Break Periods
//Storyboard Layer 0 (Background)
//Storyboard Layer 1 (Fail)
//Storyboard Layer 2 (Pass)
//Storyboard Layer 3 (Foreground)
//Storyboard Sound Samples

[TimingPoints]
0,359.281437125748,4,1,0,80,1,0
19491,-100,4,1,0,5,0,0
19580,-100,4,1,0,80,0,0
20928,-100,4,1,0,5,0,0
21017,-100,4,1,0,80,0,0
25239,-100,4,1,0,5,0,0
25329,-100,4,1,0,80,0,0
26676,-100,4,1,0,5,0,0
26766,-100,4,1,0,80,0,0
30988,-100,4,1,0,5,0,0
31077,-100,4,1,0,80,0,0
32425,-100,4,1,0,5,0,0
32514,-100,4,1,0,80,0,0
40059,-133.333333333333,4,1,0,80,0,0
42395,-100,4,1,0,80,0,0
43113,-100,4,1,0,80,0,0
212694,-133.333333333333,4,1,0,80,0,0
214131,-100,4,1,0,80,0,0
215568,-100,4,1,0,5,0,0
216287,-100,4,1,0,80,0,0
260119,-133.333333333333,4,1,0,80,0,0
262994,-133.333333333333,4,1,0,5,0,0

[HitObjects]
73,0,0,6,0,L|160:67,1,94.9999952316283
224,167,359,2,0,P|262:130|266:85,1,94.9999952316285
108,122,718,2,0,P|86:164|103:210,1,94.9999952316285
165,323,1077,2,0,B|214:316|214:316|251:255,1,94.9999952316285
431,367,1437,6,0,L|344:300,1,94.9999952316283
280,200,1796,2,0,P|242:237|238:282,1,94.9999952316285
396,245,2155,2,0,P|418:203|401:157,1,94.9999952316285
339,44,2514,2,0,B|290:51|290:51|253:112,1,94.9999952316285
289,256,2874,6,0,L|204:206,1,94.9999952316285
89,145,3233,2,0,P|73:200|89:236,1,94.9999952316285
207,207,3592,2,0,L|256:97,1,94.9999952316285
291,14,3952,2,0,P|335:47|342:90,1,94.9999952316285
282,264,4311,6,0,L|195:197,1,94.9999952316283
337,175,4670,2,0,L|424:242,1,94.9999952316283
509,323,5029,2,0,P|468:353|423:354,1,94.9999952316285
291,356,5389,2,0,B|282:262,1,94.9999952316285
201,61,5748,6,0,L|114:128,1,94.9999952316283
133,251,6107,2,0,L|220:184,1,94.9999952316283
310,106,6467,2,0,P|328:54|299:19,1,94.9999952316285
174,25,6826,2,0,P|156:77|185:112,1,94.9999952316285
347,283,7185,6,0,L|260:216,1,94.9999952316283
171,137,7544,2,0,P|222:115|267:134,1,94.9999952316285
364,204,7904,2,0,P|411:155|414:111,1,94.9999952316285
308,52,8263,2,0,P|261:101|258:145,1,94.9999952316285
95,144,8622,6,0,L|29:126,3,47.4999976158143
104,222,8982,2,0,L|36:233,3,47.4999976158143
145,288,9341,2,0,L|88:326,3,47.4999976158143
210,330,9700,2,0,L|175:389,3,47.4999976158143
287,337,10059,6,0,L|280:405,3,47.4999976158143
362,314,10419,2,0,L|385:378,3,47.4999976158143
420,262,10778,2,0,L|468:310,3,47.4999976158143
450,191,11137,2,0,L|514:214,3,47.4999976158143
406,118,11497,6,0,L|474:112,3,47.4999976158143
325,79,11856,2,0,L|385:45,3,47.4999976158143
237,96,12215,2,0,L|277:40,3,47.4999976158143
165,147,12574,2,0,L|177:79,3,47.4999976158143
192,233,12934,6,0,L|150:289,15,47.4999976158143
283,210,14371,6,0,L|325:266,15,47.4999976158143
226,149,15808,6,0,L|268:93,14,47.4999976158143
215,250,17964,5,0,0:0:0:0:
121,42,18323,1,0,0:0:0:0:
23,248,18682,2,0,P|58:333|121:259,1,189.999990463257
192,218,19221,2,0,P|288:191|335:232,1,142.499992847443
342,225,19580,1,0,0:0:0:0:
443,297,19760,1,0,0:0:0:0:
130,266,20119,6,0,P|210:310|214:214,1,189.999990463257
246,138,20658,2,0,P|305:58|369:60,1,142.499992847443
369,51,21017,1,0,0:0:0:0:
493,46,21197,1,0,0:0:0:0:
318,18,21556,5,2,0:0:0:0:
354,320,21916,1,2,0:0:0:0:
74,200,22275,1,2,0:0:0:0:
320,21,22634,1,2,0:0:0:0:
320,21,22994,2,0,B|344:68|344:68|326:123|326:123|259:152|259:152|195:102|195:102|200:36|200:36|256:-1,1,379.999980926514,2|0,0:0|0:0,0:0:0:0:
420,149,24431,6,0,P|380:232|321:155,1,189.999990463257
252,110,24970,2,0,P|157:79|107:117,1,142.499992847443
102,110,25329,1,0,0:0:0:0:
5,176,25508,1,0,0:0:0:0:
6,55,25868,6,0,P|34:142|103:75,1,189.999990463257
172,36,26407,2,0,P|270:18|314:63,1,142.499992847443
320,67,26766,1,0,0:0:0:0:
413,169,26946,1,0,0:0:0:0:
194,18,27305,5,2,0:0:0:0:
158,320,27664,1,2,0:0:0:0:
438,200,28023,1,2,0:0:0:0:
192,21,28383,1,2,0:0:0:0:
192,21,28742,2,0,B|145:47|145:47|129:102|129:102|169:164|169:164|250:158|250:158|282:101|282:101|257:38,1,379.999980926514,2|0,0:0|0:0,0:0:0:0:
489,143,29820,5,0,0:0:0:0:
489,143,29999,1,0,0:0:0:0:
489,143,30179,2,0,B|455:234|455:234|355:279,1,189.999990463257
273,231,30718,2,0,B|206:207|206:207|139:262,1,142.499992847443
120,280,31077,1,0,0:0:0:0:
92,384,31257,1,0,0:0:0:0:
92,384,31616,6,0,B|187:366|187:366|249:275,1,189.999990463257
216,186,32155,2,0,B|203:115|203:115|269:59,1,142.499992847443
290,44,32514,1,0,0:0:0:0:
398,34,32694,1,0,0:0:0:0:
377,317,33053,5,2,0:0:0:0:
464,25,33413,1,2,0:0:0:0:
377,317,33772,1,2,0:0:0:0:
464,25,34131,1,2,0:0:0:0:
448,328,34491,2,0,B|422:375|422:375|367:391|367:391|305:351|305:351|311:270|311:270|368:238|368:238|431:263,1,379.999980926514,2|0,0:0|0:0,0:0:0:0:
453,120,35928,6,0,B|430:43|350:42|350:42|310:118|310:118|256:113|256:113|191:119|191:119|164:38|164:38|88:40|58:119,1,569.999971389771
52,220,37365,2,0,B|87:300|158:310|158:310|182:231|256:210|256:210|322:231|346:315|346:315|420:290|453:218,1,569.999971389771
455,119,38802,1,2,0:0:0:0:
253,62,39161,1,2,0:0:0:0:
304,265,39520,1,2,0:0:0:0:
455,120,39880,1,2,0:0:0:0:
455,120,40059,2,0,P|288:176|203:124,1,284.999996566773,2|0,0:0|0:0,0:0:0:0:
165,56,40958,5,0,0:0:0:0:
156,42,41137,1,0,0:0:0:0:
148,27,41317,1,0,0:0:0:0:
141,14,41497,1,0,0:0:0:0:
132,0,41676,2,0,P|69:21|47:90,1,142.499998283386
64,182,42215,1,0,0:0:0:0:
86,275,42395,2,0,B|160:292|160:292|308:132,1,284.999985694885
410,123,43113,6,0,L|440:230,1,94.9999952316285
302,138,43473,2,0,L|312:248,1,94.9999952316285
194,135,43832,2,0,L|183:245,1,94.9999952316285
86,120,44191,2,0,L|56:227,1,94.9999952316285
33,322,44550,6,0,L|22:211,1,94.9999952316285
141,325,44910,2,0,L|149:214,1,94.9999952316285
247,347,45269,2,0,L|277:240,1,94.9999952316285
351,381,45628,2,0,L|399:280,1,94.9999952316285
438,156,45988,6,0,L|328:166,1,94.9999952316285
442,47,46347,2,0,L|332:38,1,94.9999952316285
436,181,46706,2,0,L|326:191,1,94.9999952316285
444,23,47065,2,0,L|334:14,1,94.9999952316285
158,51,47425,6,0,L|265:23,1,94.9999952316285
171,159,47784,2,0,L|281:150,1,94.9999952316285
156,25,48143,2,0,L|263:-2,1,94.9999952316285
172,183,48502,2,0,L|282:174,1,94.9999952316285
446,135,48862,6,0,P|391:76|350:86,1,94.9999952316285
359,171,49221,2,0,P|304:154|285:103,1,94.9999952316285
298,31,49580,1,0,0:0:0:0:
298,31,49760,1,0,0:0:0:0:
202,71,49940,1,0,0:0:0:0:
202,71,50119,1,0,0:0:0:0:
158,225,50299,6,0,P|213:284|254:274,1,94.9999952316285
245,189,50658,2,0,P|300:206|319:257,1,94.9999952316285
306,329,51017,1,0,0:0:0:0:
306,329,51197,1,0,0:0:0:0:
402,289,51377,1,0,0:0:0:0:
402,289,51556,1,0,0:0:0:0:
256,192,51736,12,0,59281,0:0:0:0:
163,264,59640,6,0,L|149:143,1,94.9999952316285,2|0,0:0|0:0,0:0:0:0:
139,57,59999,1,0,0:0:0:0:
247,107,60179,2,0,L|383:126,1,94.9999952316285,8|0,0:0|0:0,0:0:0:0:
460,221,60538,6,0,P|497:269|506:313,3,94.9999952316285
389,325,61257,6,0,L|272:359,1,94.9999952316285,2|2,0:0|0:0,0:0:0:0:
185,384,61616,1,8,0:0:0:0:
210,272,61796,1,8,0:0:0:0:
135,122,61976,6,0,P|86:136|64:209,3,94.9999952316285
56,275,62694,5,8,0:0:0:0:
140,351,62874,1,8,0:0:0:0:
260,230,63053,1,8,0:0:0:0:
344,80,63233,1,2,0:0:0:0:
180,30,63413,1,2,0:0:0:0:
192,199,63592,1,2,0:0:0:0:
356,151,63772,1,2,0:0:0:0:
252,15,63952,1,2,0:0:0:0:
138,141,64131,1,2,0:0:0:0:
299,198,64311,1,2,0:0:0:0:
299,198,64491,2,0,B|342:229|342:229|399:220|399:220|438:158|438:158|398:87|398:87|333:82|333:82|286:131,1,379.999980926514,2|8,0:0|0:0,0:0:0:0:
45,132,65568,5,2,0:0:0:0:
40,246,65748,1,2,0:0:0:0:
117,329,65928,2,8,P|171:342|220:324,1,94.9999952316285
369,273,66287,6,0,L|317:161,3,94.9999952316285
283,81,67005,5,2,0:0:0:0:
181,28,67185,1,2,0:0:0:0:
87,92,67365,2,0,P|48:133|44:200,1,94.9999952316285,8|0,0:0|0:0,0:0:0:0:
63,338,67724,6,0,L|192:321,3,94.9999952316285
271,313,68443,5,8,0:0:0:0:
375,268,68622,1,8,0:0:0:0:
450,146,68802,1,8,0:0:0:0:
321,47,68982,1,2,0:0:0:0:
332,207,69161,1,2,0:0:0:0:
430,78,69341,1,2,0:0:0:0:
270,96,69520,1,2,0:0:0:0:
400,191,69700,1,2,0:0:0:0:
375,30,69880,1,2,0:0:0:0:
289,166,70059,1,2,0:0:0:0:
447,131,70239,2,0,P|479:201|430:267,1,142.499992847443
425,282,70598,1,0,0:0:0:0:
448,131,70778,1,0,0:0:0:0:
425,282,70958,1,0,0:0:0:0:
448,131,71137,1,0,0:0:0:0:
418,339,71856,6,0,L|521:396,1,94.9999952316285,2|8,0:0|0:0,0:0:0:0:
345,295,72215,2,0,B|260:246,1,94.9999952316285,2|8,0:0|0:0,0:0:0:0:
15,85,72754,5,0,0:0:0:0:
157,210,72934,1,0,0:0:0:0:
204,76,73113,1,0,0:0:0:0:
346,201,73293,5,2,0:0:0:0:
136,8,73652,1,2,0:0:0:0:
5,262,74011,1,2,0:0:0:0:
286,213,74371,1,2,0:0:0:0:
396,109,74730,6,0,B|434:169|434:169|488:168,1,94.9999952316285,2|8,0:0|0:0,0:0:0:0:
497,71,75089,2,0,B|459:11|459:11|405:12,1,94.9999952316285,2|8,0:0|0:0,0:0:0:0:
332,34,75449,2,0,B|241:134,2,94.9999952316285
190,130,75988,6,0,B|198:178|198:178|274:187,1,94.9999952316285,8|0,0:0|0:0,0:0:0:0:
327,166,76347,1,2,0:0:0:0:
223,261,76526,1,2,0:0:0:0:
344,285,76706,1,0,0:0:0:0:
241,180,76886,1,8,0:0:0:0:
94,339,77604,6,0,L|-9:396,1,94.9999952316285,2|8,0:0|0:0,0:0:0:0:
167,295,77964,2,0,B|252:246,1,94.9999952316285,2|8,0:0|0:0,0:0:0:0:
497,85,78502,5,0,0:0:0:0:
355,210,78682,1,0,0:0:0:0:
308,76,78862,1,0,0:0:0:0:
166,201,79041,5,2,0:0:0:0:
376,8,79401,1,2,0:0:0:0:
507,262,79760,1,2,0:0:0:0:
226,213,80119,1,2,0:0:0:0:
116,109,80479,6,0,B|78:169|78:169|24:168,1,94.9999952316285,2|8,0:0|0:0,0:0:0:0:
15,71,80838,2,0,B|53:11|53:11|107:12,1,94.9999952316285,2|8,0:0|0:0,0:0:0:0:
180,34,81197,2,0,B|271:134,2,94.9999952316285
322,130,81736,6,0,B|314:178|314:178|238:187,1,94.9999952316285,8|0,0:0|0:0,0:0:0:0:
185,166,82095,1,2,0:0:0:0:
289,261,82275,1,2,0:0:0:0:
168,285,82455,1,0,0:0:0:0:
271,180,82634,1,0,0:0:0:0:
168,285,82814,1,0,0:0:0:0:
271,180,82994,2,0,B|246:140|246:140|298:75,1,94.9999952316285,8|0,0:0|0:0,0:0:0:0:
396,109,83353,6,0,B|434:169|488:168,1,94.9999952316285,2|8,0:0|0:0,0:0:0:0:
497,71,83712,2,0,B|459:11|405:12,1,94.9999952316285,2|8,0:0|0:0,0:0:0:0:
332,34,84071,2,0,B|241:134,2,94.9999952316285
182,136,84610,6,0,P|188:167|262:165,1,94.9999952316285,8|0,0:0|0:0,0:0:0:0:
327,166,84970,1,2,0:0:0:0:
223,261,85149,1,2,0:0:0:0:
344,285,85329,1,0,0:0:0:0:
241,180,85508,1,0,0:0:0:0:
344,285,85688,1,0,0:0:0:0:
241,180,85868,2,0,L|162:100,1,94.9999952316285,8|0,0:0|0:0,0:0:0:0:
48,47,86227,6,0,L|-7:136,1,94.9999952316285,2|8,0:0|0:0,0:0:0:0:
62,207,86586,2,0,L|117:118,1,94.9999952316285,2|8,0:0|0:0,0:0:0:0:
155,40,86946,2,0,L|254:38,1,94.9999952316285
409,71,87485,6,0,L|478:176,1,94.9999952316285
398,254,87844,1,0,0:0:0:0:
292,214,88023,1,0,0:0:0:0:
298,100,88203,1,0,0:0:0:0:
488,254,88383,1,0,0:0:0:0:
220,152,88562,1,0,0:0:0:0:
434,0,88742,2,0,L|458:100,1,94.9999952316285
375,148,89101,6,0,P|403:189|407:262,1,94.9999952316285,2|0,0:0|0:0,0:0:0:0:
331,328,89461,6,0,P|336:277|304:220,1,94.9999952316285,2|0,0:0|0:0,0:0:0:0:
193,217,89820,6,0,P|229:260|225:331,1,94.9999952316285,2|0,0:0|0:0,0:0:0:0:
135,384,90179,6,0,L|108:276,1,94.9999952316285,2|4,0:0|0:0,0:0:0:0:
351,120,91257,5,8,0:0:0:0:
366,317,91616,2,0,L|212:337,1,142.499992847443,8|0,0:0|0:0,0:0:0:0:
195,325,91976,1,0,0:0:0:0:
0,316,92335,1,0,0:0:0:0:
225,187,92514,2,0,P|186:162|142:173,1,94.9999952316285
280,380,92874,1,2,0:0:0:0:
280,380,93053,1,2,0:0:0:0:
413,201,93413,6,0,L|260:170,1,142.499992847443,8|0,0:0|0:0,0:0:0:0:
242,181,93772,1,0,0:0:0:0:
263,320,93952,2,0,P|222:342|178:328,1,94.9999952316285
330,132,94311,1,2,0:0:0:0:
330,132,94491,1,2,0:0:0:0:
169,334,94850,5,8,0:0:0:0:
122,33,95209,1,0,0:0:0:0:
424,5,95568,1,0,0:0:0:0:
477,304,95928,1,0,0:0:0:0:
167,335,96287,2,0,P|194:85|466:98,1,569.999971389771,0|8,0:0|0:0,0:0:0:0:
444,263,97724,6,0,L|472:110,1,142.499992847443,8|0,0:0|0:0,0:0:0:0:
460,92,98083,1,0,0:0:0:0:
321,116,98263,2,0,P|297:75|310:31,1,94.9999952316285
511,180,98622,1,2,0:0:0:0:
511,180,98802,1,2,0:0:0:0:
325,303,99161,6,0,L|302:149,1,142.499992847443,8|0,0:0|0:0,0:0:0:0:
314,132,99520,1,0,0:0:0:0:
452,160,99700,2,0,P|476:120|464:75,1,94.9999952316285
261,217,100059,1,2,0:0:0:0:
261,217,100239,1,2,0:0:0:0:
471,67,100598,5,8,0:0:0:0:
173,4,100958,1,0,0:0:0:0:
129,304,101317,1,0,0:0:0:0:
425,373,101676,1,0,0:0:0:0:
471,67,102035,2,0,B|476:120|476:120|440:165|440:165|367:167|367:167|325:98|325:98|353:39|353:39|419:23,1,379.999980926514,0|8,0:0|0:0,0:0:0:0:
405,97,103113,5,0,0:0:0:0:
324,177,103293,1,0,0:0:0:0:
391,269,103473,2,0,P|460:240|519:151,1,142.499992847443,8|0,0:0|0:0,0:0:0:0:
505,154,103832,1,0,0:0:0:0:
471,16,104011,2,0,L|365:-12,1,94.9999952316285
418,184,104371,1,2,0:0:0:0:
418,184,104550,1,2,0:0:0:0:
466,356,104910,6,0,P|394:380|291:350,1,142.499992847443,8|0,0:0|0:0,0:0:0:0:
304,343,105269,1,0,0:0:0:0:
239,217,105449,2,0,L|300:126,1,94.9999952316285
389,309,105808,1,2,0:0:0:0:
389,309,105988,1,2,0:0:0:0:
73,382,106347,5,8,0:0:0:0:
0,67,106706,1,0,0:0:0:0:
316,2,107065,1,0,0:0:0:0:
389,309,107425,1,0,0:0:0:0:
456,278,107784,2,0,B|461:331|461:331|425:376|425:376|352:378|352:378|310:309|310:309|338:250|338:250|404:234,1,379.999980926514,0|8,0:0|0:0,0:0:0:0:
0,213,109221,6,0,P|1:304|194:361,2,284.999985694885
184,171,110658,6,0,P|183:80|-10:23,2,284.999985694885
0,213,112095,5,2,0:0:0:0:
75,155,112455,1,2,0:0:0:0:
176,207,112814,1,2,0:0:0:0:
292,143,113173,1,2,0:0:0:0:
292,143,113353,2,0,B|345:138|345:138|390:174|390:174|392:247|392:247|323:289|323:289|264:261|264:261|248:195,1,379.999980926514,2|0,0:0|0:0,0:0:0:0:
321,210,114251,5,0,0:0:0:0:
321,210,114431,1,0,0:0:0:0:
321,210,114610,1,0,0:0:0:0:
321,210,114790,1,0,0:0:0:0:
321,210,114970,2,0,P|254:115|216:145,1,189.999990463257
209,249,115508,1,0,0:0:0:0:
209,249,115688,2,0,P|143:301|12:183,1,284.999985694885
55,87,116407,6,0,L|190:54,1,94.9999952316285
107,181,116766,2,0,L|242:148,1,94.9999952316285
159,275,117125,1,0,0:0:0:0:
199,158,117305,1,0,0:0:0:0:
312,206,117485,1,0,0:0:0:0:
271,322,117664,1,0,0:0:0:0:
489,325,117844,6,0,L|356:283,1,94.9999952316285
491,217,118203,2,0,L|358:175,1,94.9999952316285
496,109,118562,1,0,0:0:0:0:
401,189,118742,1,0,0:0:0:0:
329,90,118922,1,0,0:0:0:0:
424,12,119101,1,0,0:0:0:0:
401,189,119281,6,0,P|354:262|316:278,1,94.9999952316285
282,161,119640,2,0,P|199:134|174:101,1,94.9999952316285
206,253,119999,1,0,0:0:0:0:
154,328,120179,1,0,0:0:0:0:
87,225,120359,1,0,0:0:0:0:
0,194,120538,1,0,0:0:0:0:
108,52,120718,6,0,P|185:12|226:17,1,94.9999952316285
197,135,121077,2,0,P|255:199|260:240,1,94.9999952316285
308,94,121437,1,0,0:0:0:0:
391,53,121616,1,0,0:0:0:0:
397,177,121796,1,0,0:0:0:0:
457,246,121976,1,0,0:0:0:0:
449,83,122155,6,0,L|314:50,1,94.9999952316285
397,177,122514,2,0,L|262:144,1,94.9999952316285
345,271,122874,1,0,0:0:0:0:
305,154,123053,1,0,0:0:0:0:
192,202,123233,1,0,0:0:0:0:
233,318,123413,1,0,0:0:0:0:
15,321,123592,6,0,L|148:279,1,94.9999952316285
13,213,123952,2,0,L|146:171,1,94.9999952316285
8,105,124311,1,0,0:0:0:0:
103,185,124491,1,0,0:0:0:0:
175,86,124670,1,0,0:0:0:0:
80,8,124850,1,0,0:0:0:0:
256,192,125029,12,0,132754,0:0:0:0:
353,274,133113,6,0,L|339:378,1,94.9999952316285,2|0,0:0|0:0,0:0:0:0:
369,152,133473,1,2,0:0:0:0:
322,27,133652,2,0,L|214:55,1,94.9999952316285,8|0,0:0|0:0,0:0:0:0:
57,87,134011,6,0,P|13:44|-1:2,2,94.9999952316285
166,162,134550,6,0,L|283:196,1,94.9999952316285,8|0,0:0|0:0,0:0:0:0:
370,221,134910,1,2,0:0:0:0:
345,109,135089,1,2,0:0:0:0:
212,292,135269,6,0,P|163:278|141:205,3,94.9999952316285
212,136,135988,5,8,0:0:0:0:
317,217,136167,1,8,0:0:0:0:
344,87,136347,1,2,0:0:0:0:
168,80,136526,1,2,0:0:0:0:
332,30,136706,1,2,0:0:0:0:
320,199,136886,1,2,0:0:0:0:
156,151,137065,1,2,0:0:0:0:
260,15,137245,1,2,0:0:0:0:
374,141,137425,1,2,0:0:0:0:
213,198,137604,1,2,0:0:0:0:
213,198,137784,2,0,B|170:229|170:229|113:220|113:220|74:158|74:158|114:87|114:87|179:82|179:82|226:131,1,379.999980926514,2|0,0:0|0:0,0:0:0:0:
370,57,138862,5,2,0:0:0:0:
467,132,139041,1,2,0:0:0:0:
472,246,139221,1,2,0:0:0:0:
445,59,139401,2,0,P|400:92|384:142,1,94.9999952316285,8|0,0:0|0:0,0:0:0:0:
348,311,139760,6,0,L|446:385,2,94.9999952316285
253,215,140299,5,2,0:0:0:0:
355,162,140479,1,2,0:0:0:0:
449,226,140658,2,0,P|488:267|492:334,1,94.9999952316285,8|0,0:0|0:0,0:0:0:0:
348,311,141017,6,0,L|219:294,3,94.9999952316285
247,164,141736,5,8,0:0:0:0:
143,246,141916,1,8,0:0:0:0:
62,146,142095,1,2,0:0:0:0:
191,47,142275,1,2,0:0:0:0:
180,207,142455,1,2,0:0:0:0:
82,78,142634,1,2,0:0:0:0:
242,96,142814,1,2,0:0:0:0:
112,191,142994,1,2,0:0:0:0:
137,30,143173,1,2,0:0:0:0:
223,166,143353,2,0,P|255:236|206:302,1,142.499992847443
201,317,143712,1,0,0:0:0:0:
224,166,143892,1,0,0:0:0:0:
201,317,144071,1,0,0:0:0:0:
224,166,144251,1,0,0:0:0:0:
201,317,144431,1,0,0:0:0:0:
94,339,145149,6,0,L|-9:396,1,94.9999952316285,2|8,0:0|0:0,0:0:0:0:
0,252,145508,2,0,B|85:203,1,94.9999952316285,2|8,0:0|0:0,0:0:0:0:
420,136,146047,5,0,0:0:0:0:
320,224,146227,1,0,0:0:0:0:
274,98,146407,1,0,0:0:0:0:
167,176,146586,5,2,0:0:0:0:
370,4,146946,1,2,0:0:0:0:
467,251,147305,1,2,0:0:0:0:
167,176,147664,1,2,0:0:0:0:
420,256,148023,6,0,B|382:316|382:316|328:315,1,94.9999952316285,2|8,0:0|0:0,0:0:0:0:
235,261,148383,2,0,B|273:201|273:201|327:202,1,94.9999952316285,2|8,0:0|0:0,0:0:0:0:
428,182,148742,2,0,B|452:203|474:206|474:206|472:223|502:256,2,94.9999952316285
344,78,149281,6,0,B|336:126|336:126|260:135,1,94.9999952316285,8|0,0:0|0:0,0:0:0:0:
213,22,149640,1,2,0:0:0:0:
285,214,149820,1,2,0:0:0:0:
161,164,149999,1,0,0:0:0:0:
344,78,150179,1,8,0:0:0:0:
418,339,150898,6,0,L|521:396,1,94.9999952316285,2|8,0:0|0:0,0:0:0:0:
508,251,151257,2,0,B|423:202,1,94.9999952316285,2|8,0:0|0:0,0:0:0:0:
166,143,151796,5,0,0:0:0:0:
188,274,151976,1,0,0:0:0:0:
295,196,152155,1,0,0:0:0:0:
271,64,152335,5,2,0:0:0:0:
56,220,152694,1,2,0:0:0:0:
303,316,153053,1,2,0:0:0:0:
271,64,153413,1,2,0:0:0:0:
396,122,153772,6,0,B|434:182|434:182|488:181,1,94.9999952316285,2|8,0:0|0:0,0:0:0:0:
510,58,154131,2,0,B|472:-2|472:-2|418:-1,1,94.9999952316285,2|8,0:0|0:0,0:0:0:0:
339,76,154491,2,0,B|330:111|320:121|320:121|330:133|339:181,2,94.9999952316285
213,34,155029,6,0,B|165:23|165:23|128:90,1,94.9999952316285,8|0,0:0|0:0,0:0:0:0:
335,163,155389,1,2,0:0:0:0:
223,261,155568,1,2,0:0:0:0:
344,285,155748,1,0,0:0:0:0:
241,180,155928,1,0,0:0:0:0:
275,307,156107,1,0,0:0:0:0:
308,152,156287,2,0,B|286:132|282:113|282:113|258:117|236:106,1,94.9999952316285,8|0,0:0|0:0,0:0:0:0:
116,109,156646,6,0,B|78:169|24:168,1,94.9999952316285,2|8,0:0|0:0,0:0:0:0:
15,71,157005,2,0,B|53:11|107:12,1,94.9999952316285,2|8,0:0|0:0,0:0:0:0:
180,34,157365,2,0,B|271:134,2,94.9999952316285
330,136,157904,6,0,P|324:167|250:165,1,94.9999952316285,8|0,0:0|0:0,0:0:0:0:
185,166,158263,1,2,0:0:0:0:
289,261,158443,1,2,0:0:0:0:
168,285,158622,1,0,0:0:0:0:
271,180,158802,1,0,0:0:0:0:
168,285,158982,1,0,0:0:0:0:
271,180,159161,2,0,L|350:100,1,94.9999952316285,8|0,0:0|0:0,0:0:0:0:
464,47,159520,6,0,L|519:136,1,94.9999952316285,2|8,0:0|0:0,0:0:0:0:
450,207,159880,2,0,L|395:118,1,94.9999952316285,2|8,0:0|0:0,0:0:0:0:
357,40,160239,2,0,L|258:38,1,94.9999952316285,8|0,0:0|0:0,0:0:0:0:
103,71,160778,6,0,L|34:176,1,94.9999952316285
114,254,161137,1,0,0:0:0:0:
220,214,161317,1,0,0:0:0:0:
214,100,161497,1,0,0:0:0:0:
24,254,161676,1,0,0:0:0:0:
292,152,161856,1,0,0:0:0:0:
78,0,162035,2,0,L|54:100,1,94.9999952316285
137,148,162395,6,0,P|109:189|105:262,1,94.9999952316285,2|0,0:0|0:0,0:0:0:0:
181,328,162754,6,0,P|176:277|208:220,1,94.9999952316285,2|0,0:0|0:0,0:0:0:0:
319,217,163113,6,0,P|283:260|287:331,1,94.9999952316285
377,384,163473,6,0,L|404:276,1,94.9999952316285,2|4,0:0|0:0,0:0:0:0:
161,120,164550,5,8,0:0:0:0:
146,317,164910,2,0,L|300:337,1,142.499992847443,8|0,0:0|0:0,0:0:0:0:
317,325,165269,1,0,0:0:0:0:
512,316,165628,1,0,0:0:0:0:
287,187,165808,2,0,P|326:162|370:173,1,94.9999952316285
351,305,166167,1,2,0:0:0:0:
320,124,166347,1,2,0:0:0:0:
99,201,166706,6,0,L|252:170,1,142.499992847443,8|0,0:0|0:0,0:0:0:0:
270,181,167065,1,0,0:0:0:0:
249,320,167245,2,0,P|290:342|334:328,1,94.9999952316285
299,199,167604,1,2,0:0:0:0:
291,384,167784,1,2,0:0:0:0:
343,334,168143,5,8,0:0:0:0:
390,33,168502,1,0,0:0:0:0:
88,5,168862,1,0,0:0:0:0:
35,304,169221,1,0,0:0:0:0:
345,335,169580,2,0,P|318:85|46:98,1,569.999971389771,0|8,0:0|0:0,0:0:0:0:
68,263,171017,6,0,L|40:110,1,142.499992847443,8|0,0:0|0:0,0:0:0:0:
52,92,171377,1,0,0:0:0:0:
191,116,171556,2,0,P|215:75|202:31,1,94.9999952316285
71,61,171916,1,2,0:0:0:0:
255,74,172095,1,2,0:0:0:0:
187,303,172455,6,0,L|210:149,1,142.499992847443,8|0,0:0|0:0,0:0:0:0:
198,132,172814,1,0,0:0:0:0:
60,160,172994,2,0,P|36:120|48:75,1,94.9999952316285
174,114,173353,1,2,0:0:0:0:
0,121,173532,1,2,0:0:0:0:
41,67,173892,5,8,0:0:0:0:
339,4,174251,1,0,0:0:0:0:
383,304,174610,1,0,0:0:0:0:
87,373,174970,1,0,0:0:0:0:
41,67,175329,2,0,B|36:120|36:120|72:165|72:165|145:167|145:167|187:98|187:98|159:39|159:39|93:23,1,379.999980926514,0|8,0:0|0:0,0:0:0:0:
107,97,176407,5,0,0:0:0:0:
188,177,176586,1,0,0:0:0:0:
121,269,176766,2,0,P|52:240|-7:151,1,142.499992847443,8|0,0:0|0:0,0:0:0:0:
7,154,177125,1,0,0:0:0:0:
41,16,177305,2,0,L|147:-12,1,94.9999952316285
94,184,177664,1,2,0:0:0:0:
170,0,177844,1,2,0:0:0:0:
46,356,178203,6,0,P|118:380|221:350,1,142.499992847443,8|0,0:0|0:0,0:0:0:0:
208,343,178562,1,0,0:0:0:0:
273,217,178742,2,0,L|212:126,1,94.9999952316285
123,309,179101,1,2,0:0:0:0:
188,116,179281,1,2,0:0:0:0:
439,382,179640,5,8,0:0:0:0:
512,67,179999,1,0,0:0:0:0:
196,2,180359,1,0,0:0:0:0:
123,309,180718,1,0,0:0:0:0:
56,278,181077,2,0,B|51:331|51:331|87:376|87:376|160:378|160:378|202:309|202:309|174:250|174:250|108:234,1,379.999980926514,0|8,0:0|0:0,0:0:0:0:
512,213,182514,6,0,P|511:304|318:361,2,284.999985694885
328,171,183952,6,0,P|329:80|522:23,2,284.999985694885
512,213,185389,5,2,0:0:0:0:
437,155,185748,1,2,0:0:0:0:
336,207,186107,1,2,0:0:0:0:
220,143,186467,1,2,0:0:0:0:
220,143,186646,2,0,B|167:138|167:138|122:174|122:174|120:247|120:247|189:289|189:289|248:261|248:261|264:195,1,379.999980926514,2|0,0:0|0:0,0:0:0:0:
191,210,187544,5,0,0:0:0:0:
191,210,187724,1,0,0:0:0:0:
191,210,187904,1,0,0:0:0:0:
191,210,188083,1,0,0:0:0:0:
191,210,188263,2,0,B|134:149|134:149|165:112|165:112|234:109,1,189.999990463257
303,249,188802,1,0,0:0:0:0:
303,249,188982,2,0,B|425:202|425:202|386:85|386:85|248:35,1,379.999980926514
69,205,191137,5,0,0:0:0:0:
78,185,191227,1,0,0:0:0:0:
92,168,191317,1,0,0:0:0:0:
110,155,191407,1,0,0:0:0:0:
130,147,191497,1,0,0:0:0:0:
152,143,191586,1,0,0:0:0:0:
174,141,191676,1,0,0:0:0:0:
195,139,191766,1,0,0:0:0:0:
217,137,191856,1,0,0:0:0:0:
239,132,191946,1,0,0:0:0:0:
259,123,192035,1,0,0:0:0:0:
275,109,192125,1,0,0:0:0:0:
288,91,192215,1,0,0:0:0:0:
296,72,192305,1,0,0:0:0:0:
306,51,192395,2,0,P|332:46|382:50,1,47.4999976158143
431,42,192574,5,0,0:0:0:0:
444,59,192664,1,0,0:0:0:0:
452,79,192754,1,0,0:0:0:0:
455,101,192844,1,0,0:0:0:0:
453,123,192934,1,0,0:0:0:0:
446,144,193023,1,0,0:0:0:0:
438,164,193113,1,0,0:0:0:0:
430,184,193203,1,0,0:0:0:0:
421,204,193293,1,0,0:0:0:0:
415,226,193383,1,0,0:0:0:0:
414,248,193473,1,0,0:0:0:0:
419,268,193562,1,0,0:0:0:0:
428,288,193652,1,0,0:0:0:0:
441,304,193742,1,0,0:0:0:0:
455,323,193832,2,0,P|444:354|413:380,1,47.4999976158143
360,377,194011,5,0,0:0:0:0:
338,378,194101,1,0,0:0:0:0:
317,374,194191,1,0,0:0:0:0:
297,364,194281,1,0,0:0:0:0:
280,351,194371,1,0,0:0:0:0:
266,334,194461,1,0,0:0:0:0:
253,316,194550,1,0,0:0:0:0:
241,298,194640,1,0,0:0:0:0:
229,280,194730,1,0,0:0:0:0:
214,263,194820,1,0,0:0:0:0:
196,250,194910,1,0,0:0:0:0:
176,243,194999,1,0,0:0:0:0:
155,240,195089,1,0,0:0:0:0:
134,242,195179,1,0,0:0:0:0:
111,244,195269,2,0,P|85:224|85:177,1,47.4999976158143
88,132,195449,6,0,L|163:110,15,47.4999976158143
79,52,196886,6,0,L|6:43,14,47.4999976158143
161,49,198233,6,0,L|218:13,15,47.4999976158143
271,42,199760,5,0,0:0:0:0:
249,154,199940,1,0,0:0:0:0:
271,42,200119,1,0,0:0:0:0:
326,142,200299,1,0,0:0:0:0:
348,30,200479,5,0,0:0:0:0:
326,142,200658,1,0,0:0:0:0:
348,30,200838,1,0,0:0:0:0:
403,130,201017,1,0,0:0:0:0:
381,242,201197,5,0,0:0:0:0:
403,130,201377,1,0,0:0:0:0:
381,242,201556,1,0,0:0:0:0:
326,142,201736,1,0,0:0:0:0:
304,254,201916,1,0,0:0:0:0:
359,354,202095,1,0,0:0:0:0:
472,341,202275,2,0,P|516:308|527:260,1,94.9999952316285
439,108,202634,6,0,L|406:198,1,94.9999952316285,2|0,0:0|0:0,0:0:0:0:
324,116,202994,2,0,L|287:211,1,94.9999952316285,2|0,0:0|0:0,0:0:0:0:
355,298,203353,1,2,0:0:0:0:
448,278,203532,1,2,0:0:0:0:
334,381,203712,1,2,0:0:0:0:
239,369,203892,1,2,0:0:0:0:
165,283,204071,6,0,L|220:181,1,94.9999952316285,2|0,0:0|0:0,0:0:0:0:
95,189,204431,2,0,L|49:272,1,94.9999952316285,2|0,0:0|0:0,0:0:0:0:
112,360,204790,1,2,0:0:0:0:
0,384,204970,1,2,0:0:0:0:
49,272,205149,1,2,0:0:0:0:
161,248,205329,1,2,0:0:0:0:
88,160,205508,5,0,0:0:0:0:
103,137,205598,1,0,0:0:0:0:
123,119,205688,1,0,0:0:0:0:
148,111,205778,1,0,0:0:0:0:
175,115,205868,1,0,0:0:0:0:
200,126,205958,1,0,0:0:0:0:
223,140,206047,1,0,0:0:0:0:
246,155,206137,1,0,0:0:0:0:
269,169,206227,1,0,0:0:0:0:
294,180,206317,1,0,0:0:0:0:
320,186,206407,1,0,0:0:0:0:
347,182,206497,1,0,0:0:0:0:
371,170,206586,1,0,0:0:0:0:
391,151,206676,1,0,0:0:0:0:
407,129,206766,1,0,0:0:0:0:
460,47,206946,6,0,P|413:22|354:18,1,94.9999952316285
263,54,207305,1,0,0:0:0:0:
272,167,207485,2,0,P|125:162|-26:94,1,284.999985694885
72,36,208383,5,0,0:0:0:0:
96,25,208473,1,0,0:0:0:0:
123,22,208562,1,0,0:0:0:0:
149,28,208652,1,0,0:0:0:0:
169,46,208742,1,0,0:0:0:0:
184,69,208832,1,0,0:0:0:0:
195,93,208922,1,0,0:0:0:0:
207,118,209011,1,0,0:0:0:0:
219,142,209101,1,0,0:0:0:0:
234,165,209191,1,0,0:0:0:0:
253,184,209281,1,0,0:0:0:0:
277,196,209371,1,0,0:0:0:0:
304,199,209461,1,0,0:0:0:0:
330,194,209550,1,0,0:0:0:0:
356,184,209640,1,0,0:0:0:0:
381,158,209730,5,0,0:0:0:0:
369,132,209820,1,0,0:0:0:0:
355,109,209910,1,0,0:0:0:0:
334,92,209999,1,0,0:0:0:0:
309,82,210089,1,0,0:0:0:0:
282,82,210179,1,0,0:0:0:0:
255,87,210269,1,0,0:0:0:0:
228,95,210359,1,0,0:0:0:0:
213,116,210449,1,0,0:0:0:0:
205,142,210538,1,0,0:0:0:0:
204,169,210628,1,0,0:0:0:0:
210,195,210718,1,0,0:0:0:0:
221,220,210808,1,0,0:0:0:0:
237,242,210898,1,0,0:0:0:0:
258,259,210988,1,0,0:0:0:0:
282,271,211077,1,0,0:0:0:0:
312,349,211257,6,0,P|263:359|192:338,1,94.9999952316285
104,323,211616,1,0,0:0:0:0:
170,230,211796,2,0,P|218:226|277:194,2,94.9999952316285
71,172,212335,1,0,0:0:0:0:
144,73,212694,2,0,B|153:79|153:79|146:88|146:88|156:95|156:95|149:104|149:104|158:111|158:111|152:120|152:120|161:126|161:126|155:136|155:136|164:142|164:142|157:151|157:151|167:158|167:158|160:167|160:167|169:174|169:174|163:183|163:183|172:189|172:189|166:199|166:199|175:205|175:205|169:214|169:214|178:221|178:221|171:230|171:230|181:237|181:237|174:246|174:246|183:252|183:252|177:262|177:262|186:268|186:268|180:277|180:277|197:342|197:342|247:256,1,427.499994850159
170,230,214131,6,0,B|256:190|328:232|328:232|416:112|416:112|256:-32|88:112|88:112|136:184,1,759.999961853028
5,31,216287,5,0,0:0:0:0:
5,31,216646,1,0,0:0:0:0:
45,235,217005,2,0,L|205:264,1,142.499992847443,8|0,0:0|0:0,0:0:0:0:
216,251,217365,1,0,0:0:0:0:
316,225,217544,2,0,P|368:212|407:167,1,94.9999952316285
188,110,217904,1,2,0:0:0:0:
397,184,218083,1,2,0:0:0:0:
22,19,218443,6,0,L|49:179,1,142.499992847443,8|0,0:0|0:0,0:0:0:0:
65,185,218802,1,0,0:0:0:0:
124,270,218982,2,0,P|154:314|209:335,1,94.9999952316285
188,110,219341,1,2,0:0:0:0:
190,332,219520,1,2,0:0:0:0:
189,337,219880,5,8,0:0:0:0:
237,58,220239,1,0,0:0:0:0:
285,337,220598,1,0,0:0:0:0:
237,58,220958,1,0,0:0:0:0:
279,0,221317,2,0,B|310:43|310:43|301:100|301:100|239:139|239:139|168:99|168:99|163:34|163:34|212:-13,1,379.999980926514,0|8,0:0|0:0,0:0:0:0:
45,149,222754,6,0,L|205:120,1,142.499992847443,8|0,0:0|0:0,0:0:0:0:
216,133,223113,1,0,0:0:0:0:
316,159,223293,2,0,P|368:172|407:217,1,94.9999952316285
188,274,223652,1,2,0:0:0:0:
397,199,223832,1,2,0:0:0:0:
22,365,224191,6,0,L|49:204,1,142.499992847443,8|0,0:0|0:0,0:0:0:0:
65,199,224550,1,0,0:0:0:0:
124,114,224730,2,0,P|154:69|209:48,1,94.9999952316285
188,274,225089,1,2,0:0:0:0:
189,51,225269,1,2,0:0:0:0:
189,47,225628,5,8,0:0:0:0:
237,326,225988,1,0,0:0:0:0:
285,47,226347,1,0,0:0:0:0:
237,326,226706,1,0,0:0:0:0:
279,384,227065,2,0,B|310:341|310:341|301:284|301:284|239:245|239:245|168:285|168:285|163:350|163:350|212:397,1,379.999980926514,0|8,0:0|0:0,0:0:0:0:
235,325,228143,5,0,0:0:0:0:
137,265,228323,1,0,0:0:0:0:
145,151,228502,2,0,B|200:71|200:71|268:55,1,142.499992847443,8|0,0:0|0:0,0:0:0:0:
279,65,228862,1,0,0:0:0:0:
411,116,229041,2,0,B|433:172|433:172|419:237,1,94.9999952316285
335,317,229401,1,2,0:0:0:0:
312,176,229580,1,2,0:0:0:0:
113,381,229940,6,0,B|33:326|33:326|17:258,1,142.499992847443,8|0,0:0|0:0,0:0:0:0:
27,247,230299,1,0,0:0:0:0:
78,114,230479,2,0,B|133:92|133:92|198:106,1,94.9999952316285
279,191,230838,1,2,0:0:0:0:
138,214,231017,1,2,0:0:0:0:
406,308,231377,5,2,0:0:0:0:
219,21,231736,1,2,0:0:0:0:
60,324,232095,1,2,0:0:0:0:
406,308,232455,1,2,0:0:0:0:
219,21,232814,2,0,B|166:29|166:29|132:76|132:76|148:147|148:147|227:169|227:169|276:127|276:127|275:59,1,379.999980926514,0|8,0:0|0:0,0:0:0:0:
208,91,234251,6,0,P|122:99|66:274,2,284.999985694885
351,174,235688,6,0,P|437:166|493:-9,2,284.999985694885
184,330,237125,5,2,0:0:0:0:
142,257,237485,1,2,0:0:0:0:
199,161,237844,1,2,0:0:0:0:
132,40,238203,1,2,0:0:0:0:
132,40,238383,2,0,B|91:4|91:4|33:8|33:8|-10:66|-10:66|23:141|23:141|87:151|87:151|138:107,1,379.999980926514,2|0,0:0|0:0,0:0:0:0:
83,88,239281,5,0,0:0:0:0:
83,88,239461,1,0,0:0:0:0:
83,88,239640,1,0,0:0:0:0:
83,88,239820,1,0,0:0:0:0:
83,88,239999,2,0,B|182:7|182:7|251:24,1,189.999990463257
257,147,240538,1,0,0:0:0:0:
257,147,240718,2,0,B|337:158|337:158|487:14,1,284.999985694885
477,131,241437,6,0,L|483:229,1,94.9999952316285
308,131,241796,2,0,L|302:229,1,94.9999952316285
493,143,242155,2,0,L|499:241,1,94.9999952316285
293,142,242514,2,0,L|287:240,1,94.9999952316285,0|8,0:0|0:0,0:0:0:0:
376,384,242874,6,0,L|382:286,1,94.9999952316285
207,384,243233,2,0,L|201:286,1,94.9999952316285
392,372,243592,2,0,L|398:274,1,94.9999952316285
192,373,243952,2,8,L|186:275,1,94.9999952316285,0|8,0:0|0:0,0:0:0:0:
179,100,244311,6,0,L|190:2,1,94.9999952316285
245,163,244670,1,0,0:0:0:0:
245,163,244850,1,0,0:0:0:0:
318,96,245029,2,0,L|326:-11,1,94.9999952316285
245,163,245389,1,0,0:0:0:0:
245,163,245568,1,8,0:0:0:0:
390,208,245748,6,0,L|457:278,1,94.9999952316285
299,219,246107,1,0,0:0:0:0:
299,219,246287,1,0,0:0:0:0:
305,318,246467,2,0,L|382:392,1,94.9999952316285
299,219,246826,1,0,0:0:0:0:
299,219,247005,1,8,0:0:0:0:
174,307,247185,6,0,L|93:362,1,94.9999952316285
179,216,247544,1,0,0:0:0:0:
179,216,247724,1,0,0:0:0:0:
80,205,247904,2,0,L|-6:269,1,94.9999952316285
179,216,248263,1,0,0:0:0:0:
179,216,248443,1,8,0:0:0:0:
268,92,248622,6,0,L|295:-2,1,94.9999952316285
322,163,248982,1,0,0:0:0:0:
322,163,249161,1,0,0:0:0:0:
407,108,249341,2,0,L|432:2,1,94.9999952316285
322,163,249700,1,0,0:0:0:0:
322,163,249880,1,8,0:0:0:0:
444,295,250059,6,0,P|424:342|358:362,1,94.9999952316285
234,347,250419,1,0,0:0:0:0:
324,225,250598,1,0,0:0:0:0:
204,155,250778,6,0,P|224:108|290:88,1,94.9999952316285
414,103,251137,1,0,0:0:0:0:
324,225,251317,1,8,0:0:0:0:
168,248,251497,6,0,L|155:122,1,94.9999952316285
146,52,251856,1,0,0:0:0:0:
146,52,252035,1,0,0:0:0:0:
0,10,252215,2,0,L|13:136,1,94.9999952316285
21,214,252574,1,0,0:0:0:0:
21,214,252754,1,8,0:0:0:0:
68,89,252934,6,0,P|88:42|154:22,1,94.9999952316285
278,37,253293,1,0,0:0:0:0:
188,159,253473,1,0,0:0:0:0:
308,229,253652,6,0,P|288:276|222:296,1,94.9999952316285
98,281,254011,1,0,0:0:0:0:
188,159,254191,1,8,0:0:0:0:
344,136,254371,6,0,L|357:262,1,94.9999952316285
366,332,254730,1,0,0:0:0:0:
366,332,254910,1,0,0:0:0:0:
512,374,255089,2,0,L|499:248,1,94.9999952316285
491,170,255449,1,0,0:0:0:0:
390,57,255628,1,8,0:0:0:0:
253,123,255808,6,0,P|324:135|349:190,1,94.9999952316285
184,213,256167,2,0,P|137:214|100:186,1,94.9999952316285
254,127,256526,1,0,0:0:0:0:
339,146,256706,1,0,0:0:0:0:
187,214,256886,1,0,0:0:0:0:
99,186,257065,1,8,0:0:0:0:
118,304,257245,6,0,P|47:292|22:237,1,94.9999952316285
187,214,257604,2,0,P|233:212|270:240,1,94.9999952316285
117,300,257964,1,0,0:0:0:0:
32,281,258143,1,0,0:0:0:0:
184,213,258323,1,0,0:0:0:0:
272,241,258502,1,0,0:0:0:0:
176,280,259401,6,0,B|256:272|256:152|256:152|256:272|336:280,1,332.4999833107
365,319,260119,2,0,B|496:152|496:152|256:-38|14:158|14:158|158:316|158:316|257:274|365:319,1,1139.99998626709
