osu file format v14

[General]
AudioFilename: audio.mp3
AudioLeadIn: 0
PreviewTime: 38203
Countdown: 0
SampleSet: Soft
StackLeniency: 0.3
Mode: 0
LetterboxInBreaks: 0
WidescreenStoryboard: 1

[Editor]
Bookmarks: 130,5744,22587,36622,39429,49955,59253,61885,84340,103989,106796,129252,151708,174165,196621,216270,218901
DistanceSpacing: 1.7
BeatDivisor: 4
GridSize: 16
TimelineZoom: 1

[Metadata]
Title:Dissolve
TitleUnicode:Dissolve
Artist:Absofacto
ArtistUnicode:Absofacto
Creator:Mosebye
Version:Hard
Source:
Tags:english dream indie pop thousand peaces lofi
BeatmapID:3328329
BeatmapSetID:1629444

[Difficulty]
HPDrainRate:4
CircleSize:3
OverallDifficulty:4
ApproachRate:5.5
SliderMultiplier:2
SliderTickRate:1

[Events]
//Background and Video events
0,0,"bg.jpg",0,0
//Break Periods
2,59455,60762
2,104368,105674
//Storyboard Layer 0 (Background)
//Storyboard Layer 1 (Fail)
//Storyboard Layer 2 (Pass)
//Storyboard Layer 3 (Foreground)
//Storyboard Layer 4 (Overlay)
//Storyboard Sound Samples

[TimingPoints]
5747,701.754385964912,4,2,1,40,1,0
5748,-100,4,2,1,40,0,0
15571,-100,4,2,1,25,0,0
16975,-100,4,2,1,45,0,0
36624,-166.666666666667,4,2,1,25,0,0
38378,-166.666666666667,4,2,1,35,0,0
39431,-83.3333333333333,4,2,1,50,0,1
59255,-83.3333333333333,4,2,1,50,0,0
61887,-100,4,2,1,40,0,0
84343,-83.3333333333333,4,2,1,50,0,1
103992,-100,4,2,1,50,0,0
106799,-333.333333333333,4,2,1,25,0,0
129255,-100,4,2,1,45,0,0
151711,-125,4,2,1,35,0,0
174168,-76.9230769230769,4,2,1,50,0,1
196624,-83.3333333333333,4,2,1,55,0,1
216273,-166.666666666667,4,2,1,55,0,0
216975,-166.666666666667,4,2,1,30,0,0
218904,-500.000000000003,4,2,1,30,0,0
219080,-500.000000000003,4,2,1,5,0,0

[Colours]
Combo1 : 223,223,223
Combo2 : 255,204,255
Combo3 : 157,60,255
Combo4 : 209,171,252
Combo5 : 73,2,204
SliderBorder : 255,185,255
SliderTrackOverride : 45,0,60

[HitObjects]
139,168,5747,5,6,3:2:0:0:
139,168,5922,1,2,0:0:0:0:
171,251,6097,2,0,L|223:259,1,50,2|0,0:2|0:0,0:0:0:0:
266,335,6448,2,0,B|318:291|306:239|306:239|294:183|346:139,2,200,10|2|8,0:2|3:2|0:2,0:0:0:0:
89,373,8203,1,2,0:2:0:0:
23,204,8554,2,0,P|44:160|42:110,1,100,0|8,3:2|0:3,0:0:0:0:
7,31,9080,1,4,0:3:0:0:
7,31,9255,1,8,0:0:0:0:
330,227,9957,6,0,L|322:155,1,50,2|0,3:0|0:0,0:0:0:0:
234,180,10308,2,0,L|239:229,1,50,10|4,3:3|0:3,0:0:0:0:
290,310,10659,1,10,0:0:0:0:
290,310,10834,2,0,P|337:322|382:303,1,100,2|2,0:2|0:2,0:0:0:0:
459,232,11361,5,2,3:2:0:0:
459,232,11536,1,2,0:2:0:0:
493,149,11711,2,0,L|485:85,1,50,10|4,0:3|0:3,0:0:0:0:
509,10,12062,2,0,B|450:4|415:39|415:39|373:78|316:71,2,200,10|2|8,0:2|3:2|0:2,0:0:0:0:
405,159,13817,2,0,L|417:231,2,50,2|2|0,0:2|0:2|3:2,0:0:0:0:
256,192,14343,12,8,16273,0:0:0:0:
152,200,16975,5,2,3:2:0:0:
152,200,17150,1,2,0:2:0:0:
204,272,17325,2,0,L|316:256,2,100,2|10|0,0:3|0:0|0:0,0:0:0:0:
113,282,18203,6,0,P|81:318|77:374,2,100,2|2|2,0:2|0:2|3:2,0:0:0:0:
152,200,19080,2,0,P|136:154|90:122,1,100,10|2,0:2|0:2,0:0:0:0:
248,27,19782,2,0,L|384:23,1,100,0|8,3:2|0:3,0:0:0:0:
441,20,20308,1,4,0:3:0:0:
441,20,20483,1,8,0:2:0:0:
473,288,21010,6,0,L|401:272,1,50,2|0,0:2|3:0,0:0:0:0:
353,230,21361,1,2,0:2:0:0:
352,230,21536,2,0,P|341:251|337:276,1,50,8|4,3:3|0:3,0:0:0:0:
380,355,21887,2,0,L|484:379,2,100,10|2|2,0:0|0:2|3:2,0:0:0:0:
294,352,22764,1,2,0:2:0:0:
294,352,22940,2,0,L|190:376,1,100,2|10,0:3|0:0,0:0:0:0:
89,379,23466,5,2,0:2:0:0:
89,379,23641,1,2,0:2:0:0:
31,308,23817,2,0,P|23:260|47:212,1,100,2|2,0:2|0:2,0:0:0:0:
99,143,24343,2,0,P|119:167|131:199,1,50,2|2,0:2|3:2,0:0:0:0:
214,161,24694,2,0,P|253:132|270:81,1,100,10|2,0:2|0:2,0:0:0:0:
111,5,25396,2,0,L|191:85,1,100,0|8,3:2|0:3,0:0:0:0:
235,6,25922,1,4,0:3:0:0:
235,6,26097,1,8,0:2:0:0:
240,366,26799,6,0,L|172:362,1,50,2|0,3:0|0:0,0:0:0:0:
195,272,27150,2,0,L|244:274,1,50,2|0,3:0|0:0,0:0:0:0:
328,320,27501,1,10,0:0:0:0:
328,319,27676,2,0,P|341:272|325:225,1,100,2|2,0:2|0:2,0:0:0:0:
254,174,28203,5,2,3:2:0:0:
254,174,28378,1,2,0:2:0:0:
250,83,28554,2,0,P|298:43|362:43,1,100,2|10,0:3|0:0,0:0:0:0:
512,84,29255,5,2,0:2:0:0:
512,84,29431,2,0,L|504:188,1,100,2|2,0:2|0:2,0:0:0:0:
451,257,29957,1,2,0:2:0:0:
451,257,30132,2,0,P|419:257|383:241,1,50,2|10,3:2|0:2,0:0:0:0:
329,198,30483,2,0,P|329:166|345:130,1,50,2|2,0:2|0:2,0:0:0:0:
236,300,31010,2,0,P|260:356|316:380,1,100,0|8,3:2|0:3,0:0:0:0:
325,294,31536,1,4,0:3:0:0:
325,294,31711,1,8,0:2:0:0:
66,374,32238,6,0,L|58:298,1,50,2|2,0:2|3:0,0:0:0:0:
63,238,32589,1,2,0:2:0:0:
63,238,32764,2,0,P|87:222|123:218,1,50,10|4,3:3|0:3,0:0:0:0:
168,284,33115,2,0,L|176:384,2,100,8|2|2,0:0|0:2|3:2,0:0:0:0:
198,201,33992,1,2,0:2:0:0:
198,201,34168,2,0,L|206:101,1,100,2|10,0:3|0:0,0:0:0:0:
213,0,34694,5,2,0:2:0:0:
213,0,34869,1,2,0:2:0:0:
289,48,35045,2,0,P|337:48|377:16,1,100,2|2,0:2|0:2,0:0:0:0:
465,0,35571,2,0,L|515:27,1,50,2|2,0:2|3:2,0:0:0:0:
485,111,35922,2,0,P|461:152|468:203,1,100,10|2,0:2|0:2,0:0:0:0:
398,285,36624,6,0,B|446:317|446:317|518:305,2,119.999996337891,0|8|0,3:2|0:0|3:0,0:0:0:0:
320,192,38378,6,0,L|350:188,1,29.9999990844727,2|2,0:0|0:0,0:0:0:0:
328,96,38729,2,0,L|310:73,1,29.9999990844727,2|2,0:0|0:0,0:0:0:0:
240,136,39080,2,0,L|230:165,1,29.9999990844727,2|2,0:0|0:0,0:0:0:0:
224,40,39431,6,0,B|174:7|174:7|103:15,1,119.999996337891,2|2,3:2|0:3,0:0:0:0:
21,40,39957,1,2,0:2:0:0:
2,133,40132,2,0,P|10:237|82:285,1,179.999994506836,10|0,0:0|0:0,0:0:0:0:
162,318,40834,2,0,B|189:298|184:262|184:262|171:166,1,119.999996337891,0|0,3:2|0:0,0:0:0:0:
163,103,41361,1,0,3:2:0:0:
241,14,41536,6,0,B|282:6|319:27|319:27|355:50|397:41|397:41|440:32|483:64,2,239.999992675781,10|2|8,0:2|3:2|0:2,0:0:0:0:
281,213,43290,5,2,0:2:0:0:
361,275,43466,1,2,0:2:0:0:
457,241,43641,2,0,L|461:157,1,59.9999981689454,2|0,3:2|0:0,0:0:0:0:
368,155,43992,2,0,L|360:283,1,119.999996337891,2|8,3:2|0:2,0:0:0:0:
314,366,44518,1,0,0:0:0:0:
213,344,44694,6,0,P|179:314|185:197,1,119.999996337891,2|2,0:2|3:2,0:0:0:0:
176,141,45220,1,2,0:2:0:0:
136,43,45396,2,0,P|88:9|29:10,1,119.999996337891,2|10,0:3|0:2,0:0:0:0:
36,173,46097,5,2,0:2:0:0:
241,229,46448,1,2,3:2:0:0:
176,141,46624,2,0,B|134:155|132:215|132:215|131:298|131:298|125:386|49:413|-16:362|-3:292|33:265|71:261,2,419.999987182618,2|2|0,0:2|3:2|0:0,0:0:0:0:
274,117,49255,2,0,P|322:81|330:-3,1,119.999996337891,2|2,3:2|3:2,0:0:0:0:
457,0,49782,5,2,0:2:0:0:
485,97,49957,2,0,P|469:133|469:177,1,59.9999981689454,10|2,0:2|0:2,0:0:0:0:
495,256,50308,1,2,0:2:0:0:
495,256,50483,1,2,0:2:0:0:
443,358,50659,6,0,L|318:368,1,119.999996337891,2|2,3:2|0:3,0:0:0:0:
216,371,51185,1,2,0:2:0:0:
213,268,51361,2,0,P|273:188|385:200,1,179.999994506836,10|2,0:2|0:2,0:0:0:0:
443,149,52062,2,0,P|419:101|427:29,1,119.999996337891,2|0,3:2|0:0,0:0:0:0:
326,2,52589,1,0,3:2:0:0:
241,58,52764,6,0,P|181:138|69:126,1,179.999994506836,10|0,0:2|0:0,0:0:0:0:
6,123,53466,2,0,L|22:3,1,119.999996337891,2|0,3:2|0:0,0:0:0:0:
0,229,54168,6,0,B|43:202|88:229|88:229|193:302,1,179.999994506836,10|0,0:2|0:0,0:0:0:0:
260,290,54869,2,0,P|256:322|236:350,1,59.9999981689454,2|0,3:2|0:0,0:0:0:0:
159,278,55220,2,0,P|163:246|183:218,1,59.9999981689454,2|0,3:2|0:0,0:0:0:0:
266,151,55571,5,10,0:2:0:0:
345,215,55747,2,0,L|425:211,1,59.9999981689454,2|2,0:2|0:2,0:0:0:0:
497,166,56097,1,2,0:2:0:0:
497,166,56273,2,0,L|505:90,2,59.9999981689454,2|2|2,3:2|0:2|0:3,0:0:0:0:
412,352,56975,5,10,0:2:0:0:
351,274,57150,2,0,L|343:198,1,59.9999981689454,2|2,0:2|0:2,0:0:0:0:
372,118,57501,1,2,0:2:0:0:
372,118,57676,2,0,P|296:122|244:214,1,179.999994506836,2|2,3:2|3:2,0:0:0:0:
241,305,58378,1,10,0:2:0:0:
156,362,58554,2,0,L|88:350,1,59.9999981689454,2|2,0:2|0:2,0:0:0:0:
13,171,59080,1,2,0:2:0:0:
13,171,59255,1,2,0:2:0:0:
264,24,61887,6,0,B|279:33|279:33|295:26|295:26|311:36|311:36|327:29|327:29|342:38|342:38|359:32|359:32|374:41|374:41|391:35|391:35|406:44|406:44|423:37|423:37|438:47|438:47|455:40,1,200,2|8,3:0|0:0,0:0:0:0:
488,280,63115,2,0,P|480:336|504:384,2,100,2|2|2,0:2|0:2|3:2,0:0:0:0:
488,196,63992,2,0,P|505:149|496:101,1,100,10|2,2:2|0:2,0:0:0:0:
344,20,64694,1,0,3:0:0:0:
8,16,65396,1,8,0:0:0:0:
100,168,65747,5,2,0:2:0:0:
100,168,65922,2,0,P|140:168|172:152,1,50,2|0,0:2|3:0,0:0:0:0:
216,112,66273,1,2,0:2:0:0:
216,112,66448,2,0,P|196:77|166:57,1,50,2|2,3:2|0:2,0:0:0:0:
104,60,66799,2,0,L|-8:116,1,100,10|2,2:2|0:2,0:0:0:0:
0,272,67501,6,0,B|15:263|15:263|31:270|31:270|47:260|47:260|63:267|63:267|78:258|78:258|95:264|95:264|110:255|110:255|127:261|127:261|142:252|142:252|159:259|159:259|174:249|174:249|191:256,1,200,2|8,3:0|0:0,0:0:0:0:
248,200,68378,1,2,0:2:0:0:
248,200,68554,1,2,0:2:0:0:
316,256,68729,2,0,P|320:312|288:364,1,100,2|2,0:2|0:2,0:0:0:0:
220,380,69255,2,0,L|176:324,1,50,2|2,0:2|3:2,0:0:0:0:
176,252,69606,2,0,P|162:197|184:140,1,100,10|2,2:2|0:2,0:0:0:0:
268,16,70308,1,0,3:0:0:0:
500,260,71010,1,8,0:0:0:0:
172,356,71711,6,0,L|176:284,1,50,2|0,3:0|0:0,0:0:0:0:
260,300,72062,2,0,L|257:349,1,50,2|0,3:3|0:0,0:0:0:0:
340,384,72413,1,10,2:2:0:0:
340,384,72589,2,0,L|344:280,1,100,2|2,0:2|0:2,0:0:0:0:
344,184,73115,5,2,3:3:0:0:
344,184,73290,1,2,0:2:0:0:
295,106,73466,2,0,P|247:74|175:90,2,100,2|10|0,0:3|0:0|0:0,0:0:0:0:
387,105,74343,6,0,P|438:79|460:9,2,100,2|2|2,0:2|0:2|3:2,0:0:0:0:
344,184,75220,1,10,2:2:0:0:
256,328,75571,1,2,0:2:0:0:
88,328,75922,2,0,P|32:264|80:152,1,200,0|8,3:0|0:0,0:0:0:0:
140,114,76799,5,2,0:2:0:0:
140,114,76975,1,2,0:2:0:0:
164,28,77150,2,0,L|244:16,1,50,2|0,0:2|3:0,0:0:0:0:
300,4,77501,1,2,0:2:0:0:
300,4,77676,2,0,P|304:32|292:68,1,50,2|2,3:2|0:2,0:0:0:0:
248,124,78027,2,0,P|232:180|264:236,1,100,10|2,2:2|0:2,0:0:0:0:
360,344,78729,6,0,B|364:327|364:327|380:320|380:320|384:302|384:302|401:295|401:295|405:278|405:278|421:271|421:271|425:254|425:254|442:246|442:246|446:229|446:229|463:222|463:222|466:204|466:204|483:197,1,200,2|8,3:0|0:0,0:0:0:0:
496,120,79606,1,2,0:2:0:0:
496,120,79782,1,2,0:2:0:0:
467,32,79957,2,0,L|355:44,1,100,2|2,0:2|0:2,0:0:0:0:
288,9,80483,2,0,P|280:32|281:57,1,50,2|2,0:2|3:2,0:0:0:0:
216,112,80834,2,0,L|104:104,1,100,10|2,2:2|0:2,0:0:0:0:
40,240,81536,1,0,3:0:0:0:
360,360,82238,1,8,0:0:0:0:
464,36,82940,1,0,3:0:0:0:
328,127,83290,6,0,P|327:152|331:177,1,50,10|2,0:0|0:0,0:0:0:0:
456,163,83641,2,0,P|435:150|411:142,1,50,10|2,0:2|0:0,0:0:0:0:
358,255,83992,2,0,P|381:244|400:228,1,50,2|2,0:0|0:0,0:0:0:0:
376,57,84343,6,0,P|320:42|265:64,1,119.999996337891,2|2,3:2|0:2,0:0:0:0:
193,136,84869,1,2,0:2:0:0:
112,199,85045,2,0,P|36:191|4:87,1,179.999994506836,10|0,0:0|0:0,0:0:0:0:
61,22,85747,2,0,B|87:-3|118:2|118:2|197:20,1,119.999996337891,0|0,3:2|0:0,0:0:0:0:
263,64,86273,1,0,3:2:0:0:
306,177,86448,6,0,B|346:221|410:209|426:157|410:113|410:113|394:69|430:21,2,239.999992675781,10|2|8,0:2|3:2|0:2,0:0:0:0:
108,124,88203,5,2,0:2:0:0:
69,218,88378,1,2,0:2:0:0:
83,319,88554,2,0,P|111:331|147:331,1,59.9999981689454,2|0,3:2|0:0,0:0:0:0:
180,242,88904,2,0,P|127:214|68:218,1,119.999996337891,2|8,3:2|0:2,0:0:0:0:
14,130,89431,1,0,0:0:0:0:
64,29,89606,6,0,P|120:12|180:18,1,119.999996337891,2|2,0:2|3:2,0:0:0:0:
273,60,90132,1,2,0:2:0:0:
305,156,90308,2,0,L|297:276,1,119.999996337891,2|10,0:2|0:2,0:0:0:0:
471,382,91010,5,2,0:2:0:0:
487,194,91361,1,2,3:2:0:0:
424,296,91536,2,0,B|392:272|394:238|394:238|397:166|397:166|400:110|457:105|457:105|521:96|540:45|515:-7|447:-11|412:32,2,419.999987182618,2|2|0,0:2|3:2|0:0,0:0:0:0:
344,360,94168,2,0,L|224:368,1,119.999996337891,2|2,3:2|3:2,0:0:0:0:
105,382,94694,5,2,0:2:0:0:
40,303,94869,2,0,P|32:271|40:231,1,59.9999981689454,10|2,0:2|0:2,0:0:0:0:
112,177,95220,1,2,0:2:0:0:
112,177,95396,1,2,0:2:0:0:
119,59,95571,6,0,P|55:35|-9:75,1,119.999996337891,2|2,3:2|0:2,0:0:0:0:
10,155,96097,1,2,0:2:0:0:
112,177,96273,2,0,P|184:165|216:49,1,179.999994506836,10|2,0:2|0:2,0:0:0:0:
302,8,96975,2,0,P|341:51|399:57,1,119.999996337891,2|0,3:2|0:0,0:0:0:0:
494,97,97501,1,0,3:2:0:0:
455,191,97676,6,0,B|395:207|359:183|359:183|319:155|263:171,1,179.999994506836,10|0,0:2|0:0,0:0:0:0:
222,74,98378,2,0,P|177:110|164:168,1,119.999996337891,2|0,3:2|0:0,0:0:0:0:
133,374,99080,6,0,P|46:365|2:290,1,179.999994506836,10|0,0:2|0:0,0:0:0:0:
0,188,99782,2,0,L|3:128,1,59.9999981689454,2|0,3:2|0:0,0:0:0:0:
97,90,100132,2,0,L|93:162,1,59.9999981689454,2|0,3:2|0:0,0:0:0:0:
122,254,100483,5,10,0:2:0:0:
211,203,100659,2,0,P|239:175|251:135,1,59.9999981689454,2|2,0:2|0:2,0:0:0:0:
216,64,101010,1,2,0:2:0:0:
216,64,101185,2,0,P|249:13|326:4,1,119.999996337891,2|2,3:2|0:2,0:0:0:0:
508,0,101887,5,10,0:2:0:0:
505,101,102062,2,0,L|497:173,1,59.9999981689454,2|2,0:2|0:2,0:0:0:0:
483,265,102413,1,2,0:2:0:0:
483,265,102589,2,0,B|472:321|426:326|426:326|333:336,1,179.999994506836,2|2,3:2|3:2,0:0:0:0:
239,306,103290,1,10,0:2:0:0:
229,204,103466,2,0,P|229:172|249:132,1,59.9999981689454,2|2,0:2|0:2,0:0:0:0:
338,9,103992,1,2,3:2:0:0:
338,9,104168,1,2,0:2:0:0:
96,324,106799,6,0,B|60:312|56:276|56:276|48:212,2,119.999996337891,2|2|2,0:2|0:0|0:0,0:0:0:0:
288,308,111010,2,0,P|352:328|368:376,2,119.999996337891,2|2|2,0:0|0:0|0:0,0:0:0:0:
160,164,115220,2,0,L|152:32,2,119.999996337891,2|2|2,0:0|0:0|0:0,0:0:0:0:
160,360,119431,2,0,B|124:368|104:348|104:348|84:328|48:332,2,119.999996337891,2|2|2,0:0|0:0|0:0,0:0:0:0:
352,336,123641,2,0,P|336:280|352:208,2,119.999996337891,2|2|2,0:0|0:0|0:0,0:0:0:0:
256,192,126624,12,8,128554,0:0:0:0:
128,128,129255,5,6,3:2:0:0:
168,293,129606,1,2,0:2:0:0:
322,364,129957,2,0,L|397:351,1,50,10|2,0:0|0:2,0:0:0:0:
452,330,130308,2,0,L|438:255,1,50,2|2,0:2|0:2,0:0:0:0:
419,183,130659,5,2,3:2:0:0:
502,35,131010,1,2,0:2:0:0:
334,3,131361,1,10,2:2:0:0:
299,168,131711,6,0,P|270:166|232:144,1,50,2|2,0:2|0:2,0:0:0:0:
182,107,132062,1,2,3:2:0:0:
41,10,132413,1,2,0:2:0:0:
4,176,132764,6,0,L|8:244,1,50,10|2,0:0|0:2,0:0:0:0:
49,299,133115,2,0,L|117:295,1,50,2|2,0:2|0:2,0:0:0:0:
183,290,133466,1,2,3:2:0:0:
356,307,133817,5,2,3:2:0:0:
356,307,133992,1,2,0:2:0:0:
326,216,134168,2,0,P|325:191|334:157,1,50,10|2,2:2|0:2,0:0:0:0:
367,90,134518,2,0,P|368:65|359:31,1,50,2|2,0:2|0:2,0:0:0:0:
263,0,134869,5,2,3:2:0:0:
172,144,135220,1,2,0:2:0:0:
200,311,135571,2,0,P|231:319|266:319,1,50,10|2,0:0|0:2,0:0:0:0:
334,319,135922,2,0,P|342:288|342:253,1,50,2|2,0:2|0:2,0:0:0:0:
334,166,136273,5,2,3:2:0:0:
453,45,136624,1,2,0:2:0:0:
498,208,136975,2,0,L|506:275,1,50,10|2,2:2|0:2,0:0:0:0:
471,335,137325,2,0,L|404:343,1,50,2|2,0:2|0:2,0:0:0:0:
334,319,137676,5,2,3:2:0:0:
232,178,138027,1,2,0:2:0:0:
398,232,138378,1,10,0:0:0:0:
232,286,138729,1,2,0:2:0:0:
334,144,139080,1,10,0:2:0:0:
223,11,139431,5,2,3:2:0:0:
223,11,139606,1,2,0:2:0:0:
135,5,139782,2,0,P|96:24|72:39,1,50,10|2,2:2|0:2,0:0:0:0:
25,78,140132,1,2,0:2:0:0:
25,78,140308,1,2,0:2:0:0:
12,161,140483,5,6,3:2:0:0:
78,317,140834,1,2,0:2:0:0:
239,371,141185,2,0,L|327:355,1,50,10|2,0:0|0:2,0:0:0:0:
329,287,141536,2,0,L|313:199,1,50,2|2,0:2|0:2,0:0:0:0:
297,137,141887,5,2,3:2:0:0:
399,1,142238,1,2,0:2:0:0:
511,128,142589,1,10,2:2:0:0:
493,297,142940,2,0,P|461:297|421:281,1,50,2|2,0:2|0:2,0:0:0:0:
409,214,143290,5,2,3:2:0:0:
334,61,143641,1,2,0:2:0:0:
169,18,143992,2,0,L|98:26,1,50,10|2,0:0|0:2,0:0:0:0:
50,74,144343,2,0,L|58:145,1,50,2|2,0:2|0:2,0:0:0:0:
68,207,144694,1,2,3:2:0:0:
134,363,145045,5,2,3:2:0:0:
134,363,145220,1,2,0:2:0:0:
216,342,145396,2,0,P|230:321|235:283,1,50,10|2,2:2|0:2,0:0:0:0:
202,218,145747,2,0,P|188:197|183:159,1,50,2|2,0:2|0:2,0:0:0:0:
216,95,146097,5,2,3:2:0:0:
360,5,146448,1,2,0:2:0:0:
477,128,146799,2,0,L|473:191,1,50,10|2,0:0|0:2,0:0:0:0:
430,251,147150,2,0,L|367:247,1,50,2|2,0:2|0:2,0:0:0:0:
301,187,147501,5,2,3:2:0:0:
186,312,147852,1,2,0:2:0:0:
59,198,148203,2,0,P|54:167|64:129,1,50,10|2,0:2|0:2,0:0:0:0:
89,70,148554,2,0,P|119:65|157:75,1,50,2|2,0:2|0:2,0:0:0:0:
214,124,148904,5,2,3:2:0:0:
351,25,149255,1,2,0:2:0:0:
301,187,149606,1,10,0:0:0:0:
247,25,149957,1,2,0:2:0:0:
383,124,150308,1,2,0:2:0:0:
387,292,150659,6,0,L|398:364,1,50,2|2,0:2|0:2,0:0:0:0:
313,367,151010,2,0,L|305:317,1,50,2|2,0:2|0:2,0:0:0:0:
220,324,151361,2,0,L|227:373,1,50,2|2,0:2|0:2,0:0:0:0:
136,347,151711,6,0,P|135:302|168:256,1,80,2|2,3:2|0:2,0:0:0:0:
217,218,152238,1,2,0:2:0:0:
217,218,152413,2,0,L|213:53,1,160,10|0,0:0|3:2,0:0:0:0:
446,295,153817,2,0,B|392:284|368:316|368:316|344:348|296:340,2,160,10|2|8,0:2|3:2|0:0,0:0:0:0:
504,136,155571,5,2,0:2:0:0:
504,136,155747,1,2,0:2:0:0:
480,48,155922,2,0,P|440:32|384:48,2,80,2|2|8,3:2|0:2|0:0,0:0:0:0:
352,160,156975,1,2,0:2:0:0:
280,8,157325,2,0,B|226:-8|199:21|199:21|173:51|126:38,1,160,2|8,3:2|0:0,0:0:0:0:
16,168,158378,5,2,0:2:0:0:
100,320,158729,1,2,3:2:0:0:
100,320,158904,2,0,B|132:364|192:356|213:303|213:303|241:240|316:245|340:316,2,280,2|2|0,0:2|3:2|0:0,0:0:0:0:
76,240,161536,2,0,P|72:200|112:156,1,80,0|0,3:0|0:0,0:0:0:0:
168,112,162062,5,2,0:2:0:0:
168,112,162238,2,0,L|223:110,1,40,10|2,0:0|3:2,0:0:0:0:
280,152,162589,2,0,L|335:154,1,40,2|2,0:2|0:2,0:0:0:0:
388,104,162940,2,0,P|384:48|416:0,1,80,2|2,3:2|0:2,0:0:0:0:
480,64,163466,1,2,0:2:0:0:
480,64,163641,2,0,L|488:212,1,120,10|2,0:0|0:2,0:0:0:0:
492,268,164343,1,2,3:2:0:0:
161,231,165045,6,0,L|169:83,1,120,10|0,0:2|0:0,0:0:0:0:
173,27,165747,1,2,3:2:0:0:
216,360,166448,6,0,P|148:372|84:340,1,120,10|0,0:0|0:0,0:0:0:0:
40,296,167150,1,2,3:2:0:0:
36,128,167501,1,2,0:2:0:0:
173,27,167852,2,0,L|228:24,2,40,10|2|2,0:0|3:2|0:2,0:0:0:0:
88,8,168378,1,2,0:2:0:0:
88,8,168554,1,2,3:2:0:0:
216,320,169255,6,0,L|160:324,2,40,10|2|2,0:2|0:2|0:2,0:0:0:0:
236,235,169781,1,2,0:2:0:0:
236,235,169957,2,0,P|224:180|260:112,1,120,2|2,3:2|0:2,0:0:0:0:
312,68,170659,1,10,0:0:0:0:
312,68,170834,2,0,L|384:64,1,40,2|2,3:2|0:2,0:0:0:0:
484,172,171361,1,2,0:0:0:0:
484,172,171536,1,2,0:0:0:0:
227,240,173115,6,0,P|239:256|256:268,1,40,2|2,0:0|0:0,0:0:0:0:
227,143,173466,2,0,P|208:145|190:154,1,40,2|2,0:0|0:0,0:0:0:0:
312,192,173817,2,0,P|320:173|321:154,1,40,2|2,0:0|0:0,0:0:0:0:
320,16,174168,6,0,B|301:51|258:53|258:53|172:49,1,129.999994049073,6|2,3:2|0:2,0:0:0:0:
101,7,174694,1,2,0:2:0:0:
19,81,174869,2,0,B|-9:133|15:173|15:173|47:221|15:301,1,194.999991073609,10|0,0:0|0:0,0:0:0:0:
21,378,175571,2,0,L|173:354,1,129.999994049073,0|0,3:2|0:0,0:0:0:0:
258,377,176097,1,0,3:2:0:0:
246,255,176273,6,0,B|229:217|248:174|298:159|348:187|341:259|341:259|336:327,2,259.999988098145,10|2|8,0:2|3:2|0:2,0:0:0:0:
194,39,178027,5,2,0:2:0:0:
289,94,178203,1,2,0:2:0:0:
396,70,178378,2,0,L|400:-2,1,64.9999970245363,2|0,3:2|0:0,0:0:0:0:
509,19,178729,2,0,L|501:171,1,129.999994049073,2|8,3:2|0:2,0:0:0:0:
487,262,179255,5,0,0:0:0:0:
487,262,179431,2,0,P|447:270|415:250,1,64.9999970245363,2|0,0:2|0:0,0:0:0:0:
322,185,179782,1,2,3:2:0:0:
213,163,179957,1,2,0:2:0:0:
139,244,180132,2,0,P|127:312|159:372,1,129.999994049073,2|10,0:3|0:2,0:0:0:0:
8,196,180834,5,2,0:2:0:0:
59,0,181185,1,2,3:2:0:0:
132,82,181361,2,0,B|184:106|228:62|228:62|268:22|340:-10|412:26|436:110|404:174|332:182|284:154|272:82,2,454.999979171754,2|2|0,0:2|3:2|0:0,0:0:0:0:
59,0,183992,2,0,P|19:68|27:136,1,129.999994049073,2|2,3:2|3:2,0:0:0:0:
61,220,184518,5,2,0:2:0:0:
137,300,184694,2,0,L|209:292,1,64.9999970245363,10|2,0:2|0:2,0:0:0:0:
316,292,185045,1,2,0:2:0:0:
316,292,185220,1,2,0:2:0:0:
263,174,185396,6,0,P|247:126|287:38,1,129.999994049073,2|2,3:2|0:3,0:0:0:0:
369,0,185922,1,2,0:2:0:0:
470,43,186097,2,0,B|514:63|502:115|502:115|474:239,1,194.999991073609,10|2,0:2|0:2,0:0:0:0:
381,274,186799,2,0,P|429:326|513:318,1,129.999994049073,2|0,3:2|0:0,0:0:0:0:
478,220,187325,1,0,3:2:0:0:
381,165,187501,6,0,B|334:136|280:165|280:165|230:194|180:162,1,194.999991073609,10|0,0:2|0:0,0:0:0:0:
103,108,188203,2,0,P|87:172|111:236,1,129.999994049073,2|0,3:2|0:0,0:0:0:0:
235,52,188904,6,0,B|213:-7|141:-5|141:-5|49:-1,1,194.999991073609,10|0,0:2|0:0,0:0:0:0:
5,91,189606,2,0,L|-3:179,1,64.9999970245363,2|0,3:2|0:0,0:0:0:0:
98,172,189957,2,0,L|103:107,1,64.9999970245363,2|0,3:2|0:0,0:0:0:0:
208,139,190308,5,10,0:2:0:0:
275,226,190483,2,0,P|279:258|263:302,1,64.9999970245363,2|2,0:2|0:2,0:0:0:0:
166,317,190834,1,2,0:2:0:0:
166,317,191010,2,0,P|162:285|178:241,2,64.9999970245363,2|2|2,3:2|0:2|0:3,0:0:0:0:
378,377,191711,5,10,0:2:0:0:
423,276,191887,2,0,L|415:196,1,64.9999970245363,2|2,0:2|0:2,0:0:0:0:
322,164,192238,1,2,0:2:0:0:
322,164,192413,2,0,P|394:108|494:144,1,194.999991073609,2|2,3:2|3:2,0:0:0:0:
502,25,193115,1,10,0:2:0:0:
394,2,193290,2,0,L|298:-2,1,64.9999970245363,2|2,3:2|0:2,0:0:0:0:
117,53,193817,1,2,3:2:0:0:
117,53,193992,2,0,P|69:133|133:257,1,194.999991073609,2|8,0:2|0:0,0:0:0:0:
427,359,195220,6,0,P|451:303|427:223,2,129.999994049073,4|4|4,3:3|0:3|0:3,0:0:0:0:
210,383,196273,1,8,0:0:0:0:
210,383,196448,1,8,0:0:0:0:
170,288,196624,6,0,L|162:216,1,59.9999981689454,6|0,3:2|0:0,0:0:0:0:
116,137,196975,1,2,0:0:0:0:
160,45,197150,2,0,P|184:29|228:21,1,59.9999981689454,2|10,0:2|0:0,0:0:0:0:
316,51,197501,1,2,0:2:0:0:
316,51,197676,2,0,P|317:79|302:121,1,59.9999981689454,2|2,0:2|0:2,0:0:0:0:
346,204,198027,2,0,L|474:220,1,119.999996337891,2|2,3:2|0:2,0:0:0:0:
466,325,198554,1,2,3:2:0:0:
466,325,198729,2,0,L|346:339,1,119.999996337891,10|0,2:2|0:0,0:0:0:0:
159,238,199431,6,0,B|155:205|178:163|238:168|251:209|249:233|249:233|239:337,1,239.999992675781,2|10,3:2|0:0,0:0:0:0:
47,381,200483,1,2,0:2:0:0:
4,181,200834,1,2,3:2:0:0:
155,43,201185,2,0,P|203:35|275:43,1,119.999996337891,2|8,3:2|2:2,0:0:0:0:
380,217,201887,2,0,P|332:225|260:217,1,119.999996337891,2|0,0:2|3:0,0:0:0:0:
84,115,202589,5,2,0:3:0:0:
150,192,202764,2,0,P|158:228|158:284,1,59.9999981689454,2|10,0:2|0:0,0:0:0:0:
175,356,203115,1,2,0:2:0:0:
175,356,203290,2,0,P|211:364|267:364,1,59.9999981689454,2|2,0:2|0:2,0:0:0:0:
336,357,203641,2,0,P|400:345|460:369,1,119.999996337891,2|2,3:2|0:2,0:0:0:0:
503,276,204168,1,2,3:2:0:0:
503,276,204343,2,0,L|491:152,1,119.999996337891,10|0,2:2|0:0,0:0:0:0:
333,0,205045,6,0,B|301:44|325:92|325:92|349:140|317:192,1,179.999994506836,2|0,3:2|0:0,0:0:0:0:
349,271,205747,2,0,P|261:259|225:175,1,179.999994506836,10|0,0:0|0:0,0:0:0:0:
225,81,206448,1,2,3:2:0:0:
35,6,206799,1,2,3:2:0:0:
3,207,207150,1,10,2:2:0:0:
112,379,207501,2,0,L|192:367,1,59.9999981689454,0|2,0:0|0:2,0:0:0:0:
260,320,207852,6,0,P|260:288|248:252,1,59.9999981689454,6|2,3:2|0:2,0:0:0:0:
209,168,208203,1,2,0:2:0:0:
258,79,208378,2,0,L|321:59,1,59.9999981689454,2|10,0:2|0:0,0:0:0:0:
414,93,208729,1,2,0:2:0:0:
414,93,208904,2,0,L|406:161,1,59.9999981689454,2|2,0:2|0:2,0:0:0:0:
347,235,209255,2,0,P|403:259|471:231,1,119.999996337891,2|2,3:2|0:2,0:0:0:0:
406,152,209782,1,2,3:2:0:0:
406,152,209957,2,0,P|350:128|282:156,1,119.999996337891,10|0,2:2|0:0,0:0:0:0:
169,320,210659,6,0,B|165:353|188:395|248:390|261:349|259:325|259:325|249:221,1,239.999992675781,2|10,3:2|0:0,0:0:0:0:
234,38,211711,1,2,0:2:0:0:
32,5,212062,1,2,3:2:0:0:
15,208,212413,2,0,P|51:257|112:255,1,119.999996337891,2|8,3:2|2:2,0:0:0:0:
275,143,213115,1,2,0:2:0:0:
470,84,213466,1,0,3:0:0:0:
503,285,213817,5,2,0:3:0:0:
415,337,213992,2,0,P|384:326|337:291,1,59.9999981689454,2|10,0:2|0:0,0:0:0:0:
366,213,214343,1,2,0:2:0:0:
366,213,214518,2,0,P|366:181|382:125,1,59.9999981689454,2|2,0:2|0:2,0:0:0:0:
337,57,214869,2,0,L|173:45,1,119.999996337891,2|2,3:2|0:2,0:0:0:0:
118,42,215396,1,2,3:2:0:0:
118,42,215571,2,0,B|70:66|78:122|78:122|102:282,1,239.999992675781,10|2,2:2|3:2,0:0:0:0:
272,376,216975,6,0,B|298:372|315:340|315:340|332:309|364:306,1,119.999996337891,2|2,0:2|0:2,0:0:0:0:
464,316,218027,1,2,0:2:0:0:
480,216,218378,1,2,0:2:0:0:
380,200,218729,1,2,0:2:0:0:
380,200,218904,2,0,P|350:143|365:81,1,130,2|0,0:2|0:0,0:0:0:0:
