osu file format v14

[General]
AudioFilename: audio.mp3
AudioLeadIn: 0
PreviewTime: 53887
Countdown: 1
SampleSet: Normal
StackLeniency: 0.7
Mode: 1
LetterboxInBreaks: 0
WidescreenStoryboard: 0

[Editor]
DistanceSpacing: 1
BeatDivisor: 4
GridSize: 8
TimelineZoom: 1.699999

[Metadata]
Title:Howling (TV Size)
TitleUnicode:Howling (TV Size)
Artist:Abingdon Boys School
ArtistUnicode:Abingdon Boys School
Creator:Eeveesenpai_4_u
Version:Oni
Source:
Tags:
BeatmapID:960367
BeatmapSetID:447286

[Difficulty]
HPDrainRate:6
CircleSize:2
OverallDifficulty:6
ApproachRate:6
SliderMultiplier:1.39999991989136
SliderTickRate:1

[Events]
//Background and Video events
0,0,"Darker than Black.jpg",0,0
//Break Periods
//Storyboard Layer 0 (Background)
//Storyboard Layer 1 (Fail)
//Storyboard Layer 2 (Pass)
//Storyboard Layer 3 (Foreground)
//Storyboard Sound Samples

[TimingPoints]
6900,361.44578313253,4,1,0,57,1,0
53887,-100,4,1,0,57,0,1
77743,-100,4,1,0,57,0,0

[HitObjects]
144,152,6900,5,0,0:0:0:0:
136,152,7261,1,0,0:0:0:0:
144,152,7622,1,0,0:0:0:0:
152,152,7713,1,0,0:0:0:0:
384,160,7803,1,8,0:0:0:0:
376,160,7893,1,2,0:0:0:0:
384,160,7984,1,8,0:0:0:0:
144,152,8074,1,0,0:0:0:0:
144,152,8165,1,0,0:0:0:0:
152,152,8345,1,0,0:0:0:0:
384,160,8707,1,12,0:0:0:0:
152,152,9068,1,0,0:0:0:0:
392,152,9430,1,8,0:0:0:0:
384,160,9791,1,8,0:0:0:0:
384,160,9881,1,8,0:0:0:0:
384,160,9972,1,8,0:0:0:0:
400,152,10153,1,8,0:0:0:0:
152,160,10333,1,0,0:0:0:0:
392,160,10514,1,8,0:0:0:0:
400,152,10604,1,8,0:0:0:0:
400,152,10695,1,8,0:0:0:0:
160,160,10875,1,0,0:0:0:0:
408,152,11056,1,8,0:0:0:0:
160,160,11237,1,0,0:0:0:0:
400,152,11598,1,8,0:0:0:0:
400,152,11689,1,8,0:0:0:0:
400,152,11779,1,8,0:0:0:0:
160,160,11960,1,0,0:0:0:0:
408,152,12140,1,8,0:0:0:0:
160,160,12321,1,0,0:0:0:0:
160,160,12502,1,0,0:0:0:0:
408,160,12683,1,8,0:0:0:0:
408,160,12773,1,8,0:0:0:0:
160,160,12863,1,0,0:0:0:0:
160,160,12954,1,0,0:0:0:0:
400,160,13044,1,8,0:0:0:0:
160,160,13406,1,0,0:0:0:0:
160,160,13586,1,0,0:0:0:0:
400,168,13767,1,8,0:0:0:0:
400,168,13948,1,8,0:0:0:0:
144,168,14128,1,0,0:0:0:0:
144,168,14309,1,0,0:0:0:0:
392,168,14490,1,12,0:0:0:0:
136,168,14851,1,0,0:0:0:0:
384,176,15032,1,8,0:0:0:0:
384,176,15122,1,8,0:0:0:0:
384,176,15213,1,8,0:0:0:0:
384,176,15393,1,8,0:0:0:0:
384,176,15484,1,8,0:0:0:0:
408,176,15574,1,8,0:0:0:0:
160,184,15665,1,0,0:0:0:0:
160,184,15755,1,0,0:0:0:0:
144,184,15936,1,0,0:0:0:0:
160,184,16116,1,0,0:0:0:0:
400,176,16297,1,8,0:0:0:0:
400,176,16478,1,8,0:0:0:0:
400,184,16659,1,0,0:0:0:0:
400,184,16839,1,8,0:0:0:0:
392,176,16930,1,8,0:0:0:0:
144,192,17020,1,0,0:0:0:0:
152,192,17201,1,0,0:0:0:0:
152,200,17381,1,0,0:0:0:0:
384,192,17562,1,8,0:0:0:0:
384,192,17653,1,8,0:0:0:0:
144,192,17743,1,0,0:0:0:0:
152,200,17924,1,0,0:0:0:0:
376,184,18104,1,8,0:0:0:0:
376,184,18195,1,8,0:0:0:0:
376,184,18285,1,8,0:0:0:0:
376,184,18375,1,8,0:0:0:0:
96,192,18466,1,0,0:0:0:0:
96,192,18827,1,0,0:0:0:0:
96,192,19189,1,0,0:0:0:0:
392,192,19369,1,8,0:0:0:0:
88,176,19550,1,0,0:0:0:0:
96,184,19640,1,0,0:0:0:0:
392,192,19731,1,8,0:0:0:0:
96,176,19912,1,0,0:0:0:0:
80,176,20092,1,0,0:0:0:0:
96,176,20183,1,0,0:0:0:0:
400,192,20273,1,8,0:0:0:0:
400,184,20454,1,8,0:0:0:0:
96,168,20634,1,0,0:0:0:0:
96,176,20815,1,0,0:0:0:0:
96,168,20996,1,8,0:0:0:0:
96,168,21177,1,0,0:0:0:0:
392,176,21357,1,8,0:0:0:0:
384,168,21448,1,8,0:0:0:0:
104,168,21538,1,0,0:0:0:0:
392,168,21719,1,8,0:0:0:0:
96,168,21899,1,0,0:0:0:0:
392,168,22080,1,8,0:0:0:0:
408,176,22171,1,8,0:0:0:0:
104,168,22261,1,0,0:0:0:0:
96,160,22442,1,0,0:0:0:0:
392,176,22622,1,8,0:0:0:0:
88,160,22803,1,0,0:0:0:0:
400,176,22984,1,8,0:0:0:0:
392,176,23165,1,8,0:0:0:0:
368,184,23255,1,8,0:0:0:0:
104,168,23345,1,0,0:0:0:0:
352,168,23707,1,8,0:0:0:0:
128,176,23887,1,0,0:0:0:0:
336,168,24249,1,8,0:0:0:0:
320,176,24339,1,8,0:0:0:0:
120,176,24430,1,0,0:0:0:0:
144,160,24610,1,0,0:0:0:0:
128,176,24972,1,0,0:0:0:0:
352,160,25153,1,8,0:0:0:0:
352,168,25333,1,8,0:0:0:0:
352,168,25424,1,8,0:0:0:0:
352,168,25514,1,0,0:0:0:0:
352,168,25604,1,8,0:0:0:0:
352,168,25695,1,0,0:0:0:0:
352,160,25875,1,0,0:0:0:0:
352,176,26056,1,8,0:0:0:0:
352,176,26146,1,8,0:0:0:0:
152,176,26237,1,0,0:0:0:0:
96,176,26327,1,0,0:0:0:0:
128,168,26418,1,0,0:0:0:0:
128,176,26779,1,0,0:0:0:0:
376,168,26960,1,8,0:0:0:0:
384,168,27050,1,8,0:0:0:0:
136,168,27140,1,0,0:0:0:0:
376,168,27321,1,2,0:0:0:0:
136,168,27502,1,0,0:0:0:0:
376,168,27683,1,8,0:0:0:0:
136,168,27863,1,0,0:0:0:0:
384,168,28044,1,8,0:0:0:0:
136,168,28225,1,0,0:0:0:0:
384,176,28406,1,8,0:0:0:0:
384,176,28496,1,8,0:0:0:0:
136,168,28586,1,0,0:0:0:0:
136,168,28677,1,0,0:0:0:0:
136,168,28767,1,0,0:0:0:0:
136,168,28857,1,0,0:0:0:0:
368,160,28948,1,8,0:0:0:0:
368,176,29128,1,8,0:0:0:0:
368,184,29219,1,8,0:0:0:0:
128,168,29309,1,0,0:0:0:0:
128,176,29399,1,0,0:0:0:0:
368,184,29490,1,8,0:0:0:0:
112,160,29671,1,0,0:0:0:0:
112,160,29761,1,0,0:0:0:0:
112,160,29851,1,0,0:0:0:0:
384,176,30032,1,12,0:0:0:0:
112,160,30393,1,0,0:0:0:0:
104,168,30574,1,0,0:0:0:0:
376,168,30755,1,0,0:0:0:0:
368,168,30936,1,8,0:0:0:0:
376,168,31116,1,8,0:0:0:0:
376,168,31297,1,8,0:0:0:0:
376,168,31478,1,8,0:0:0:0:
376,168,31659,1,8,0:0:0:0:
112,168,31839,1,0,0:0:0:0:
128,168,32020,1,0,0:0:0:0:
104,168,32201,1,0,0:0:0:0:
128,168,32381,1,0,0:0:0:0:
104,168,32562,1,0,0:0:0:0:
128,168,32743,1,0,0:0:0:0:
376,168,32924,1,8,0:0:0:0:
376,168,33014,1,8,0:0:0:0:
120,160,33104,1,0,0:0:0:0:
376,176,33285,1,8,0:0:0:0:
112,176,33466,1,0,0:0:0:0:
376,168,33646,1,8,0:0:0:0:
376,168,33737,1,8,0:0:0:0:
120,160,33827,1,0,0:0:0:0:
128,168,34008,1,0,0:0:0:0:
376,168,34189,1,8,0:0:0:0:
376,168,34279,1,8,0:0:0:0:
128,168,34369,1,0,0:0:0:0:
128,168,34550,1,0,0:0:0:0:
376,168,34731,1,0,0:0:0:0:
376,168,34821,1,0,0:0:0:0:
128,168,34912,1,8,0:0:0:0:
120,168,35092,1,0,0:0:0:0:
384,168,35273,1,8,0:0:0:0:
384,168,35363,1,8,0:0:0:0:
128,168,35454,1,0,0:0:0:0:
128,168,35634,1,0,0:0:0:0:
384,160,35815,1,12,0:0:0:0:
128,168,36177,1,0,0:0:0:0:
376,160,36357,1,8,0:0:0:0:
128,168,36538,1,0,0:0:0:0:
376,160,36719,1,8,0:0:0:0:
128,168,36899,1,0,0:0:0:0:
376,176,37080,1,8,0:0:0:0:
128,168,37261,1,0,0:0:0:0:
128,168,37442,1,0,0:0:0:0:
128,168,37622,1,4,0:0:0:0:
368,192,37984,1,8,0:0:0:0:
112,176,38165,1,0,0:0:0:0:
368,192,38345,1,8,0:0:0:0:
112,176,38526,1,0,0:0:0:0:
384,184,38707,1,12,0:0:0:0:
120,176,39068,1,0,0:0:0:0:
120,176,39430,1,0,0:0:0:0:
376,160,39610,1,8,0:0:0:0:
120,176,39791,1,0,0:0:0:0:
120,176,39881,1,0,0:0:0:0:
376,168,39972,1,8,0:0:0:0:
376,168,40062,1,8,0:0:0:0:
120,176,40153,1,0,0:0:0:0:
120,176,40333,1,0,0:0:0:0:
376,168,40514,1,8,0:0:0:0:
376,168,40604,1,8,0:0:0:0:
376,168,40695,1,0,0:0:0:0:
128,168,40875,1,0,0:0:0:0:
128,168,40966,1,0,0:0:0:0:
128,168,41056,1,0,0:0:0:0:
128,168,41237,1,0,0:0:0:0:
376,168,41418,1,12,0:0:0:0:
376,168,41960,1,8,0:0:0:0:
376,168,42050,1,8,0:0:0:0:
376,168,42140,1,8,0:0:0:0:
136,168,42321,1,0,0:0:0:0:
368,160,42502,1,8,0:0:0:0:
136,168,42683,1,0,0:0:0:0:
368,160,42863,1,8,0:0:0:0:
136,168,43044,1,0,0:0:0:0:
136,168,43134,1,0,0:0:0:0:
136,168,43225,1,0,0:0:0:0:
352,160,43315,1,8,0:0:0:0:
128,176,43406,1,0,0:0:0:0:
384,152,43586,1,8,0:0:0:0:
128,176,43767,1,0,0:0:0:0:
136,192,43948,1,0,0:0:0:0:
368,160,44128,1,8,0:0:0:0:
368,160,44219,1,8,0:0:0:0:
368,160,44309,1,8,0:0:0:0:
144,184,44490,1,0,0:0:0:0:
136,184,44580,1,0,0:0:0:0:
136,184,44671,1,0,0:0:0:0:
144,184,44851,1,0,0:0:0:0:
144,184,44942,1,0,0:0:0:0:
144,184,45032,1,0,0:0:0:0:
144,184,45213,1,0,0:0:0:0:
144,184,45303,1,0,0:0:0:0:
144,184,45393,1,0,0:0:0:0:
144,184,45574,1,0,0:0:0:0:
384,168,45755,1,8,0:0:0:0:
144,184,45936,1,0,0:0:0:0:
144,176,46116,1,0,0:0:0:0:
384,168,46297,1,8,0:0:0:0:
144,184,46478,1,0,0:0:0:0:
384,168,46659,1,8,0:0:0:0:
144,184,46839,1,0,0:0:0:0:
384,168,47020,1,8,0:0:0:0:
392,168,47201,1,8,0:0:0:0:
128,176,47381,1,0,0:0:0:0:
352,160,47472,1,8,0:0:0:0:
128,184,47562,1,0,0:0:0:0:
400,176,47743,1,8,0:0:0:0:
112,176,47924,1,0,0:0:0:0:
112,176,48104,1,0,0:0:0:0:
400,192,48285,1,8,0:0:0:0:
112,176,48466,1,0,0:0:0:0:
400,192,48646,1,8,0:0:0:0:
416,192,48827,1,8,0:0:0:0:
416,192,48918,1,8,0:0:0:0:
112,176,49008,1,0,0:0:0:0:
112,176,49189,1,0,0:0:0:0:
416,184,49369,1,8,0:0:0:0:
416,192,49460,1,8,0:0:0:0:
112,176,49550,1,0,0:0:0:0:
96,184,49731,1,0,0:0:0:0:
416,184,49912,1,0,0:0:0:0:
416,184,50002,1,0,0:0:0:0:
432,192,50092,1,8,0:0:0:0:
416,184,50273,1,8,0:0:0:0:
416,184,50363,1,8,0:0:0:0:
96,184,50454,1,0,0:0:0:0:
416,184,50634,1,8,0:0:0:0:
80,184,50996,1,0,0:0:0:0:
80,184,51357,1,0,0:0:0:0:
400,184,51538,1,12,0:0:0:0:
80,184,51899,1,0,0:0:0:0:
392,176,52080,1,12,0:0:0:0:
80,184,52442,1,0,0:0:0:0:
384,176,52622,1,8,0:0:0:0:
384,176,52803,1,8,0:0:0:0:
368,176,52984,1,8,0:0:0:0:
72,192,53165,1,0,0:0:0:0:
88,192,53255,1,0,0:0:0:0:
368,176,53345,1,8,0:0:0:0:
360,176,53526,1,8,0:0:0:0:
392,176,54610,1,12,0:0:0:0:
120,176,54791,1,0,0:0:0:0:
392,176,54972,1,8,0:0:0:0:
400,184,55062,1,8,0:0:0:0:
408,184,55153,1,8,0:0:0:0:
120,176,55243,1,0,0:0:0:0:
128,176,55333,1,0,0:0:0:0:
128,176,55514,1,0,0:0:0:0:
128,168,55695,1,0,0:0:0:0:
128,168,55785,1,0,0:0:0:0:
128,168,55875,1,0,0:0:0:0:
416,176,55966,1,8,0:0:0:0:
416,192,56056,1,8,0:0:0:0:
128,176,56237,1,0,0:0:0:0:
416,192,56418,1,8,0:0:0:0:
136,168,56508,1,0,0:0:0:0:
416,192,56598,1,8,0:0:0:0:
128,160,56779,1,0,0:0:0:0:
128,160,56960,1,0,0:0:0:0:
144,168,57050,1,0,0:0:0:0:
416,176,57140,1,8,0:0:0:0:
416,176,57321,1,8,0:0:0:0:
416,176,57502,1,8,0:0:0:0:
144,176,57683,1,0,0:0:0:0:
408,192,57863,1,8,0:0:0:0:
136,168,57954,1,0,0:0:0:0:
136,176,58044,1,0,0:0:0:0:
136,168,58225,1,0,0:0:0:0:
136,160,58406,1,0,0:0:0:0:
408,184,58586,1,8,0:0:0:0:
408,184,58767,1,8,0:0:0:0:
440,176,58857,1,8,0:0:0:0:
144,152,58948,1,0,0:0:0:0:
144,152,59128,1,0,0:0:0:0:
416,176,59309,1,8,0:0:0:0:
408,184,59399,1,8,0:0:0:0:
416,168,59490,1,8,0:0:0:0:
152,152,59671,1,0,0:0:0:0:
152,152,59851,1,0,0:0:0:0:
408,168,60032,1,8,0:0:0:0:
144,144,60122,1,0,0:0:0:0:
408,168,60213,1,8,0:0:0:0:
152,152,60393,1,0,0:0:0:0:
152,152,60574,1,0,0:0:0:0:
408,160,60755,1,8,0:0:0:0:
408,168,60936,1,8,0:0:0:0:
408,168,61026,1,8,0:0:0:0:
152,152,61116,1,0,0:0:0:0:
136,160,61207,1,0,0:0:0:0:
152,152,61297,1,0,0:0:0:0:
144,160,61387,1,0,0:0:0:0:
408,160,61478,1,8,0:0:0:0:
400,168,61659,1,8,0:0:0:0:
152,152,61839,1,0,0:0:0:0:
152,152,61930,1,0,0:0:0:0:
152,152,62020,1,0,0:0:0:0:
384,160,62110,1,0,0:0:0:0:
384,160,62201,1,8,0:0:0:0:
384,160,62381,1,8,0:0:0:0:
152,152,62562,1,0,0:0:0:0:
152,152,62743,1,0,0:0:0:0:
384,160,62924,1,8,0:0:0:0:
152,152,63104,1,0,0:0:0:0:
152,152,63195,1,0,0:0:0:0:
384,160,63285,1,8,0:0:0:0:
384,160,63466,1,8,0:0:0:0:
152,152,63646,1,0,0:0:0:0:
152,152,63737,1,0,0:0:0:0:
384,160,63827,1,8,0:0:0:0:
384,160,64008,1,8,0:0:0:0:
152,152,64189,1,0,0:0:0:0:
152,152,64279,1,0,0:0:0:0:
384,160,64369,1,8,0:0:0:0:
384,160,64550,1,8,0:0:0:0:
152,152,64731,1,0,0:0:0:0:
152,152,64821,1,0,0:0:0:0:
384,160,64912,1,8,0:0:0:0:
384,168,65002,1,8,0:0:0:0:
384,168,65092,1,8,0:0:0:0:
152,152,65273,1,0,0:0:0:0:
152,152,65363,1,0,0:0:0:0:
384,160,65454,1,8,0:0:0:0:
144,144,65634,1,0,0:0:0:0:
384,160,65815,1,8,0:0:0:0:
384,160,65906,1,8,0:0:0:0:
384,160,65996,1,8,0:0:0:0:
160,144,66086,1,0,0:0:0:0:
144,144,66177,1,0,0:0:0:0:
160,144,66357,1,0,0:0:0:0:
384,144,66538,1,8,0:0:0:0:
384,152,66628,1,8,0:0:0:0:
384,152,66719,1,8,0:0:0:0:
160,152,66899,1,0,0:0:0:0:
160,152,67080,1,0,0:0:0:0:
368,144,67261,1,8,0:0:0:0:
384,152,67351,1,8,0:0:0:0:
384,152,67442,1,8,0:0:0:0:
384,152,67532,1,8,0:0:0:0:
160,144,67622,1,0,0:0:0:0:
160,144,67803,1,0,0:0:0:0:
360,136,67984,1,8,0:0:0:0:
384,152,68165,1,8,0:0:0:0:
360,136,68255,1,8,0:0:0:0:
168,136,68345,1,0,0:0:0:0:
168,136,68526,1,0,0:0:0:0:
360,136,68707,1,8,0:0:0:0:
384,152,68887,1,8,0:0:0:0:
392,176,68978,1,8,0:0:0:0:
168,136,69068,1,0,0:0:0:0:
168,136,69249,1,0,0:0:0:0:
168,136,69339,1,0,0:0:0:0:
360,136,69430,1,8,0:0:0:0:
384,152,69610,1,8,0:0:0:0:
168,136,69791,1,0,0:0:0:0:
168,136,69972,1,0,0:0:0:0:
352,136,70153,1,8,0:0:0:0:
384,152,70333,1,8,0:0:0:0:
168,136,70514,1,0,0:0:0:0:
168,136,70695,1,0,0:0:0:0:
352,128,70875,1,8,0:0:0:0:
384,152,71056,1,8,0:0:0:0:
168,128,71237,1,0,0:0:0:0:
352,128,71418,1,8,0:0:0:0:
352,128,71508,1,8,0:0:0:0:
352,128,71598,1,8,0:0:0:0:
352,128,71689,1,8,0:0:0:0:
352,128,71779,1,8,0:0:0:0:
168,128,71960,1,0,0:0:0:0:
168,128,72140,1,0,0:0:0:0:
352,128,72321,1,8,0:0:0:0:
168,128,72502,1,0,0:0:0:0:
168,128,72683,1,0,0:0:0:0:
168,128,72863,1,0,0:0:0:0:
168,136,72954,1,0,0:0:0:0:
352,128,73044,1,8,0:0:0:0:
168,128,73406,1,0,0:0:0:0:
168,128,73586,1,0,0:0:0:0:
336,128,73767,1,8,0:0:0:0:
168,128,73948,1,0,0:0:0:0:
168,128,74128,1,0,0:0:0:0:
168,128,74309,1,0,0:0:0:0:
328,128,74490,1,8,0:0:0:0:
168,128,74671,1,0,0:0:0:0:
168,128,74851,1,0,0:0:0:0:
168,128,75032,1,0,0:0:0:0:
328,128,75213,1,8,0:0:0:0:
168,128,75393,1,0,0:0:0:0:
168,128,75574,1,0,0:0:0:0:
168,128,75755,1,0,0:0:0:0:
184,136,75845,1,0,0:0:0:0:
336,128,75936,1,8,0:0:0:0:
192,136,76026,1,0,0:0:0:0:
168,136,76116,1,0,0:0:0:0:
336,128,76297,1,8,0:0:0:0:
336,128,76387,1,8,0:0:0:0:
336,128,76478,1,8,0:0:0:0:
336,128,76659,1,8,0:0:0:0:
336,128,76749,1,8,0:0:0:0:
336,128,76839,1,8,0:0:0:0:
336,128,77020,1,8,0:0:0:0:
336,128,77110,1,8,0:0:0:0:
336,128,77201,1,8,0:0:0:0:
336,128,77381,1,8,0:0:0:0:
336,128,77472,1,8,0:0:0:0:
336,128,77562,1,8,0:0:0:0:
336,128,77653,1,8,0:0:0:0:
336,128,77743,1,8,0:0:0:0:
336,128,78104,1,8,0:0:0:0:
336,128,78466,1,8,0:0:0:0:
328,136,78556,1,8,0:0:0:0:
336,128,78646,1,8,0:0:0:0:
336,128,78737,1,8,0:0:0:0:
336,128,78827,1,8,0:0:0:0:
336,136,79189,1,8,0:0:0:0:
320,136,79550,1,8,0:0:0:0:
320,136,79912,1,8,0:0:0:0:
320,136,80002,1,8,0:0:0:0:
320,136,80092,1,8,0:0:0:0:
320,136,80273,1,8,0:0:0:0:
128,168,80454,1,0,0:0:0:0:
320,136,80634,1,8,0:0:0:0:
320,136,80725,1,8,0:0:0:0:
120,136,80815,1,0,0:0:0:0:
128,168,80996,1,0,0:0:0:0:
328,144,81177,1,8,0:0:0:0:
328,144,81267,1,8,0:0:0:0:
128,144,81357,1,0,0:0:0:0:
328,144,81538,1,8,0:0:0:0:
328,144,81628,1,8,0:0:0:0:
128,144,81719,1,0,0:0:0:0:
336,160,81899,1,8,0:0:0:0:
120,168,82080,1,0,0:0:0:0:
120,168,82171,1,0,0:0:0:0:
320,152,82261,1,8,0:0:0:0:
128,176,82442,1,0,0:0:0:0:
320,152,82622,1,8,0:0:0:0:
320,152,82713,1,8,0:0:0:0:
120,168,82803,1,0,0:0:0:0:
320,152,82984,1,8,0:0:0:0:
320,152,83074,1,8,0:0:0:0:
120,168,83165,1,0,0:0:0:0:
128,176,83345,1,0,0:0:0:0:
320,152,83526,1,12,0:0:0:0:
128,176,83707,1,0,0:0:0:0:
304,160,83887,1,8,0:0:0:0:
312,184,84068,1,8,0:0:0:0:
304,160,84249,1,8,0:0:0:0:
304,160,84339,1,8,0:0:0:0:
304,160,84430,1,8,0:0:0:0:
312,184,84610,1,10,0:0:0:0:
136,168,84701,1,0,0:0:0:0:
120,168,84791,1,0,0:0:0:0:
312,184,84972,1,8,0:0:0:0:
120,168,85153,1,0,0:0:0:0:
160,296,85333,2,8,L|448:296,2,279.99999332428
256,192,86960,12,8,88767,0:0:0:0:
160,176,88948,5,12,0:0:0:0:
360,176,89128,1,4,0:0:0:0:
