osu file format v14

[General]
AudioFilename: audio.mp3
AudioLeadIn: 0
PreviewTime: 53887
Countdown: 0
SampleSet: Normal
StackLeniency: 0.7
Mode: 0
LetterboxInBreaks: 0
WidescreenStoryboard: 1

[Editor]
DistanceSpacing: 1
BeatDivisor: 4
GridSize: 8
TimelineZoom: 1.5

[Metadata]
Title:Howling (TV Size)
TitleUnicode:Howling (TV Size)
Artist:Abingdon Boys School
ArtistUnicode:Abingdon Boys School
Creator:Eeveesenpai_4_u
Version:Doll
Source:
Tags:
BeatmapID:962146
BeatmapSetID:447286

[Difficulty]
HPDrainRate:5
CircleSize:3
OverallDifficulty:5
ApproachRate:7
SliderMultiplier:1.39999991989136
SliderTickRate:2

[Events]
//Background and Video events
0,0,"Yin.jpg",0,0
//Break Periods
//Storyboard Layer 0 (Background)
//Storyboard Layer 1 (Fail)
//Storyboard Layer 2 (Pass)
//Storyboard Layer 3 (Foreground)
//Storyboard Sound Samples

[TimingPoints]
6900,361.44578313253,4,1,0,100,1,0
6900,-100,4,1,0,100,0,0
37622,-133.333333333333,4,1,0,100,0,0
44851,-100,4,1,0,100,0,0
45936,-100,4,1,0,100,0,0
53887,-100,4,1,0,100,0,1
77562,-100,4,1,0,100,0,0
386717,-100,4,1,0,100,0,0

[HitObjects]
368,176,6900,6,0,P|345:123|269:88,1,139.999991989136
273,182,7442,1,0,0:0:0:0:
182,173,7622,2,0,L|106:205,1,69.999995994568
32,240,7984,1,0,0:0:0:0:
88,320,8165,1,0,0:0:0:0:
184,320,8345,2,0,L|328:320,1,139.999991989136
248,208,9791,6,0,P|306:241|384:216,1,139.999991989136
321,148,10333,1,0,0:0:0:0:
395,87,10514,2,0,P|336:57|241:91,1,139.999991989136
176,80,11056,1,0,0:0:0:0:
112,152,11237,1,0,0:0:0:0:
148,233,11418,1,0,0:0:0:0:
52,239,11598,2,0,P|88:304|168:328,1,139.999991989136
340,133,12683,6,0,L|341:292,1,139.999991989136
339,58,13225,1,0,0:0:0:0:
260,102,13406,2,0,P|304:144|430:83,1,209.999987983704
339,58,14128,2,0,P|250:21|204:47,1,139.999991989136
94,106,14851,1,0,0:0:0:0:
72,240,15032,2,0,L|128:248,4,34.999997997284
200,264,15574,1,0,0:0:0:0:
320,216,15936,1,0,0:0:0:0:
288,88,16297,1,0,0:0:0:0:
128,320,16659,5,0,0:0:0:0:
56,256,16839,2,0,P|64:208|80:192,1,69.999995994568
104,104,17201,1,0,0:0:0:0:
184,160,17381,1,0,0:0:0:0:
264,96,17562,2,0,P|336:128|344:144,1,69.999995994568
376,200,17924,1,0,0:0:0:0:
393,230,18014,1,0,0:0:0:0:
400,264,18104,1,0,0:0:0:0:
397,299,18195,1,0,0:0:0:0:
384,331,18285,1,0,0:0:0:0:
320,352,18466,6,0,P|232:344|200:288,1,139.999991989136
136,208,19369,1,0,0:0:0:0:
184,128,19550,1,0,0:0:0:0:
288,112,19731,5,0,0:0:0:0:
416,56,19912,2,0,L|328:40,1,69.999995994568
448,136,20273,2,0,L|296:192,1,139.999991989136
184,152,20815,1,0,0:0:0:0:
112,272,20996,1,0,0:0:0:0:
240,288,21177,1,0,0:0:0:0:
368,272,21357,2,0,P|440:248|472:184,1,139.999991989136
336,176,21899,5,0,0:0:0:0:
272,136,22080,2,0,P|232:128|128:144,1,139.999991989136
72,168,22622,1,0,0:0:0:0:
80,280,22984,1,0,0:0:0:0:
144,304,23165,1,0,0:0:0:0:
240,304,24430,5,0,0:0:0:0:
328,280,24610,1,0,0:0:0:0:
408,240,24791,1,0,0:0:0:0:
456,176,24972,2,0,P|440:128|344:80,1,139.999991989136
360,176,25514,2,0,P|320:176|288:192,1,69.999995994568
208,144,25875,1,0,0:0:0:0:
120,184,26056,2,0,P|88:256|128:336,1,139.999991989136
184,256,26598,1,0,0:0:0:0:
264,296,26779,1,0,0:0:0:0:
352,288,26960,1,0,0:0:0:0:
432,88,27502,5,0,0:0:0:0:
304,88,27683,2,0,L|144:88,1,139.999991989136
264,176,28225,1,0,0:0:0:0:
256,296,28406,6,0,P|128:296|120:160,1,279.999983978272
192,224,29309,2,0,L|232:184,2,34.999997997284
288,144,29671,2,0,L|352:144,2,34.999997997284
304,264,30032,6,0,L|384:264,1,69.999995994568
416,144,30393,2,0,L|472:88,1,69.999995994568
464,88,30755,1,0,0:0:0:0:
200,56,31116,2,0,L|128:104,1,69.999995994568
232,184,31478,1,0,0:0:0:0:
96,168,31659,1,0,0:0:0:0:
112,304,31839,2,0,B|216:216|248:344|336:264,2,209.999987983704
256,152,33285,6,0,P|200:136|176:152,1,69.999995994568
104,168,33646,2,0,L|72:248,1,69.999995994568
128,312,34008,5,0,0:0:0:0:
216,248,34189,1,0,0:0:0:0:
296,336,34369,1,0,0:0:0:0:
328,240,34550,1,0,0:0:0:0:
424,264,34731,6,0,P|456:216|448:192,1,69.999995994568
440,136,35092,2,0,P|416:104|384:88,1,69.999995994568
328,80,35454,2,0,L|264:112,1,69.999995994568
208,144,35815,1,0,0:0:0:0:
152,248,36177,5,0,0:0:0:0:
264,192,36538,1,0,0:0:0:0:
320,280,36719,1,0,0:0:0:0:
368,192,36899,1,0,0:0:0:0:
464,216,37080,1,0,0:0:0:0:
480,128,37261,2,0,P|416:104|392:104,1,69.999995994568
408,104,37622,6,0,B|280:-8|288:160|96:40,1,314.999993991852
280,224,39068,5,0,0:0:0:0:
440,216,39430,2,0,P|456:192|432:104,1,104.999997997284
352,88,39972,1,0,0:0:0:0:
248,80,40153,2,0,P|192:80|128:96,1,104.999997997284
144,90,40604,1,0,0:0:0:0:
144,90,40694,1,0,0:0:0:0:
136,200,40875,2,0,L|200:224,1,52.499998998642
256,288,41418,6,0,B|336:248|200:120|344:48,1,262.49999499321
96,112,42863,5,0,0:0:0:0:
88,112,43044,2,0,L|80:240,1,104.999997997284
152,280,43586,1,0,0:0:0:0:
224,328,43767,2,0,B|328:264|312:272|312:272,1,104.999997997284
320,176,44309,1,0,0:0:0:0:
392,64,44671,5,0,0:0:0:0:
264,88,44851,1,0,0:0:0:0:
336,264,45213,1,0,0:0:0:0:
144,208,45574,1,0,0:0:0:0:
320,144,45936,1,0,0:0:0:0:
192,288,46297,1,0,0:0:0:0:
128,104,46659,1,0,0:0:0:0:
272,232,47020,1,0,0:0:0:0:
368,224,47201,5,0,0:0:0:0:
376,216,47381,2,0,P|440:160|432:88,1,139.999991989136
352,128,47924,1,0,0:0:0:0:
296,56,48104,1,0,0:0:0:0:
216,112,48285,1,0,0:0:0:0:
120,96,48466,1,0,0:0:0:0:
96,248,48827,2,0,P|136:328|264:336,1,209.999987983704
208,240,49731,5,0,0:0:0:0:
376,160,49912,2,0,P|336:128|312:104,1,69.999995994568
264,80,50273,1,0,0:0:0:0:
192,80,50454,1,0,0:0:0:0:
128,120,50634,1,0,0:0:0:0:
88,176,50815,2,0,L|80:256,1,69.999995994568
80,304,51177,2,0,P|120:320|216:288,1,139.999991989136
256,192,51899,1,0,0:0:0:0:
256,192,52080,12,0,53345,0:0:0:0:
384,184,54610,6,0,P|344:144|248:96,1,139.999991989136
176,88,55153,1,0,0:0:0:0:
176,88,55243,1,0,0:0:0:0:
176,88,55333,2,0,L|96:144,1,69.999995994568
96,320,55875,1,0,0:0:0:0:
392,168,56779,6,0,P|376:112|352:96,1,69.999995994568
288,176,57140,1,0,0:0:0:0:
240,80,57321,1,0,0:0:0:0:
136,80,57502,2,0,L|48:104,1,69.999995994568
96,200,57863,1,0,0:0:0:0:
96,200,58044,2,0,L|160:256,1,69.999995994568
216,336,58406,1,0,0:0:0:0:
224,336,58767,2,0,P|312:232|384:200,1,209.999987983704
304,104,60032,6,0,L|264:176,1,69.999995994568
136,224,60393,2,0,L|208:248,1,69.999995994568
296,328,60755,1,0,0:0:0:0:
392,248,60936,1,0,0:0:0:0:
456,136,61116,1,0,0:0:0:0:
360,56,61297,1,0,0:0:0:0:
232,64,61478,2,0,P|160:56|144:64,1,69.999995994568
64,136,61839,1,0,0:0:0:0:
48,264,62020,1,0,0:0:0:0:
112,328,62381,5,0,0:0:0:0:
112,328,62562,2,0,P|168:328|208:304,1,69.999995994568
248,312,62924,2,0,P|288:288|312:272,1,69.999995994568
360,248,63285,2,0,P|392:200|392:168,1,69.999995994568
368,128,63646,1,0,0:0:0:0:
368,128,63827,2,0,B|312:40|296:160|160:64,1,209.999987983704
72,136,64550,1,0,0:0:0:0:
64,208,64731,1,0,0:0:0:0:
96,272,64912,2,0,L|184:264,1,69.999995994568
320,344,65454,5,0,0:0:0:0:
408,296,65634,1,0,0:0:0:0:
400,200,65815,1,0,0:0:0:0:
400,192,66177,2,0,P|352:152|320:152,1,69.999995994568
328,56,66538,1,0,0:0:0:0:
264,144,66719,1,0,0:0:0:0:
176,96,66899,1,0,0:0:0:0:
96,144,67080,2,0,L|64:216,1,69.999995994568
72,216,67442,2,0,P|120:264|256:232,1,209.999987983704
376,248,68345,5,0,0:0:0:0:
296,160,68526,1,0,0:0:0:0:
224,96,68707,2,0,P|160:96|144:120,1,69.999995994568
96,160,69068,2,0,P|40:216|48:296,1,139.999991989136
128,248,69610,1,0,0:0:0:0:
296,304,69972,6,0,P|360:288|376:264,1,69.999995994568
360,287,70333,1,0,0:0:0:0:
432,112,70695,5,0,0:0:0:0:
424,112,71056,2,0,L|352:112,1,69.999995994568
128,104,71598,6,0,L|72:160,1,69.999995994568
64,248,71960,2,0,L|112:312,1,69.999995994568
160,376,72321,1,0,0:0:0:0:
256,328,72502,1,0,0:0:0:0:
256,328,72592,1,0,0:0:0:0:
256,328,72683,2,0,L|328:288,1,69.999995994568
360,208,73044,2,0,L|320:136,1,69.999995994568
248,96,73406,1,0,0:0:0:0:
240,96,73586,1,0,0:0:0:0:
96,256,74128,6,0,L|160:312,1,69.999995994568
148,302,74490,1,0,0:0:0:0:
256,240,74671,1,0,0:0:0:0:
344,288,74851,2,0,L|408:256,1,69.999995994568
424,160,75213,1,0,0:0:0:0:
416,160,75393,1,0,0:0:0:0:
320,144,75574,1,0,0:0:0:0:
264,64,75755,1,0,0:0:0:0:
168,104,75936,2,0,B|272:192|72:224|216:368,1,279.999983978272
328,272,77020,5,0,0:0:0:0:
360,256,77110,1,0,0:0:0:0:
384,240,77201,1,0,0:0:0:0:
408,215,77291,1,0,0:0:0:0:
420,182,77381,1,0,0:0:0:0:
419,147,77472,1,0,0:0:0:0:
403,116,77562,1,0,0:0:0:0:
392,96,77743,2,0,P|336:88|304:96,1,69.999995994568
208,80,78104,6,0,L|128:112,1,69.999995994568
88,144,78466,1,0,0:0:0:0:
67,172,78556,1,0,0:0:0:0:
64,208,78646,2,0,P|96:304|216:312,1,209.999987983704
160,232,79369,1,0,0:0:0:0:
256,248,79550,2,0,P|328:208|336:192,1,69.999995994568
416,184,79912,2,0,L|424:112,1,69.999995994568
328,56,80273,2,0,L|256:48,1,69.999995994568
136,144,80996,6,0,P|104:184|96:224,1,69.999995994568
72,296,81357,1,0,0:0:0:0:
144,352,81538,1,0,0:0:0:0:
224,288,81719,2,0,B|304:320|352:256,1,139.999991989136
272,200,82261,1,0,0:0:0:0:
368,168,82442,2,0,P|328:112|256:88,1,139.999991989136
176,64,82984,1,0,0:0:0:0:
176,72,83165,2,0,L|88:184,1,139.999991989136
232,288,83887,6,0,L|304:248,1,69.999995994568
376,232,84249,2,0,L|448:184,1,69.999995994568
400,120,84610,2,0,L|352:64,1,69.999995994568
280,80,84972,1,0,0:0:0:0:
176,88,85153,2,0,B|112:144|112:144|192:152|192:152|88:208|88:208|216:200|216:200|88:288,1,559.999967956544
256,192,86960,12,0,88767,0:0:0:0:
