osu file format v14

[General]
AudioFilename: Cotton Candy (Abel & RiraN).ogg
AudioLeadIn: 0
PreviewTime: 14544
Countdown: 0
SampleSet: Drum
StackLeniency: 0.7
Mode: 3
LetterboxInBreaks: 0
SpecialStyle: 0
WidescreenStoryboard: 0

[Editor]
DistanceSpacing: 0.8
BeatDivisor: 2
GridSize: 32
TimelineZoom: 1.2

[Metadata]
Title:Cotton Candy
TitleUnicode:Cotton Candy
Artist:Abel & RiraN
ArtistUnicode:Abel & RiraN
Creator:storn42
Version:Normal
Source:CHRONO CIRCLE
Tags:fa featured artist electronic rhythm video game arcade bright future hardstyle hard style orchestra piano emoism records english jinyong choe 최진용 abel_orchestra abelorch yantey fusebox
BeatmapID:4119403
BeatmapSetID:1983524

[Difficulty]
HPDrainRate:6.5
CircleSize:4
OverallDifficulty:6.5
ApproachRate:5
SliderMultiplier:1.4
SliderTickRate:1

[Events]
//Background and Video events
Video,-10,"Chrono Circle Bga - Cotton Candy(Abel & Riran)-2.mp4"
0,0,"bg.jpg",0,0
//Break Periods
//Storyboard Layer 0 (Background)
//Storyboard Layer 1 (Fail)
//Storyboard Layer 2 (Pass)
//Storyboard Layer 3 (Foreground)
//Storyboard Layer 4 (Overlay)
//Storyboard Sound Samples

[TimingPoints]
211,333.333333,4,2,1,40,1,0
36210,-100,4,3,1,40,0,0
57544,-100,4,2,1,40,0,0
89544,-100,4,3,1,40,0,0

[HitObjects]
320,192,3877,5,0,0:0:0:0:
192,192,4044,1,0,0:0:0:0:
448,192,4210,1,4,0:0:0:0:
320,192,4544,1,0,0:0:0:0:
192,192,4877,1,0,0:0:0:0:
64,192,5210,1,0,0:0:0:0:
320,192,6544,1,0,0:0:0:0:
192,192,6710,1,0,0:0:0:0:
448,192,6877,1,0,0:0:0:0:
192,192,7044,1,0,0:0:0:0:
320,192,7210,1,0,0:0:0:0:
64,192,7377,1,0,0:0:0:0:
320,192,7544,1,0,0:0:0:0:
192,192,7877,1,0,0:0:0:0:
320,192,9210,1,0,0:0:0:0:
192,192,9377,1,0,0:0:0:0:
448,192,9544,1,2,0:0:0:0:
320,192,9877,1,0,0:0:0:0:
192,192,10044,1,2,0:0:0:0:
64,192,10377,1,2,0:0:0:0:
320,192,10544,1,2,0:0:0:0:
448,192,12377,1,2,0:0:0:0:
192,192,12544,1,2,0:0:0:0:
448,192,12710,1,2,0:0:0:0:
64,192,12877,1,2,0:0:0:0:
320,192,13044,1,2,0:0:0:0:
64,192,13210,1,2,0:0:0:0:
192,192,13377,1,2,0:0:0:0:
448,192,13544,1,2,0:0:0:0:
64,192,13877,1,2,0:0:0:0:
64,192,14544,128,0,14877:0:0:0:0:
448,192,14877,1,12,0:0:0:0:
192,192,15210,1,8,0:0:0:0:
64,192,15544,1,8,0:0:0:0:
320,192,15710,1,0,0:0:0:0:
192,192,15877,1,8,0:0:0:0:
448,192,16044,1,0,0:0:0:0:
64,192,16377,1,0,0:0:0:0:
320,192,16710,1,0,0:0:0:0:
64,192,16877,1,8,0:0:0:0:
320,192,17044,1,0,0:0:0:0:
192,192,17210,1,8,0:0:0:0:
320,192,17377,1,0,0:0:0:0:
448,192,17544,1,8,0:0:0:0:
192,192,17877,1,8,0:0:0:0:
64,192,18210,1,8,0:0:0:0:
320,192,18377,1,0,0:0:0:0:
64,192,18544,1,8,0:0:0:0:
448,192,18710,1,0,0:0:0:0:
320,192,19044,1,0,0:0:0:0:
192,192,19377,1,0,0:0:0:0:
64,192,19710,1,0,0:0:0:0:
192,192,19877,128,8,20210:0:0:0:0:
448,192,20210,1,8,0:0:0:0:
64,192,20544,1,8,0:0:0:0:
192,192,20877,1,8,0:0:0:0:
320,192,21044,1,0,0:0:0:0:
192,192,21210,1,8,0:0:0:0:
448,192,21377,1,0,0:0:0:0:
320,192,21710,1,0,0:0:0:0:
192,192,22044,1,0,0:0:0:0:
64,192,22377,1,0,0:0:0:0:
192,192,22710,1,0,0:0:0:0:
448,192,22877,1,8,0:0:0:0:
192,192,23210,1,8,0:0:0:0:
320,192,23544,1,8,0:0:0:0:
64,192,23710,1,0,0:0:0:0:
192,192,23877,1,8,0:0:0:0:
448,192,24044,1,0,0:0:0:0:
320,192,24377,1,2,0:0:0:0:
192,192,24710,1,0,0:0:0:0:
64,192,25044,1,8,0:0:0:0:
320,192,25544,1,14,0:0:0:0:
192,192,25877,1,10,0:0:0:0:
320,192,26044,1,0,0:0:0:0:
64,192,26377,1,2,0:0:0:0:
448,192,26544,1,8,0:0:0:0:
192,192,26710,1,2,0:0:0:0:
192,192,27044,1,2,0:0:0:0:
320,192,27210,1,8,0:0:0:0:
64,192,27377,1,2,0:0:0:0:
192,192,27710,1,2,0:0:0:0:
320,192,27877,1,10,0:0:0:0:
448,192,28210,1,14,0:0:0:0:
320,192,28544,1,10,0:0:0:0:
192,192,28710,1,0,0:0:0:0:
448,192,29044,1,2,0:0:0:0:
64,192,29210,1,8,0:0:0:0:
320,192,29377,1,2,0:0:0:0:
320,192,29710,1,2,0:0:0:0:
192,192,29877,1,10,0:0:0:0:
64,192,30044,1,2,0:0:0:0:
448,192,30377,1,2,0:0:0:0:
192,192,30544,1,10,0:0:0:0:
320,192,30710,1,0,0:0:0:0:
64,192,30877,1,6,0:0:0:0:
64,192,31210,1,2,0:0:0:0:
192,192,31544,1,2,0:0:0:0:
192,192,31877,1,2,0:0:0:0:
320,192,32210,1,6,0:0:0:0:
320,192,32544,1,2,0:0:0:0:
448,192,32877,1,2,0:0:0:0:
448,192,33210,1,2,0:0:0:0:
64,192,33544,1,6,0:0:0:0:
448,192,33710,1,2,0:0:0:0:
64,192,33877,1,2,0:0:0:0:
448,192,34044,1,2,0:0:0:0:
192,192,34210,1,6,0:0:0:0:
320,192,34377,1,2,0:0:0:0:
192,192,34544,1,2,0:0:0:0:
320,192,34710,1,2,0:0:0:0:
64,192,36210,1,6,0:0:0:0:
448,192,36210,1,8,0:0:0:0:
320,192,36877,1,8,0:0:0:0:
64,192,37377,1,0,0:0:0:0:
320,192,37544,1,0,0:0:0:0:
448,192,38044,1,0,0:0:0:0:
192,192,38210,1,8,0:0:0:0:
320,192,38544,1,0,0:0:0:0:
192,192,38710,1,0,0:0:0:0:
448,192,38877,1,2,0:0:0:0:
192,192,39544,1,8,0:0:0:0:
448,192,39877,1,2,0:0:0:0:
64,192,40044,1,0,0:0:0:0:
320,192,40210,1,2,0:0:0:0:
192,192,40377,1,0,0:0:0:0:
320,192,40544,1,0,0:0:0:0:
192,192,40710,1,0,0:0:0:0:
448,192,40877,1,8,0:0:0:0:
64,192,41044,1,0,0:0:0:0:
448,192,41210,1,0,0:0:0:0:
64,192,41377,1,0,0:0:0:0:
320,192,41544,1,2,0:0:0:0:
448,192,41544,1,4,0:0:0:0:
192,192,42210,1,8,0:0:0:0:
192,192,42710,1,0,0:0:0:0:
320,192,42877,1,0,0:0:0:0:
448,192,43377,1,0,0:0:0:0:
192,192,43544,1,8,0:0:0:0:
320,192,43877,1,0,0:0:0:0:
64,192,44044,1,0,0:0:0:0:
448,192,44210,1,2,0:0:0:0:
192,192,44877,1,8,0:0:0:0:
448,192,45210,1,2,0:0:0:0:
64,192,45377,1,0,0:0:0:0:
320,192,45544,1,6,0:0:0:0:
192,192,45877,1,4,0:0:0:0:
448,192,46210,1,4,0:0:0:0:
64,192,46544,1,4,0:0:0:0:
192,192,46877,1,2,0:0:0:0:
320,192,46877,1,4,0:0:0:0:
448,192,47210,1,8,0:0:0:0:
192,192,47544,1,0,0:0:0:0:
448,192,47877,1,8,0:0:0:0:
64,192,48044,1,0,0:0:0:0:
320,192,48210,1,2,0:0:0:0:
320,192,48544,1,8,0:0:0:0:
320,192,48877,1,0,0:0:0:0:
320,192,49210,1,8,0:0:0:0:
64,192,49377,1,0,0:0:0:0:
192,192,49544,1,2,0:0:0:0:
448,192,49877,1,8,0:0:0:0:
320,192,50210,1,0,0:0:0:0:
448,192,50544,1,8,0:0:0:0:
64,192,50710,1,0,0:0:0:0:
320,192,50877,1,2,0:0:0:0:
192,192,51044,1,0,0:0:0:0:
320,192,51210,1,8,0:0:0:0:
192,192,51377,1,2,0:0:0:0:
448,192,51544,1,0,0:0:0:0:
64,192,51710,1,2,0:0:0:0:
448,192,51877,1,8,0:0:0:0:
64,192,52044,1,0,0:0:0:0:
320,192,52210,1,2,0:0:0:0:
448,192,52210,1,4,0:0:0:0:
192,192,52544,1,8,0:0:0:0:
448,192,52877,1,0,0:0:0:0:
192,192,53210,1,8,0:0:0:0:
320,192,53377,1,0,0:0:0:0:
64,192,53544,1,2,0:0:0:0:
64,192,53877,1,8,0:0:0:0:
64,192,54210,1,0,0:0:0:0:
64,192,54544,1,8,0:0:0:0:
448,192,54710,1,0,0:0:0:0:
320,192,54877,1,2,0:0:0:0:
192,192,55210,1,8,0:0:0:0:
448,192,55544,1,0,0:0:0:0:
192,192,55877,1,8,0:0:0:0:
320,192,56044,1,0,0:0:0:0:
64,192,56210,1,4,0:0:0:0:
192,192,56544,1,4,0:0:0:0:
320,192,56877,1,4,0:0:0:0:
448,192,57210,1,4,0:0:0:0:
64,192,57544,1,4,0:0:0:0:
320,192,57877,128,0,58210:0:0:0:0:
192,192,58210,128,8,58544:0:0:0:0:
448,192,58544,1,0,0:0:0:0:
64,192,58710,1,0,0:0:0:0:
448,192,59044,128,0,59544:0:0:0:0:
64,192,59544,128,8,59877:0:0:0:0:
320,192,59877,128,0,60210:0:0:0:0:
192,192,60210,1,0,0:0:0:0:
320,192,60544,128,0,60877:0:0:0:0:
64,192,60877,128,8,61210:0:0:0:0:
448,192,61210,1,0,0:0:0:0:
192,192,61377,1,0,0:0:0:0:
448,192,61710,128,0,62210:0:0:0:0:
320,192,62210,128,8,62544:0:0:0:0:
64,192,62544,128,0,62877:0:0:0:0:
192,192,62877,1,0,0:0:0:0:
64,192,63210,128,0,63544:0:0:0:0:
320,192,63544,128,8,63877:0:0:0:0:
448,192,63877,1,0,0:0:0:0:
192,192,64044,1,0,0:0:0:0:
448,192,64377,128,0,64877:0:0:0:0:
192,192,64877,128,8,65210:0:0:0:0:
64,192,65210,128,0,65544:0:0:0:0:
448,192,65544,1,0,0:0:0:0:
192,192,65877,128,0,66210:0:0:0:0:
320,192,66210,128,8,66544:0:0:0:0:
192,192,66544,1,0,0:0:0:0:
448,192,66710,128,0,67210:0:0:0:0:
320,192,67210,128,0,67544:0:0:0:0:
192,192,67544,128,8,67877:0:0:0:0:
64,192,67877,128,0,68210:0:0:0:0:
320,192,68210,1,4,0:0:0:0:
192,192,68544,128,0,68877:0:0:0:0:
320,192,68877,128,8,69210:0:0:0:0:
192,192,69210,1,0,0:0:0:0:
448,192,69377,1,0,0:0:0:0:
320,192,69710,128,0,70210:0:0:0:0:
192,192,70210,128,8,70544:0:0:0:0:
64,192,70544,128,0,70877:0:0:0:0:
448,192,70877,1,0,0:0:0:0:
192,192,71210,128,0,71544:0:0:0:0:
448,192,71544,128,8,71877:0:0:0:0:
192,192,71877,1,0,0:0:0:0:
64,192,72044,1,0,0:0:0:0:
448,192,72377,128,0,72544:0:0:0:0:
320,192,72710,128,0,73210:0:0:0:0:
192,192,73210,128,0,73544:0:0:0:0:
448,192,73544,1,0,0:0:0:0:
64,192,73877,128,0,74210:0:0:0:0:
192,192,74210,128,8,74544:0:0:0:0:
448,192,74544,1,0,0:0:0:0:
64,192,74710,1,0,0:0:0:0:
448,192,75044,128,0,75544:0:0:0:0:
192,192,75544,128,8,75877:0:0:0:0:
320,192,75877,128,0,76210:0:0:0:0:
448,192,76210,1,0,0:0:0:0:
64,192,76544,128,0,76877:0:0:0:0:
192,192,76877,128,8,77210:0:0:0:0:
64,192,77210,1,0,0:0:0:0:
320,192,77377,1,0,0:0:0:0:
448,192,77710,128,0,78210:0:0:0:0:
320,192,78210,128,8,78544:0:0:0:0:
64,192,78544,128,0,78877:0:0:0:0:
192,192,78544,128,0,78877:0:0:0:0:
448,192,78877,1,14,0:0:0:0:
320,192,79210,1,10,0:0:0:0:
64,192,79377,1,0,0:0:0:0:
192,192,79710,1,2,0:0:0:0:
64,192,79877,1,8,0:0:0:0:
448,192,80044,1,2,0:0:0:0:
448,192,80377,1,2,0:0:0:0:
192,192,80544,1,10,0:0:0:0:
320,192,80710,1,0,0:0:0:0:
64,192,81044,1,2,0:0:0:0:
448,192,81210,1,10,0:0:0:0:
192,192,81544,1,14,0:0:0:0:
448,192,81877,1,10,0:0:0:0:
320,192,82044,1,0,0:0:0:0:
192,192,82377,1,2,0:0:0:0:
320,192,82544,1,8,0:0:0:0:
64,192,82710,1,2,0:0:0:0:
64,192,83044,1,2,0:0:0:0:
448,192,83210,1,10,0:0:0:0:
320,192,83377,1,0,0:0:0:0:
192,192,83710,1,2,0:0:0:0:
448,192,83877,1,10,0:0:0:0:
320,192,84044,1,0,0:0:0:0:
64,192,84210,1,6,0:0:0:0:
64,192,84544,1,2,0:0:0:0:
192,192,84877,1,2,0:0:0:0:
192,192,85210,1,2,0:0:0:0:
320,192,85544,1,6,0:0:0:0:
320,192,85877,1,2,0:0:0:0:
448,192,86210,1,2,0:0:0:0:
448,192,86544,1,2,0:0:0:0:
192,192,86877,1,6,0:0:0:0:
320,192,87044,1,2,0:0:0:0:
192,192,87210,1,2,0:0:0:0:
320,192,87377,1,2,0:0:0:0:
64,192,87544,1,6,0:0:0:0:
448,192,87710,1,2,0:0:0:0:
64,192,87877,1,2,0:0:0:0:
448,192,88044,1,2,0:0:0:0:
64,192,89210,128,0,89544:0:0:0:0:
448,192,89544,1,6,0:0:0:0:
192,192,89877,1,2,0:0:0:0:
320,192,90210,1,8,0:3:0:0:
64,192,90377,1,0,0:0:0:0:
192,192,90544,1,0,0:0:0:0:
448,192,90710,1,2,0:0:0:0:
320,192,91044,1,2,0:0:0:0:
192,192,91377,1,2,0:0:0:0:
320,192,91544,1,8,0:3:0:0:
64,192,91710,1,0,0:0:0:0:
320,192,91877,1,2,0:0:0:0:
192,192,92044,1,2,0:0:0:0:
448,192,92210,1,2,0:0:0:0:
320,192,92544,1,2,0:0:0:0:
64,192,92877,1,8,0:3:0:0:
320,192,93044,1,0,0:0:0:0:
192,192,93210,1,0,0:0:0:0:
448,192,93377,1,2,0:0:0:0:
320,192,93710,1,2,0:0:0:0:
192,192,94044,1,2,0:0:0:0:
64,192,94377,1,0,0:0:0:0:
192,192,94544,128,2,94877:0:0:0:0:
448,192,94877,1,6,0:0:0:0:
64,192,95210,1,2,0:0:0:0:
320,192,95544,1,8,0:3:0:0:
64,192,95710,1,0,0:0:0:0:
320,192,95877,1,0,0:0:0:0:
448,192,96044,1,2,0:0:0:0:
320,192,96377,1,2,0:0:0:0:
192,192,96710,1,2,0:0:0:0:
64,192,97044,1,0,0:0:0:0:
192,192,97377,1,2,0:0:0:0:
320,192,97544,1,2,0:0:0:0:
64,192,97877,1,2,0:0:0:0:
448,192,98210,1,8,0:3:0:0:
192,192,98377,1,0,0:0:0:0:
320,192,98544,1,0,0:0:0:0:
448,192,98710,1,2,0:0:0:0:
320,192,99044,1,2,0:0:0:0:
192,192,99377,1,2,0:0:0:0:
64,192,99710,1,0,0:0:0:0:
192,192,99877,128,0,100210:0:0:0:0:
448,192,100210,1,6,0:0:0:0:
320,192,100544,1,8,0:3:0:0:
64,192,100710,1,2,0:0:0:0:
192,192,101044,1,2,0:0:0:0:
448,192,101210,1,8,0:3:0:0:
320,192,101377,1,0,0:0:0:0:
320,192,101710,1,0,0:0:0:0:
64,192,101877,1,8,0:3:0:0:
192,192,102044,1,2,0:0:0:0:
64,192,102377,1,2,0:0:0:0:
448,192,102544,1,8,0:3:0:0:
192,192,102877,1,2,0:0:0:0:
64,192,103210,1,8,0:3:0:0:
320,192,103377,1,2,0:0:0:0:
64,192,103710,1,2,0:0:0:0:
192,192,103877,1,8,0:3:0:0:
448,192,104044,1,0,0:0:0:0:
448,192,104377,1,0,0:0:0:0:
320,192,104544,1,8,0:3:0:0:
192,192,104710,1,2,0:0:0:0:
64,192,105044,1,2,0:0:0:0:
320,192,105210,1,8,0:3:0:0:
192,192,105377,1,2,0:0:0:0:
64,192,105544,1,6,0:0:0:0:
64,192,105877,1,2,0:0:0:0:
192,192,106210,1,2,0:0:0:0:
192,192,106544,1,2,0:0:0:0:
320,192,106877,1,2,0:0:0:0:
320,192,107210,1,2,0:0:0:0:
448,192,107544,1,2,0:0:0:0:
448,192,107877,1,2,0:0:0:0:
64,192,108210,1,6,0:0:0:0:
320,192,108377,1,2,0:0:0:0:
64,192,108544,1,2,0:0:0:0:
320,192,108710,1,2,0:0:0:0:
192,192,108877,1,2,0:0:0:0:
320,192,109044,1,2,0:0:0:0:
192,192,109210,1,2,0:0:0:0:
320,192,109377,1,2,0:0:0:0:
192,192,109544,1,6,0:0:0:0:
448,192,109710,1,2,0:0:0:0:
192,192,109877,1,2,0:0:0:0:
448,192,110044,1,2,0:0:0:0:
64,192,110210,1,2,0:0:0:0:
448,192,110377,1,2,0:0:0:0:
64,192,110544,1,2,0:0:0:0:
448,192,110710,1,2,0:0:0:0:
192,192,110877,1,4,0:0:0:0:
64,192,111210,1,0,0:0:0:0:
192,192,111544,1,0,0:0:0:0:
320,192,111710,1,0,0:0:0:0:
64,192,111877,1,0,0:0:0:0:
320,192,112044,1,0,0:0:0:0:
448,192,112377,128,0,112877:0:0:0:40:soft-hitwhistle.wav
320,192,112877,128,0,113210:0:0:0:40:soft-hitclap.wav
192,192,113210,128,0,113544:0:0:0:0:
448,192,113544,1,6,0:0:0:0:
64,192,113877,1,2,0:0:0:0:
192,192,114210,1,8,0:0:0:0:
320,192,114377,1,0,0:0:0:0:
192,192,114544,1,0,0:0:0:0:
448,192,114710,1,2,0:0:0:0:
320,192,115044,1,2,0:0:0:0:
192,192,115377,1,2,0:0:0:0:
64,192,115710,1,0,0:0:0:0:
192,192,116044,1,2,0:0:0:0:
448,192,116210,1,2,0:0:0:0:
64,192,116544,1,2,0:0:0:0:
320,192,116877,1,8,0:0:0:0:
192,192,117044,1,0,0:0:0:0:
320,192,117210,1,0,0:0:0:0:
448,192,117377,1,2,0:0:0:0:
320,192,117710,1,2,0:0:0:0:
192,192,118044,1,2,0:0:0:0:
64,192,118377,1,0,0:0:0:0:
192,192,118710,1,2,0:0:0:0:
320,192,118877,1,2,0:0:0:0:
192,192,119210,1,2,0:0:0:0:
320,192,119544,1,8,0:0:0:0:
64,192,119710,1,0,0:0:0:0:
320,192,119877,1,0,0:0:0:0:
448,192,120044,1,2,0:0:0:0:
320,192,120377,1,2,0:0:0:0:
192,192,120710,1,2,0:0:0:0:
64,192,121044,1,0,0:0:0:0:
192,192,121210,128,2,121544:0:0:0:0:
448,192,121544,1,6,0:0:0:0:
64,192,121877,1,8,0:3:0:0:
320,192,122210,1,0,0:0:0:0:
192,192,122377,1,2,0:0:0:0:
448,192,122544,1,8,0:3:0:0:
320,192,122710,1,0,0:0:0:0:
192,192,123044,1,0,0:0:0:0:
448,192,123210,1,8,0:3:0:0:
64,192,123377,1,2,0:0:0:0:
320,192,123544,1,0,0:0:0:0:
192,192,123710,1,2,0:0:0:0:
320,192,123877,1,8,0:3:0:0:
448,192,124044,1,0,0:0:0:0:
192,192,124210,1,2,0:0:0:0:
448,192,124544,1,8,0:3:0:0:
64,192,124877,1,2,0:0:0:0:
320,192,125044,1,2,0:0:0:0:
192,192,125210,1,8,0:3:0:0:
448,192,125377,1,2,0:0:0:0:
320,192,125710,1,2,0:0:0:0:
64,192,125877,1,8,0:3:0:0:
192,192,126044,1,2,0:0:0:0:
64,192,126377,1,2,0:0:0:0:
448,192,126544,1,8,0:3:0:0:
192,192,126710,1,2,0:0:0:0:
320,192,126877,1,6,0:0:0:0:
64,192,127210,1,2,0:0:0:0:
192,192,127544,1,2,0:0:0:0:
320,192,127710,1,2,0:0:0:0:
448,192,127877,1,2,0:0:0:0:
192,192,128044,1,2,0:0:0:0:
320,192,128377,1,2,0:0:0:0:
64,192,128544,1,2,0:0:0:0:
448,192,128710,1,2,0:0:0:0:
192,192,128877,1,2,0:0:0:0:
320,192,129044,1,2,0:0:0:0:
64,192,129210,128,2,129544:0:0:0:0:
448,192,129544,1,6,0:0:0:0:
448,192,129877,1,2,0:0:0:0:
64,192,130210,1,2,0:0:0:0:
64,192,130544,1,2,0:0:0:0:
192,192,130877,1,6,0:0:0:0:
320,192,131044,1,2,0:0:0:0:
192,192,131210,1,2,0:0:0:0:
320,192,131377,1,2,0:0:0:0:
64,192,131544,1,2,0:0:0:0:
448,192,131710,1,2,0:0:0:0:
64,192,131877,1,2,0:0:0:0:
448,192,132044,1,2,0:0:0:0:
