osu file format v14

[General]
AudioFilename: Cotton Candy (Abel & RiraN).ogg
AudioLeadIn: 0
PreviewTime: 14544
Countdown: 0
SampleSet: Drum
StackLeniency: 0.7
Mode: 3
LetterboxInBreaks: 0
SpecialStyle: 0
WidescreenStoryboard: 0

[Editor]
DistanceSpacing: 0.8
BeatDivisor: 4
GridSize: 32
TimelineZoom: 1.3

[Metadata]
Title:Cotton Candy
TitleUnicode:Cotton Candy
Artist:Abel & RiraN
ArtistUnicode:Abel & RiraN
Creator:storn42
Version:Insane
Source:CHRONO CIRCLE
Tags:fa featured artist electronic rhythm video game arcade bright future hardstyle hard style orchestra piano emoism records english jinyong choe 최진용 abel_orchestra abelorch yantey fusebox
BeatmapID:4119404
BeatmapSetID:1983524

[Difficulty]
HPDrainRate:8
CircleSize:4
OverallDifficulty:8
ApproachRate:5
SliderMultiplier:1.4
SliderTickRate:1

[Events]
//Background and Video events
Video,-10,"Chrono Circle Bga - Cotton Candy(Abel & Riran)-2.mp4"
0,0,"bg.jpg",0,0
//Break Periods
//Storyboard Layer 0 (Background)
//Storyboard Layer 1 (Fail)
//Storyboard Layer 2 (Pass)
//Storyboard Layer 3 (Foreground)
//Storyboard Layer 4 (Overlay)
//Storyboard Sound Samples

[TimingPoints]
211,333.333333,4,2,1,40,1,0
36210,-100,4,3,1,40,0,0
57544,-100,4,2,1,40,0,0
89544,-100,4,3,1,40,0,0

[HitObjects]
64,192,3877,5,0,0:0:0:0:
320,192,3960,1,0,0:0:0:0:
64,192,4044,1,0,0:0:0:0:
192,192,4127,1,0,0:0:0:0:
320,192,4210,1,4,0:0:0:0:
448,192,4210,1,0,0:0:0:0:
192,192,4377,1,0,0:0:0:0:
64,192,4544,1,0,0:0:0:0:
448,192,4544,1,0,0:0:0:0:
320,192,4710,1,0,0:0:0:0:
64,192,4877,1,0,0:0:0:0:
192,192,4877,1,0,0:0:0:0:
448,192,4960,1,0,0:0:0:0:
320,192,5044,1,0,0:0:0:0:
64,192,5210,1,0,0:0:0:0:
192,192,5210,1,0,0:0:0:0:
448,192,5377,1,0,0:0:0:0:
64,192,5544,1,0,0:0:0:0:
320,192,5544,1,0,0:0:0:0:
192,192,5710,1,0,0:0:0:0:
448,192,5877,1,0,0:0:0:0:
192,192,6044,1,0,0:0:0:0:
320,192,6210,1,0,0:0:0:0:
192,192,6294,1,0,0:0:0:0:
448,192,6377,1,0,0:0:0:0:
64,192,6544,1,0,0:0:0:0:
192,192,6544,1,0,0:0:0:0:
64,192,6710,1,0,0:0:0:0:
192,192,6710,1,0,0:0:0:0:
320,192,6877,1,0,0:0:0:0:
448,192,6877,1,0,0:0:0:0:
320,192,7044,1,0,0:0:0:0:
448,192,7044,1,0,0:0:0:0:
64,192,7210,1,0,0:0:0:0:
448,192,7210,1,0,0:0:0:0:
64,192,7377,1,0,0:0:0:0:
448,192,7377,1,0,0:0:0:0:
64,192,7544,1,0,0:0:0:0:
192,192,7544,1,0,0:0:0:0:
320,192,7627,1,0,0:0:0:0:
448,192,7710,1,0,0:0:0:0:
64,192,7877,1,0,0:0:0:0:
320,192,7877,1,0,0:0:0:0:
192,192,8044,1,0,0:0:0:0:
64,192,8210,1,0,0:0:0:0:
320,192,8377,1,0,0:0:0:0:
448,192,8544,1,0,0:0:0:0:
192,192,8710,1,0,0:0:0:0:
320,192,8877,1,0,0:0:0:0:
192,192,8960,1,0,0:0:0:0:
64,192,9044,1,0,0:0:0:0:
192,192,9210,1,0,0:0:0:0:
320,192,9210,1,0,0:0:0:0:
320,192,9377,1,0,0:0:0:0:
448,192,9377,1,0,0:0:0:0:
64,192,9544,1,2,0:0:0:0:
448,192,9544,1,0,0:0:0:0:
320,192,9710,1,0,0:0:0:0:
64,192,9877,1,0,0:0:0:0:
192,192,9877,1,0,0:0:0:0:
64,192,10044,1,2,0:0:0:0:
192,192,10044,1,0,0:0:0:0:
320,192,10210,1,0,0:0:0:0:
192,192,10294,1,0,0:0:0:0:
64,192,10377,1,2,0:0:0:0:
448,192,10377,1,0,0:0:0:0:
64,192,10544,1,2,0:0:0:0:
448,192,10544,1,0,0:0:0:0:
192,192,10710,1,0,0:0:0:0:
320,192,10877,1,2,0:0:0:0:
448,192,10877,1,0,0:0:0:0:
448,192,11044,1,2,0:0:0:0:
192,192,11210,1,0,0:0:0:0:
320,192,11377,1,2,0:0:0:0:
320,192,11544,1,2,0:0:0:0:
64,192,11627,1,0,0:0:0:0:
192,192,11710,1,2,0:0:0:0:
320,192,11794,1,2,0:0:0:0:
192,192,11877,1,2,0:0:0:0:
448,192,12044,1,2,0:0:0:0:
320,192,12099,1,2,0:0:0:0:
192,192,12155,1,2,0:0:0:0:
64,192,12210,1,2,0:0:0:0:
448,192,12210,1,0,0:0:0:0:
192,192,12377,1,2,0:0:0:0:
320,192,12377,1,0,0:0:0:0:
192,192,12544,1,2,0:0:0:0:
320,192,12544,1,0,0:0:0:0:
64,192,12710,1,2,0:0:0:0:
320,192,12710,1,0,0:0:0:0:
192,192,12877,1,2,0:0:0:0:
448,192,12877,1,0,0:0:0:0:
192,192,13044,1,2,0:0:0:0:
448,192,13044,1,0,0:0:0:0:
64,192,13210,1,2,0:0:0:0:
192,192,13210,1,0,0:0:0:0:
320,192,13377,1,2,0:0:0:0:
448,192,13377,1,0,0:0:0:0:
192,192,13460,1,2,0:0:0:0:
64,192,13544,1,2,0:0:0:0:
320,192,13627,1,2,0:0:0:0:
192,192,13710,1,2,0:0:0:0:
448,192,13794,1,2,0:0:0:0:
320,192,13877,1,2,0:0:0:0:
64,192,13960,1,2,0:0:0:0:
320,192,14044,1,2,0:0:0:0:
192,192,14127,1,2,0:0:0:0:
64,192,14210,1,2,0:0:0:0:
448,192,14210,1,0,0:0:0:0:
64,192,14544,128,0,14627:0:0:0:0:
192,192,14627,128,0,14710:0:0:0:0:
320,192,14710,128,0,14794:0:0:0:0:
448,192,14794,128,0,14877:0:0:0:0:
64,192,14877,1,8,0:0:0:0:
192,192,14877,128,4,15044:0:0:0:0:
64,192,15210,128,8,15460:0:0:0:0:
192,192,15460,128,0,15544:0:0:0:0:
448,192,15544,128,8,15710:0:0:0:0:
320,192,15710,128,0,15877:0:0:0:0:
192,192,15877,128,8,16044:0:0:0:0:
448,192,16044,128,0,16210:0:0:0:0:
320,192,16210,1,8,0:0:0:0:
64,192,16377,128,0,16544:0:0:0:0:
192,192,16544,1,8,0:0:0:0:
448,192,16710,128,0,16794:0:0:0:0:
320,192,16794,128,0,16877:0:0:0:0:
192,192,16877,128,8,17044:0:0:0:0:
320,192,17044,128,0,17210:0:0:0:0:
64,192,17210,128,8,17377:0:0:0:0:
320,192,17377,128,0,17544:0:0:0:0:
448,192,17544,128,8,17710:0:0:0:0:
64,192,17877,128,8,18127:0:0:0:0:
448,192,18127,128,0,18210:0:0:0:0:
192,192,18210,128,8,18377:0:0:0:0:
64,192,18377,128,0,18544:0:0:0:0:
320,192,18544,128,8,18710:0:0:0:0:
448,192,18710,128,0,18877:0:0:0:0:
64,192,18877,1,8,0:0:0:0:
320,192,19044,128,0,19210:0:0:0:0:
64,192,19210,1,8,0:0:0:0:
192,192,19377,128,0,19544:0:0:0:0:
320,192,19544,1,8,0:0:0:0:
64,192,19710,128,0,19877:0:0:0:0:
192,192,19877,128,8,19960:0:0:0:0:
320,192,19960,128,0,20044:0:0:0:0:
448,192,20044,128,0,20127:0:0:0:0:
192,192,20127,128,0,20210:0:0:0:0:
320,192,20210,128,8,20377:0:0:0:0:
192,192,20544,128,8,20794:0:0:0:0:
64,192,20794,128,0,20877:0:0:0:0:
320,192,20877,128,8,21044:0:0:0:0:
448,192,21044,128,0,21210:0:0:0:0:
192,192,21210,128,8,21377:0:0:0:0:
448,192,21377,128,0,21544:0:0:0:0:
64,192,21544,1,8,0:0:0:0:
320,192,21710,128,0,21877:0:0:0:0:
448,192,21877,1,8,0:0:0:0:
192,192,22044,128,0,22210:0:0:0:0:
320,192,22210,1,8,0:0:0:0:
64,192,22377,128,0,22544:0:0:0:0:
448,192,22544,1,8,0:0:0:0:
64,192,22710,128,0,22794:0:0:0:0:
192,192,22794,128,0,22877:0:0:0:0:
320,192,22877,128,8,23044:0:0:0:0:
64,192,23210,128,8,23377:0:0:0:0:
192,192,23377,128,0,23460:0:0:0:0:
320,192,23460,128,0,23544:0:0:0:0:
448,192,23544,128,8,23627:0:0:0:0:
192,192,23710,128,0,23877:0:0:0:0:
320,192,23877,128,8,24044:0:0:0:0:
448,192,24044,128,0,24210:0:0:0:0:
64,192,24377,1,2,0:0:0:0:
320,192,24377,128,0,24544:0:0:0:0:
64,192,24544,1,2,0:0:0:0:
192,192,24710,128,0,24877:0:0:0:0:
320,192,24794,1,0,0:0:0:0:
448,192,24877,1,8,0:0:0:0:
64,192,25044,1,8,0:0:0:0:
448,192,25044,1,0,0:0:0:0:
64,192,25210,1,0,0:0:0:0:
192,192,25294,1,0,0:0:0:0:
320,192,25377,1,8,0:0:0:0:
64,192,25460,1,0,0:0:0:0:
320,192,25544,1,6,0:0:0:0:
448,192,25544,1,8,0:0:0:0:
64,192,25877,1,2,0:0:0:0:
448,192,25877,1,8,0:0:0:0:
64,192,26044,1,0,0:0:0:0:
192,192,26044,1,0,0:0:0:0:
192,192,26377,1,2,0:0:0:0:
320,192,26377,1,0,0:0:0:0:
64,192,26544,1,8,0:0:0:0:
448,192,26544,1,0,0:0:0:0:
320,192,26710,1,2,0:0:0:0:
448,192,26710,1,0,0:0:0:0:
320,192,27044,1,2,0:0:0:0:
448,192,27044,1,0,0:0:0:0:
64,192,27210,1,8,0:0:0:0:
448,192,27210,1,0,0:0:0:0:
64,192,27377,1,2,0:0:0:0:
192,192,27377,1,0,0:0:0:0:
320,192,27460,1,2,0:0:0:0:
448,192,27544,1,10,0:0:0:0:
64,192,27710,1,2,0:0:0:0:
320,192,27710,1,0,0:0:0:0:
64,192,27877,1,8,0:0:0:0:
448,192,27877,1,2,0:0:0:0:
192,192,28044,1,2,0:0:0:0:
320,192,28210,1,6,0:0:0:0:
448,192,28210,1,8,0:0:0:0:
64,192,28544,1,2,0:0:0:0:
448,192,28544,1,8,0:0:0:0:
64,192,28710,1,0,0:0:0:0:
192,192,28710,1,0,0:0:0:0:
64,192,29044,1,2,0:0:0:0:
320,192,29044,1,0,0:0:0:0:
64,192,29210,1,8,0:0:0:0:
448,192,29210,1,0,0:0:0:0:
192,192,29377,1,2,0:0:0:0:
448,192,29377,1,0,0:0:0:0:
192,192,29710,1,2,0:0:0:0:
448,192,29710,1,0,0:0:0:0:
64,192,29877,1,2,0:0:0:0:
448,192,29877,1,8,0:0:0:0:
64,192,30044,1,2,0:0:0:0:
192,192,30044,1,0,0:0:0:0:
320,192,30127,1,2,0:0:0:0:
448,192,30210,1,10,0:0:0:0:
64,192,30377,1,2,0:0:0:0:
320,192,30377,1,0,0:0:0:0:
64,192,30544,1,2,0:0:0:0:
448,192,30544,1,8,0:0:0:0:
320,192,30710,1,0,0:0:0:0:
448,192,30710,1,0,0:0:0:0:
64,192,30877,1,4,0:0:0:0:
192,192,30877,1,2,0:0:0:0:
320,192,31044,1,2,0:0:0:0:
64,192,31210,1,2,0:0:0:0:
192,192,31210,1,0,0:0:0:0:
448,192,31377,1,2,0:0:0:0:
64,192,31544,1,2,0:0:0:0:
320,192,31544,1,0,0:0:0:0:
192,192,31710,1,2,0:0:0:0:
64,192,31877,1,2,0:0:0:0:
320,192,31877,1,0,0:0:0:0:
448,192,32044,1,2,0:0:0:0:
192,192,32210,1,4,0:0:0:0:
320,192,32210,1,2,0:0:0:0:
64,192,32377,1,2,0:0:0:0:
192,192,32544,1,2,0:0:0:0:
320,192,32544,1,0,0:0:0:0:
64,192,32710,1,2,0:0:0:0:
192,192,32877,1,2,0:0:0:0:
448,192,32877,1,0,0:0:0:0:
320,192,33044,1,2,0:0:0:0:
192,192,33210,1,2,0:0:0:0:
448,192,33210,1,0,0:0:0:0:
64,192,33377,1,2,0:0:0:0:
320,192,33544,1,4,0:0:0:0:
448,192,33544,1,2,0:0:0:0:
192,192,33627,1,2,0:0:0:0:
64,192,33710,1,2,0:0:0:0:
448,192,33794,1,2,0:0:0:0:
192,192,33877,1,2,0:0:0:0:
64,192,33960,1,2,0:0:0:0:
192,192,34044,1,2,0:0:0:0:
320,192,34127,1,2,0:0:0:0:
448,192,34210,1,6,0:0:0:0:
64,192,34294,1,2,0:0:0:0:
448,192,34377,1,2,0:0:0:0:
64,192,34460,1,2,0:0:0:0:
448,192,34544,1,2,0:0:0:0:
64,192,34627,1,2,0:0:0:0:
448,192,34710,1,2,0:0:0:0:
192,192,34794,1,0,0:0:0:0:
448,192,35044,1,8,0:0:0:0:
448,192,35210,1,8,0:0:0:0:
64,192,35377,1,0,0:0:0:0:
192,192,35460,1,0,0:0:0:0:
448,192,35544,1,8,0:0:0:0:
448,192,35710,1,8,0:0:0:0:
64,192,35877,1,0,0:0:0:0:
192,192,35960,1,0,0:0:0:0:
448,192,36044,1,8,0:0:0:0:
64,192,36210,1,6,0:0:0:0:
320,192,36210,1,8,0:0:0:0:
64,192,36877,128,8,37044:0:0:0:0:
448,192,36877,128,0,37044:0:0:0:0:
192,192,37210,1,2,0:0:0:0:
320,192,37210,1,0,0:0:0:0:
64,192,37377,128,0,37460:0:0:0:0:
448,192,37377,128,0,37460:0:0:0:0:
64,192,37544,128,0,37710:0:0:0:0:
448,192,37544,128,0,37710:0:0:0:0:
64,192,37877,1,2,0:0:0:0:
192,192,37877,1,0,0:0:0:0:
320,192,38044,1,0,0:0:0:0:
192,192,38127,1,0,0:0:0:0:
64,192,38210,128,8,38377:0:0:0:0:
448,192,38210,128,0,38377:0:0:0:0:
64,192,38544,128,0,38627:0:0:0:0:
448,192,38544,128,0,38627:0:0:0:0:
64,192,38710,128,0,38794:0:0:0:0:
448,192,38710,128,0,38794:0:0:0:0:
64,192,38877,1,2,0:0:0:0:
192,192,38877,1,0,0:0:0:0:
320,192,39044,128,0,39127:0:0:0:0:
64,192,39210,128,0,39294:0:0:0:0:
192,192,39377,128,0,39460:0:0:0:0:
64,192,39544,128,8,39710:0:0:0:0:
448,192,39544,128,0,39710:0:0:0:0:
192,192,39877,128,2,39960:0:0:0:0:
448,192,39877,128,0,39960:0:0:0:0:
64,192,40044,128,0,40127:0:0:0:0:
320,192,40044,128,0,40127:0:0:0:0:
320,192,40210,128,2,40294:0:0:0:0:
448,192,40210,128,0,40294:0:0:0:0:
320,192,40377,128,0,40460:0:0:0:0:
448,192,40377,128,0,40460:0:0:0:0:
64,192,40544,128,0,40627:0:0:0:0:
192,192,40544,128,0,40627:0:0:0:0:
64,192,40710,128,0,40794:0:0:0:0:
192,192,40710,128,0,40794:0:0:0:0:
64,192,40877,128,8,40960:0:0:0:0:
448,192,40877,128,0,40960:0:0:0:0:
64,192,41044,128,0,41127:0:0:0:0:
448,192,41044,128,0,41127:0:0:0:0:
192,192,41210,128,0,41294:0:0:0:0:
320,192,41210,128,0,41294:0:0:0:0:
192,192,41377,128,0,41460:0:0:0:0:
320,192,41377,128,0,41460:0:0:0:0:
64,192,41544,1,2,0:0:0:0:
448,192,41544,1,4,0:0:0:0:
192,192,42210,128,8,42377:0:0:0:0:
320,192,42210,128,0,42377:0:0:0:0:
64,192,42544,1,2,0:0:0:0:
320,192,42544,1,0,0:0:0:0:
192,192,42710,128,0,42794:0:0:0:0:
320,192,42710,128,0,42794:0:0:0:0:
192,192,42877,128,0,43044:0:0:0:0:
320,192,42877,128,0,43044:0:0:0:0:
320,192,43210,1,2,0:0:0:0:
448,192,43210,1,0,0:0:0:0:
64,192,43377,1,0,0:0:0:0:
448,192,43460,1,0,0:0:0:0:
192,192,43544,128,8,43710:0:0:0:0:
320,192,43544,128,0,43710:0:0:0:0:
192,192,43877,128,0,43960:0:0:0:0:
320,192,43877,128,0,43960:0:0:0:0:
192,192,44044,128,0,44127:0:0:0:0:
320,192,44044,128,0,44127:0:0:0:0:
64,192,44210,1,2,0:0:0:0:
448,192,44210,1,0,0:0:0:0:
320,192,44377,128,0,44460:0:0:0:0:
448,192,44544,128,0,44627:0:0:0:0:
64,192,44710,128,0,44794:0:0:0:0:
192,192,44877,128,8,45044:0:0:0:0:
320,192,44877,128,0,45044:0:0:0:0:
320,192,45210,128,2,45294:0:0:0:0:
448,192,45210,128,0,45294:0:0:0:0:
64,192,45377,128,0,45460:0:0:0:0:
192,192,45377,128,0,45460:0:0:0:0:
64,192,45544,1,4,0:0:0:0:
320,192,45544,1,2,0:0:0:0:
448,192,45710,1,4,0:0:0:0:
192,192,45877,1,4,0:0:0:0:
320,192,45877,1,0,0:0:0:0:
64,192,46044,1,0,0:0:0:0:
192,192,46127,1,0,0:0:0:0:
320,192,46210,1,4,0:0:0:0:
448,192,46210,1,0,0:0:0:0:
192,192,46377,1,0,0:0:0:0:
64,192,46544,1,4,0:0:0:0:
448,192,46544,1,0,0:0:0:0:
192,192,46710,1,0,0:0:0:0:
320,192,46794,1,0,0:0:0:0:
64,192,46877,1,2,0:0:0:0:
448,192,46877,1,4,0:0:0:0:
320,192,47210,1,8,0:0:0:0:
448,192,47210,1,0,0:0:0:0:
64,192,47544,128,0,47627:0:0:0:0:
320,192,47544,128,0,47627:0:0:0:0:
448,192,47710,1,2,0:0:0:0:
192,192,47877,1,8,0:0:0:0:
448,192,47877,1,0,0:0:0:0:
64,192,48044,128,0,48127:0:0:0:0:
320,192,48044,128,0,48127:0:0:0:0:
64,192,48210,128,2,48377:0:0:0:0:
320,192,48210,128,0,48377:0:0:0:0:
64,192,48544,128,8,48710:0:0:0:0:
320,192,48544,128,0,48710:0:0:0:0:
64,192,48877,128,0,48960:0:0:0:0:
320,192,48877,128,0,48960:0:0:0:0:
448,192,49044,1,2,0:0:0:0:
64,192,49210,128,8,49294:0:0:0:0:
320,192,49210,128,0,49294:0:0:0:0:
64,192,49377,128,0,49460:0:0:0:0:
320,192,49377,128,0,49460:0:0:0:0:
192,192,49544,1,2,0:0:0:0:
320,192,49544,1,0,0:0:0:0:
64,192,49710,128,0,49794:0:0:0:0:
320,192,49877,128,8,49960:0:0:0:0:
448,192,49877,1,0,0:0:0:0:
192,192,50044,128,0,50127:0:0:0:0:
64,192,50210,128,0,50294:0:0:0:0:
448,192,50210,128,0,50294:0:0:0:0:
192,192,50377,1,2,0:0:0:0:
320,192,50544,1,8,0:0:0:0:
448,192,50544,1,0,0:0:0:0:
64,192,50710,128,0,50794:0:0:0:0:
192,192,50710,128,0,50794:0:0:0:0:
64,192,50877,128,2,50960:0:0:0:0:
448,192,50877,128,0,50960:0:0:0:0:
64,192,51044,128,0,51127:0:0:0:0:
448,192,51044,128,0,51127:0:0:0:0:
192,192,51210,128,8,51294:0:0:0:0:
320,192,51210,128,0,51294:0:0:0:0:
192,192,51377,128,2,51460:0:0:0:0:
320,192,51377,128,0,51460:0:0:0:0:
192,192,51544,128,0,51627:0:0:0:0:
448,192,51544,128,0,51627:0:0:0:0:
192,192,51710,128,2,51794:0:0:0:0:
448,192,51710,128,0,51794:0:0:0:0:
64,192,51877,128,8,51960:0:0:0:0:
320,192,51877,128,0,51960:0:0:0:0:
64,192,52044,128,0,52127:0:0:0:0:
320,192,52044,128,0,52127:0:0:0:0:
192,192,52210,1,2,0:0:0:0:
448,192,52210,1,4,0:0:0:0:
64,192,52544,1,8,0:0:0:0:
448,192,52544,1,0,0:0:0:0:
192,192,52877,128,0,52960:0:0:0:0:
448,192,52877,128,0,52960:0:0:0:0:
64,192,53044,1,2,0:0:0:0:
64,192,53210,1,8,0:0:0:0:
320,192,53210,1,0,0:0:0:0:
192,192,53377,128,0,53460:0:0:0:0:
448,192,53377,128,0,53460:0:0:0:0:
192,192,53544,128,2,53710:0:0:0:0:
448,192,53544,128,0,53710:0:0:0:0:
192,192,53877,128,8,54044:0:0:0:0:
448,192,53877,128,0,54044:0:0:0:0:
192,192,54210,128,0,54294:0:0:0:0:
448,192,54210,128,0,54294:0:0:0:0:
64,192,54377,1,2,0:0:0:0:
192,192,54544,128,8,54627:0:0:0:0:
448,192,54544,128,0,54627:0:0:0:0:
192,192,54710,128,0,54794:0:0:0:0:
448,192,54710,128,0,54794:0:0:0:0:
192,192,54877,1,2,0:0:0:0:
320,192,54877,1,0,0:0:0:0:
64,192,55044,128,0,55127:0:0:0:0:
320,192,55210,128,8,55294:0:0:0:0:
448,192,55210,1,0,0:0:0:0:
192,192,55377,128,0,55460:0:0:0:0:
64,192,55544,128,0,55627:0:0:0:0:
448,192,55544,128,0,55627:0:0:0:0:
320,192,55710,1,2,0:0:0:0:
64,192,55877,1,8,0:0:0:0:
448,192,55877,1,0,0:0:0:0:
192,192,56044,128,0,56127:0:0:0:0:
448,192,56044,128,0,56127:0:0:0:0:
64,192,56210,1,4,0:0:0:0:
320,192,56210,1,0,0:0:0:0:
448,192,56377,1,4,0:0:0:0:
192,192,56544,1,4,0:0:0:0:
448,192,56627,1,0,0:0:0:0:
64,192,56710,1,0,0:0:0:0:
320,192,56794,1,0,0:0:0:0:
192,192,56877,1,4,0:0:0:0:
64,192,56960,1,0,0:0:0:0:
320,192,57044,1,0,0:0:0:0:
448,192,57127,1,0,0:0:0:0:
192,192,57210,1,4,0:0:0:0:
320,192,57294,1,0,0:0:0:0:
448,192,57377,1,0,0:0:0:0:
64,192,57460,1,0,0:0:0:0:
320,192,57544,1,4,0:0:0:0:
448,192,57544,1,0,0:0:0:0:
64,192,57877,1,0,0:0:0:0:
192,192,57960,1,0,0:0:0:0:
64,192,58044,1,0,0:0:0:0:
320,192,58127,1,0,0:0:0:0:
192,192,58210,1,8,0:0:0:0:
64,192,58294,1,0,0:0:0:0:
192,192,58377,1,0,0:0:0:0:
320,192,58460,1,0,0:0:0:0:
64,192,58544,1,0,0:0:0:0:
448,192,58544,1,0,0:0:0:0:
64,192,58710,1,0,0:0:0:0:
192,192,58710,1,0,0:0:0:0:
448,192,59044,1,0,0:0:0:0:
192,192,59127,1,0,0:0:0:0:
448,192,59210,1,0,0:0:0:0:
320,192,59294,1,0,0:0:0:0:
64,192,59377,1,0,0:0:0:0:
192,192,59460,1,0,0:0:0:0:
448,192,59544,1,8,0:0:0:0:
192,192,59627,1,0,0:0:0:0:
320,192,59710,1,0,0:0:0:0:
64,192,59794,1,0,0:0:0:0:
448,192,59877,1,0,0:0:0:0:
192,192,59960,1,0,0:0:0:0:
64,192,60044,1,0,0:0:0:0:
320,192,60127,1,0,0:0:0:0:
192,192,60210,1,0,0:0:0:0:
448,192,60210,1,0,0:0:0:0:
64,192,60544,1,0,0:0:0:0:
192,192,60627,1,0,0:0:0:0:
320,192,60710,1,0,0:0:0:0:
448,192,60794,1,0,0:0:0:0:
192,192,60877,1,8,0:0:0:0:
448,192,60960,1,0,0:0:0:0:
64,192,61044,1,0,0:0:0:0:
192,192,61127,1,0,0:0:0:0:
320,192,61210,1,0,0:0:0:0:
448,192,61210,1,0,0:0:0:0:
64,192,61377,1,0,0:0:0:0:
320,192,61377,1,0,0:0:0:0:
448,192,61710,1,0,0:0:0:0:
320,192,61794,1,0,0:0:0:0:
448,192,61877,1,0,0:0:0:0:
192,192,61960,1,0,0:0:0:0:
320,192,62044,1,0,0:0:0:0:
192,192,62127,1,0,0:0:0:0:
64,192,62210,1,8,0:0:0:0:
320,192,62294,1,0,0:0:0:0:
192,192,62377,1,0,0:0:0:0:
448,192,62460,1,0,0:0:0:0:
64,192,62544,1,0,0:0:0:0:
448,192,62627,1,0,0:0:0:0:
320,192,62710,1,0,0:0:0:0:
192,192,62794,1,0,0:0:0:0:
64,192,62877,1,0,0:0:0:0:
320,192,62877,1,0,0:0:0:0:
64,192,63210,1,0,0:0:0:0:
320,192,63294,1,0,0:0:0:0:
192,192,63377,1,0,0:0:0:0:
64,192,63460,1,0,0:0:0:0:
448,192,63544,1,8,0:0:0:0:
320,192,63627,1,0,0:0:0:0:
64,192,63710,1,0,0:0:0:0:
192,192,63794,1,0,0:0:0:0:
320,192,63877,1,0,0:0:0:0:
448,192,63877,1,0,0:0:0:0:
64,192,64044,1,0,0:0:0:0:
448,192,64044,1,0,0:0:0:0:
448,192,64377,1,0,0:0:0:0:
192,192,64460,1,0,0:0:0:0:
320,192,64544,1,0,0:0:0:0:
192,192,64627,1,0,0:0:0:0:
64,192,64710,1,0,0:0:0:0:
320,192,64794,1,0,0:0:0:0:
192,192,64877,1,8,0:0:0:0:
64,192,65044,1,0,0:0:0:0:
320,192,65127,1,0,0:0:0:0:
192,192,65210,1,0,0:0:0:0:
448,192,65294,1,0,0:0:0:0:
192,192,65377,1,0,0:0:0:0:
320,192,65460,1,0,0:0:0:0:
64,192,65544,1,0,0:0:0:0:
448,192,65544,1,0,0:0:0:0:
64,192,65877,1,0,0:0:0:0:
448,192,65960,1,0,0:0:0:0:
64,192,66044,1,0,0:0:0:0:
320,192,66127,1,0,0:0:0:0:
448,192,66210,1,8,0:0:0:0:
320,192,66294,1,0,0:0:0:0:
64,192,66377,1,0,0:0:0:0:
192,192,66460,1,0,0:0:0:0:
320,192,66544,1,0,0:0:0:0:
448,192,66710,1,0,0:0:0:0:
320,192,66794,1,0,0:0:0:0:
448,192,66877,1,0,0:0:0:0:
192,192,66960,1,0,0:0:0:0:
320,192,67044,1,0,0:0:0:0:
64,192,67127,1,0,0:0:0:0:
192,192,67210,1,0,0:0:0:0:
448,192,67294,1,0,0:0:0:0:
192,192,67377,1,0,0:0:0:0:
320,192,67460,1,0,0:0:0:0:
64,192,67544,1,8,0:0:0:0:
320,192,67627,1,0,0:0:0:0:
192,192,67710,1,0,0:0:0:0:
448,192,67794,1,0,0:0:0:0:
320,192,67877,1,0,0:0:0:0:
192,192,67960,1,0,0:0:0:0:
320,192,68044,1,0,0:0:0:0:
64,192,68127,1,0,0:0:0:0:
192,192,68210,1,4,0:0:0:0:
448,192,68210,1,0,0:0:0:0:
64,192,68544,1,0,0:0:0:0:
192,192,68627,1,0,0:0:0:0:
320,192,68710,1,0,0:0:0:0:
192,192,68794,1,0,0:0:0:0:
448,192,68877,1,8,0:0:0:0:
64,192,68960,1,0,0:0:0:0:
192,192,69044,1,0,0:0:0:0:
320,192,69127,1,0,0:0:0:0:
64,192,69210,1,0,0:0:0:0:
448,192,69210,1,0,0:0:0:0:
192,192,69377,1,0,0:0:0:0:
448,192,69377,1,0,0:0:0:0:
320,192,69710,1,0,0:0:0:0:
192,192,69794,1,0,0:0:0:0:
448,192,69877,1,0,0:0:0:0:
320,192,69960,1,0,0:0:0:0:
192,192,70044,1,0,0:0:0:0:
64,192,70127,1,0,0:0:0:0:
320,192,70210,1,8,0:0:0:0:
64,192,70294,1,0,0:0:0:0:
448,192,70377,1,0,0:0:0:0:
192,192,70460,1,0,0:0:0:0:
64,192,70544,1,0,0:0:0:0:
320,192,70627,1,0,0:0:0:0:
192,192,70710,1,0,0:0:0:0:
320,192,70794,1,0,0:0:0:0:
64,192,70877,1,0,0:0:0:0:
448,192,70877,1,0,0:0:0:0:
192,192,71210,1,0,0:0:0:0:
64,192,71294,1,0,0:0:0:0:
192,192,71377,1,0,0:0:0:0:
448,192,71460,1,0,0:0:0:0:
64,192,71544,1,8,0:0:0:0:
320,192,71627,1,0,0:0:0:0:
448,192,71710,1,0,0:0:0:0:
192,192,71794,1,0,0:0:0:0:
320,192,71877,1,0,0:0:0:0:
448,192,71877,1,0,0:0:0:0:
192,192,72044,1,0,0:0:0:0:
448,192,72044,1,0,0:0:0:0:
448,192,72377,1,0,0:0:0:0:
192,192,72460,1,0,0:0:0:0:
320,192,72544,1,0,0:0:0:0:
192,192,72710,1,0,0:0:0:0:
64,192,72794,1,0,0:0:0:0:
320,192,72877,1,8,0:0:0:0:
192,192,72960,1,0,0:0:0:0:
64,192,73044,1,0,0:0:0:0:
448,192,73127,1,0,0:0:0:0:
64,192,73210,1,0,0:0:0:0:
192,192,73294,1,0,0:0:0:0:
448,192,73377,1,0,0:0:0:0:
64,192,73460,1,0,0:0:0:0:
320,192,73544,1,0,0:0:0:0:
448,192,73544,1,0,0:0:0:0:
64,192,73877,1,0,0:0:0:0:
448,192,73960,1,0,0:0:0:0:
192,192,74044,1,0,0:0:0:0:
320,192,74127,1,0,0:0:0:0:
448,192,74210,1,8,0:0:0:0:
64,192,74377,1,0,0:0:0:0:
192,192,74460,1,0,0:0:0:0:
320,192,74544,1,0,0:0:0:0:
448,192,74544,1,0,0:0:0:0:
192,192,74710,1,0,0:0:0:0:
448,192,74710,1,0,0:0:0:0:
448,192,75044,1,0,0:0:0:0:
192,192,75127,1,0,0:0:0:0:
320,192,75210,1,0,0:0:0:0:
64,192,75294,1,0,0:0:0:0:
192,192,75377,1,0,0:0:0:0:
448,192,75460,1,0,0:0:0:0:
64,192,75544,1,8,0:0:0:0:
192,192,75710,1,0,0:0:0:0:
64,192,75794,1,0,0:0:0:0:
192,192,75877,1,0,0:0:0:0:
320,192,75960,1,0,0:0:0:0:
64,192,76044,1,0,0:0:0:0:
320,192,76127,1,0,0:0:0:0:
192,192,76210,1,0,0:0:0:0:
448,192,76210,1,0,0:0:0:0:
64,192,76544,1,0,0:0:0:0:
320,192,76627,1,0,0:0:0:0:
192,192,76710,1,0,0:0:0:0:
448,192,76794,1,0,0:0:0:0:
192,192,76877,1,8,0:0:0:0:
320,192,76960,1,0,0:0:0:0:
64,192,77044,1,0,0:0:0:0:
192,192,77127,1,0,0:0:0:0:
320,192,77210,1,0,0:0:0:0:
448,192,77210,1,0,0:0:0:0:
64,192,77377,1,0,0:0:0:0:
448,192,77377,1,0,0:0:0:0:
448,192,77710,1,0,0:0:0:0:
192,192,77794,1,0,0:0:0:0:
320,192,77877,1,0,0:0:0:0:
192,192,77960,1,0,0:0:0:0:
64,192,78044,1,0,0:0:0:0:
320,192,78127,1,0,0:0:0:0:
64,192,78210,1,8,0:0:0:0:
448,192,78294,1,0,0:0:0:0:
64,192,78377,1,0,0:0:0:0:
192,192,78460,1,0,0:0:0:0:
448,192,78544,1,0,0:0:0:0:
320,192,78599,1,0,0:0:0:0:
192,192,78655,1,0,0:0:0:0:
64,192,78710,1,0,0:0:0:0:
320,192,78877,1,6,0:0:0:0:
448,192,78877,1,8,0:0:0:0:
192,192,79044,1,0,0:0:0:0:
64,192,79210,1,2,0:0:0:0:
448,192,79210,1,8,0:0:0:0:
64,192,79377,1,0,0:0:0:0:
192,192,79377,1,0,0:0:0:0:
448,192,79544,1,8,0:0:0:0:
64,192,79710,1,2,0:0:0:0:
320,192,79710,1,0,0:0:0:0:
64,192,79877,1,8,0:0:0:0:
448,192,79877,1,0,0:0:0:0:
320,192,80044,1,2,0:0:0:0:
448,192,80044,1,0,0:0:0:0:
320,192,80377,1,2,0:0:0:0:
448,192,80377,1,0,0:0:0:0:
64,192,80544,1,2,0:0:0:0:
448,192,80544,1,8,0:0:0:0:
192,192,80710,1,0,0:0:0:0:
448,192,80710,1,0,0:0:0:0:
64,192,80877,1,10,0:0:0:0:
192,192,80960,1,2,0:0:0:0:
320,192,81044,1,2,0:0:0:0:
448,192,81044,1,0,0:0:0:0:
64,192,81210,1,2,0:0:0:0:
448,192,81210,1,8,0:0:0:0:
320,192,81377,1,2,0:0:0:0:
192,192,81544,1,6,0:0:0:0:
448,192,81544,1,8,0:0:0:0:
320,192,81710,1,0,0:0:0:0:
192,192,81794,1,0,0:0:0:0:
64,192,81877,1,2,0:0:0:0:
448,192,81877,1,8,0:0:0:0:
192,192,82044,1,0,0:0:0:0:
448,192,82044,1,0,0:0:0:0:
64,192,82210,1,8,0:0:0:0:
192,192,82294,1,0,0:0:0:0:
320,192,82377,1,2,0:0:0:0:
448,192,82377,1,0,0:0:0:0:
64,192,82544,1,8,0:0:0:0:
448,192,82544,1,0,0:0:0:0:
64,192,82710,1,2,0:0:0:0:
320,192,82710,1,0,0:0:0:0:
64,192,83044,1,2,0:0:0:0:
320,192,83044,1,0,0:0:0:0:
448,192,83127,1,0,0:0:0:0:
192,192,83210,1,10,0:0:0:0:
64,192,83294,1,0,0:0:0:0:
320,192,83377,1,0,0:0:0:0:
192,192,83460,1,0,0:0:0:0:
320,192,83544,1,10,0:0:0:0:
64,192,83627,1,2,0:0:0:0:
192,192,83710,1,2,0:0:0:0:
448,192,83710,1,0,0:0:0:0:
192,192,83877,1,2,0:0:0:0:
448,192,83877,1,8,0:0:0:0:
64,192,84044,1,0,0:0:0:0:
320,192,84044,1,0,0:0:0:0:
64,192,84210,1,4,0:0:0:0:
192,192,84210,1,2,0:0:0:0:
320,192,84377,1,2,0:0:0:0:
64,192,84544,1,2,0:0:0:0:
192,192,84544,1,0,0:0:0:0:
448,192,84710,1,2,0:0:0:0:
64,192,84877,1,2,0:0:0:0:
320,192,84877,1,0,0:0:0:0:
192,192,85044,1,2,0:0:0:0:
64,192,85210,1,2,0:0:0:0:
320,192,85210,1,0,0:0:0:0:
448,192,85377,1,2,0:0:0:0:
192,192,85544,1,4,0:0:0:0:
320,192,85544,1,2,0:0:0:0:
64,192,85710,1,2,0:0:0:0:
192,192,85877,1,2,0:0:0:0:
320,192,85877,1,0,0:0:0:0:
64,192,86044,1,2,0:0:0:0:
192,192,86210,1,2,0:0:0:0:
448,192,86210,1,0,0:0:0:0:
320,192,86377,1,2,0:0:0:0:
192,192,86544,1,2,0:0:0:0:
448,192,86544,1,0,0:0:0:0:
64,192,86710,1,2,0:0:0:0:
320,192,86877,1,4,0:0:0:0:
448,192,86877,1,2,0:0:0:0:
192,192,86960,1,2,0:0:0:0:
64,192,87044,1,2,0:0:0:0:
320,192,87127,1,2,0:0:0:0:
192,192,87210,1,2,0:0:0:0:
320,192,87294,1,2,0:0:0:0:
448,192,87377,1,2,0:0:0:0:
192,192,87460,1,2,0:0:0:0:
320,192,87544,1,6,0:0:0:0:
64,192,87627,1,2,0:0:0:0:
192,192,87710,1,2,0:0:0:0:
448,192,87794,1,2,0:0:0:0:
64,192,87877,1,2,0:0:0:0:
320,192,87960,1,2,0:0:0:0:
192,192,88044,1,2,0:0:0:0:
448,192,88127,1,2,0:0:0:0:
64,192,88377,1,2,0:0:0:0:
448,192,88377,1,0,0:0:0:0:
64,192,88544,1,2,0:0:0:0:
448,192,88544,1,0,0:0:0:0:
320,192,88710,1,0,0:0:0:0:
192,192,88794,1,0,0:0:0:0:
64,192,88877,1,8,0:0:0:0:
448,192,88877,1,0,0:0:0:0:
64,192,89210,128,0,89294:0:0:0:0:
192,192,89294,128,0,89377:0:0:0:0:
320,192,89377,128,0,89460:0:0:0:0:
448,192,89460,128,0,89544:0:0:0:0:
64,192,89544,1,2,0:0:0:0:
192,192,89544,128,4,89710:0:0:0:0:
64,192,89877,128,2,90127:0:0:0:0:
320,192,90127,128,0,90210:0:0:0:0:
192,192,90210,128,8,90377:0:3:0:0:
448,192,90210,1,0,0:0:0:0:
320,192,90377,128,0,90544:0:0:0:0:
192,192,90544,128,0,90710:0:0:0:0:
448,192,90710,128,2,90877:0:0:0:0:
64,192,91044,128,2,91210:0:0:0:0:
448,192,91377,128,2,91460:0:0:0:0:
192,192,91460,128,0,91544:0:0:0:0:
64,192,91544,128,8,91710:0:3:0:0:
320,192,91544,1,0,0:0:0:0:
192,192,91710,128,0,91877:0:0:0:0:
448,192,91877,128,2,92044:0:0:0:0:
320,192,92044,128,2,92210:0:0:0:0:
448,192,92210,128,2,92377:0:0:0:0:
320,192,92544,128,2,92794:0:0:0:0:
64,192,92794,128,0,92877:0:0:0:0:
192,192,92877,128,8,93044:0:3:0:0:
448,192,92877,1,0,0:0:0:0:
320,192,93044,128,0,93210:0:0:0:0:
64,192,93210,128,0,93377:0:0:0:0:
448,192,93377,128,2,93544:0:0:0:0:
320,192,93710,128,2,93877:0:0:0:0:
192,192,94044,128,2,94210:0:0:0:0:
320,192,94210,1,8,0:3:0:0:
448,192,94210,1,0,0:0:0:0:
64,192,94377,128,0,94544:0:0:0:0:
448,192,94544,128,2,94627:0:0:0:0:
320,192,94627,128,0,94710:0:0:0:0:
64,192,94710,128,2,94794:0:0:0:0:
192,192,94794,128,0,94877:0:0:0:0:
320,192,94877,128,2,95044:0:0:0:0:
448,192,94877,1,4,0:0:0:0:
192,192,95210,128,2,95460:0:0:0:0:
64,192,95460,128,0,95544:0:0:0:0:
320,192,95544,128,8,95710:0:3:0:0:
448,192,95544,1,0,0:0:0:0:
192,192,95710,128,0,95877:0:0:0:0:
64,192,95877,128,0,96044:0:0:0:0:
448,192,96044,128,2,96210:0:0:0:0:
320,192,96377,128,2,96544:0:0:0:0:
192,192,96710,128,2,96877:0:0:0:0:
64,192,96877,1,8,0:3:0:0:
448,192,96877,1,0,0:0:0:0:
64,192,97044,128,0,97210:0:0:0:0:
448,192,97210,1,2,0:0:0:0:
192,192,97377,128,2,97460:0:0:0:0:
320,192,97460,128,0,97544:0:0:0:0:
448,192,97544,128,2,97710:0:0:0:0:
64,192,97877,128,2,98044:0:0:0:0:
192,192,98044,128,0,98127:0:0:0:0:
320,192,98127,128,0,98210:0:0:0:0:
64,192,98210,1,8,0:3:0:0:
448,192,98210,128,0,98377:0:0:0:0:
192,192,98377,128,0,98544:0:0:0:0:
320,192,98544,128,0,98710:0:0:0:0:
448,192,98710,128,2,98877:0:0:0:0:
320,192,99044,128,2,99210:0:0:0:0:
192,192,99377,128,2,99544:0:0:0:0:
320,192,99544,1,8,0:3:0:0:
448,192,99544,1,0,0:0:0:0:
192,192,99710,128,0,99794:0:0:0:0:
64,192,99877,128,0,99960:0:0:0:0:
192,192,99960,128,0,100044:0:0:0:0:
320,192,100044,128,0,100127:0:0:0:0:
448,192,100127,128,0,100210:0:0:0:0:
64,192,100210,128,2,100377:0:0:0:0:
192,192,100210,1,4,0:0:0:0:
320,192,100544,1,8,0:3:0:0:
448,192,100544,128,0,100794:0:0:0:0:
192,192,100710,1,2,0:0:0:0:
64,192,100794,128,0,100877:0:0:0:0:
320,192,100877,128,0,101044:0:0:0:0:
192,192,101044,128,2,101210:0:0:0:0:
64,192,101210,128,8,101377:0:3:0:0:
448,192,101210,1,0,0:0:0:0:
320,192,101377,128,0,101544:0:0:0:0:
64,192,101544,1,2,0:0:0:0:
192,192,101710,128,0,101877:0:0:0:0:
64,192,101877,1,8,0:3:0:0:
448,192,101877,1,0,0:0:0:0:
320,192,102044,128,2,102127:0:0:0:0:
192,192,102127,128,0,102210:0:0:0:0:
64,192,102210,128,0,102377:0:0:0:0:
320,192,102377,128,2,102544:0:0:0:0:
64,192,102544,1,8,0:3:0:0:
448,192,102544,128,0,102710:0:0:0:0:
192,192,102710,128,2,102877:0:0:0:0:
320,192,102877,128,2,103044:0:0:0:0:
64,192,103210,128,8,103460:0:3:0:0:
192,192,103210,1,0,0:0:0:0:
448,192,103377,1,2,0:0:0:0:
320,192,103460,128,0,103544:0:0:0:0:
192,192,103544,128,0,103710:0:0:0:0:
320,192,103710,128,2,103877:0:0:0:0:
64,192,103877,128,8,104044:0:3:0:0:
448,192,103877,1,0,0:0:0:0:
320,192,104044,128,0,104210:0:0:0:0:
64,192,104210,1,2,0:0:0:0:
192,192,104377,128,0,104544:0:0:0:0:
320,192,104544,1,8,0:3:0:0:
448,192,104544,1,0,0:0:0:0:
64,192,104710,128,2,104877:0:0:0:0:
320,192,105044,128,2,105210:0:0:0:0:
64,192,105210,1,8,0:3:0:0:
192,192,105210,1,0,0:0:0:0:
192,192,105377,128,2,105460:0:0:0:0:
320,192,105460,128,0,105544:0:0:0:0:
64,192,105544,1,4,0:0:0:0:
448,192,105544,128,2,105710:0:0:0:0:
320,192,105710,1,2,0:0:0:0:
64,192,105877,1,2,0:0:0:0:
192,192,105877,128,0,106044:0:0:0:0:
448,192,106044,1,2,0:0:0:0:
64,192,106210,128,2,106377:0:0:0:0:
320,192,106210,1,0,0:0:0:0:
192,192,106377,128,2,106544:0:0:0:0:
320,192,106544,128,2,106710:0:0:0:0:
448,192,106544,1,0,0:0:0:0:
192,192,106710,128,2,106877:0:0:0:0:
64,192,106877,1,2,0:0:0:0:
448,192,106877,1,0,0:0:0:0:
320,192,107044,128,2,107210:0:0:0:0:
64,192,107210,1,2,0:0:0:0:
448,192,107210,1,0,0:0:0:0:
320,192,107377,128,2,107460:0:0:0:0:
64,192,107460,128,0,107544:0:0:0:0:
192,192,107544,1,2,0:0:0:0:
448,192,107544,128,0,107710:0:0:0:0:
320,192,107710,128,2,107877:0:0:0:0:
64,192,107877,1,2,0:0:0:0:
192,192,107877,128,0,108044:0:0:0:0:
448,192,108044,128,2,108210:0:0:0:0:
64,192,108210,1,4,0:0:0:0:
192,192,108210,1,2,0:0:0:0:
320,192,108294,1,2,0:0:0:0:
448,192,108377,1,2,0:0:0:0:
192,192,108460,1,2,0:0:0:0:
320,192,108544,1,2,0:0:0:0:
64,192,108627,1,2,0:0:0:0:
320,192,108710,1,2,0:0:0:0:
192,192,108794,1,2,0:0:0:0:
64,192,108877,1,2,0:0:0:0:
192,192,108960,1,2,0:0:0:0:
448,192,109044,1,2,0:0:0:0:
320,192,109127,1,2,0:0:0:0:
192,192,109210,1,2,0:0:0:0:
448,192,109294,1,2,0:0:0:0:
64,192,109377,1,2,0:0:0:0:
192,192,109460,1,2,0:0:0:0:
320,192,109544,1,4,0:0:0:0:
448,192,109544,1,2,0:0:0:0:
64,192,109627,1,2,0:0:0:0:
448,192,109710,1,2,0:0:0:0:
64,192,109794,1,2,0:0:0:0:
448,192,109877,1,2,0:0:0:0:
64,192,109960,1,2,0:0:0:0:
448,192,110044,1,2,0:0:0:0:
64,192,110127,1,2,0:0:0:0:
448,192,110210,1,2,0:0:0:0:
64,192,110294,1,2,0:0:0:0:
448,192,110377,1,2,0:0:0:0:
64,192,110460,1,2,0:0:0:0:
448,192,110544,1,2,0:0:0:0:
64,192,110627,1,2,0:0:0:0:
192,192,110710,1,2,0:0:0:0:
320,192,110794,1,2,0:0:0:0:
448,192,110877,1,4,0:0:0:0:
64,192,111210,1,0,0:0:0:0:
192,192,111544,1,0,0:0:0:0:
320,192,111565,1,0,0:0:0:0:
448,192,111710,1,0,0:0:0:0:
192,192,111877,1,0,0:0:0:0:
64,192,112044,1,0,0:0:0:0:
448,192,112044,1,0,0:0:0:0:
320,192,112377,1,0,0:0:0:40:soft-hitwhistle.wav
192,192,112460,1,0,0:0:0:0:
448,192,112544,1,0,0:0:0:40:soft-hitwhistle.wav
320,192,112627,1,0,0:0:0:0:
192,192,112710,1,0,0:0:0:0:
64,192,112794,1,0,0:0:0:0:
448,192,112877,1,0,0:0:0:40:soft-hitclap.wav
64,192,112960,1,0,0:0:0:0:
192,192,113044,1,0,0:0:0:0:
448,192,113127,1,0,0:0:0:0:
64,192,113210,1,0,0:0:0:0:
320,192,113294,1,0,0:0:0:0:
192,192,113377,1,0,0:0:0:0:
320,192,113460,1,0,0:0:0:0:
64,192,113544,1,2,0:0:0:0:
448,192,113544,1,4,0:0:0:0:
64,192,113877,1,2,0:0:0:0:
192,192,113877,1,0,0:0:0:0:
192,192,114210,1,8,0:0:0:0:
448,192,114210,1,0,0:0:0:0:
64,192,114377,1,0,0:0:0:0:
448,192,114377,1,0,0:0:0:0:
64,192,114544,1,0,0:0:0:0:
192,192,114544,1,0,0:0:0:0:
320,192,114710,1,2,0:0:0:0:
448,192,114710,1,0,0:0:0:0:
192,192,115044,1,2,0:0:0:0:
320,192,115044,1,0,0:0:0:0:
64,192,115377,1,2,0:0:0:0:
192,192,115377,1,0,0:0:0:0:
64,192,115544,1,8,0:0:0:0:
448,192,115544,1,0,0:0:0:0:
320,192,115710,1,0,0:0:0:0:
448,192,115710,1,0,0:0:0:0:
64,192,115877,1,2,0:0:0:0:
64,192,116044,1,2,0:0:0:0:
192,192,116044,1,0,0:0:0:0:
320,192,116127,1,0,0:0:0:0:
192,192,116210,1,2,0:0:0:0:
448,192,116210,1,0,0:0:0:0:
64,192,116544,1,2,0:0:0:0:
448,192,116544,1,0,0:0:0:0:
320,192,116794,1,0,0:0:0:0:
64,192,116877,1,8,0:0:0:0:
192,192,116877,1,0,0:0:0:0:
192,192,117044,1,0,0:0:0:0:
448,192,117044,1,0,0:0:0:0:
320,192,117210,1,0,0:0:0:0:
448,192,117210,1,0,0:0:0:0:
64,192,117377,1,2,0:0:0:0:
192,192,117377,1,0,0:0:0:0:
192,192,117710,1,2,0:0:0:0:
320,192,117710,1,0,0:0:0:0:
64,192,118044,1,2,0:0:0:0:
320,192,118044,1,0,0:0:0:0:
320,192,118210,1,8,0:0:0:0:
448,192,118210,1,0,0:0:0:0:
64,192,118377,1,0,0:0:0:0:
192,192,118377,1,0,0:0:0:0:
448,192,118544,1,2,0:0:0:0:
64,192,118710,1,2,0:0:0:0:
448,192,118710,1,0,0:0:0:0:
192,192,118794,1,0,0:0:0:0:
64,192,118877,1,2,0:0:0:0:
320,192,118877,1,0,0:0:0:0:
192,192,119210,1,2,0:0:0:0:
448,192,119210,1,0,0:0:0:0:
64,192,119377,1,0,0:0:0:0:
320,192,119460,1,0,0:0:0:0:
192,192,119544,1,8,0:0:0:0:
448,192,119544,1,0,0:0:0:0:
192,192,119710,1,0,0:0:0:0:
320,192,119710,1,0,0:0:0:0:
64,192,119877,1,0,0:0:0:0:
448,192,119877,1,0,0:0:0:0:
192,192,120044,1,2,0:0:0:0:
448,192,120044,1,0,0:0:0:0:
192,192,120377,1,2,0:0:0:0:
320,192,120377,1,0,0:0:0:0:
64,192,120710,1,2,0:0:0:0:
320,192,120710,1,0,0:0:0:0:
192,192,120877,1,8,0:0:0:0:
448,192,120877,1,0,0:0:0:0:
64,192,121044,1,0,0:0:0:0:
192,192,121044,1,0,0:0:0:0:
64,192,121210,1,2,0:0:0:0:
192,192,121210,1,0,0:0:0:0:
320,192,121294,1,0,0:0:0:0:
64,192,121377,1,2,0:0:0:0:
448,192,121377,1,0,0:0:0:0:
192,192,121460,1,0,0:0:0:0:
320,192,121544,1,2,0:0:0:0:
448,192,121544,1,4,0:0:0:0:
64,192,121877,1,8,0:3:0:0:
448,192,121877,1,0,0:0:0:0:
64,192,122127,1,0,0:0:0:0:
192,192,122210,1,0,0:0:0:0:
320,192,122210,1,0,0:0:0:0:
192,192,122377,1,2,0:0:0:0:
448,192,122377,1,0,0:0:0:0:
64,192,122544,1,8,0:3:0:0:
320,192,122544,1,0,0:0:0:0:
320,192,122710,1,0,0:0:0:0:
448,192,122710,1,0,0:0:0:0:
192,192,122794,1,0,0:0:0:0:
448,192,122877,1,2,0:0:0:0:
192,192,122960,1,0,0:0:0:0:
448,192,123044,1,0,0:0:0:0:
192,192,123127,1,0,0:0:0:0:
448,192,123210,1,8,0:3:0:0:
192,192,123294,1,0,0:0:0:0:
448,192,123377,1,2,0:0:0:0:
192,192,123460,1,0,0:0:0:0:
448,192,123544,1,0,0:0:0:0:
320,192,123627,1,0,0:0:0:0:
192,192,123710,1,2,0:0:0:0:
64,192,123794,1,0,0:0:0:0:
448,192,123877,1,8,0:3:0:0:
320,192,123960,1,0,0:0:0:0:
192,192,124044,1,0,0:0:0:0:
64,192,124127,1,0,0:0:0:0:
192,192,124210,1,2,0:0:0:0:
448,192,124210,1,0,0:0:0:0:
64,192,124377,1,2,0:0:0:0:
320,192,124544,1,8,0:3:0:0:
448,192,124544,1,0,0:0:0:0:
192,192,124710,1,2,0:0:0:0:
320,192,124794,1,2,0:0:0:0:
64,192,124877,1,2,0:0:0:0:
192,192,124877,1,0,0:0:0:0:
64,192,125044,1,2,0:0:0:0:
448,192,125044,1,0,0:0:0:0:
192,192,125210,1,8,0:3:0:0:
320,192,125210,1,0,0:0:0:0:
320,192,125377,1,2,0:0:0:0:
448,192,125377,1,0,0:0:0:0:
192,192,125710,1,2,0:0:0:0:
320,192,125710,1,0,0:0:0:0:
64,192,125877,1,8,0:3:0:0:
448,192,125877,1,0,0:0:0:0:
64,192,126044,1,2,0:0:0:0:
320,192,126044,1,0,0:0:0:0:
64,192,126377,1,2,0:0:0:0:
192,192,126377,1,0,0:0:0:0:
320,192,126460,1,2,0:0:0:0:
64,192,126544,1,8,0:3:0:0:
448,192,126544,1,0,0:0:0:0:
448,192,126710,1,2,0:0:0:0:
320,192,126794,1,0,0:0:0:0:
64,192,126877,1,4,0:0:0:0:
192,192,126877,1,2,0:0:0:0:
64,192,127044,1,2,0:0:0:0:
192,192,127210,1,2,0:0:0:0:
448,192,127210,1,0,0:0:0:0:
448,192,127377,1,2,0:0:0:0:
192,192,127544,1,2,0:0:0:0:
320,192,127544,1,0,0:0:0:0:
192,192,127710,1,2,0:0:0:0:
64,192,127877,1,2,0:0:0:0:
448,192,127877,1,0,0:0:0:0:
64,192,128044,1,2,0:0:0:0:
192,192,128210,1,2,0:0:0:0:
448,192,128210,1,0,0:0:0:0:
448,192,128377,1,2,0:0:0:0:
192,192,128544,1,2,0:0:0:0:
320,192,128544,1,0,0:0:0:0:
192,192,128710,1,2,0:0:0:0:
320,192,128794,1,0,0:0:0:0:
64,192,128877,1,2,0:0:0:0:
448,192,128877,1,0,0:0:0:0:
64,192,129044,1,2,0:0:0:0:
320,192,129210,1,2,0:0:0:0:
448,192,129210,1,0,0:0:0:0:
448,192,129377,1,2,0:0:0:0:
64,192,129544,1,2,0:0:0:0:
192,192,129544,1,4,0:0:0:0:
320,192,129627,1,2,0:0:0:0:
448,192,129710,1,2,0:0:0:0:
192,192,129794,1,2,0:0:0:0:
448,192,129877,1,2,0:0:0:0:
64,192,129960,1,2,0:0:0:0:
192,192,130044,1,2,0:0:0:0:
448,192,130127,1,2,0:0:0:0:
64,192,130210,1,2,0:0:0:0:
192,192,130294,1,2,0:0:0:0:
64,192,130377,1,2,0:0:0:0:
320,192,130460,1,2,0:0:0:0:
448,192,130544,1,2,0:0:0:0:
192,192,130627,1,2,0:0:0:0:
64,192,130710,1,2,0:0:0:0:
192,192,130794,1,2,0:0:0:0:
320,192,130877,1,4,0:0:0:0:
448,192,130877,1,2,0:0:0:0:
64,192,130960,1,2,0:0:0:0:
448,192,131044,1,2,0:0:0:0:
64,192,131127,1,2,0:0:0:0:
448,192,131210,1,2,0:0:0:0:
64,192,131294,1,2,0:0:0:0:
448,192,131377,1,2,0:0:0:0:
64,192,131460,1,2,0:0:0:0:
448,192,131544,1,2,0:0:0:0:
64,192,131627,1,2,0:0:0:0:
448,192,131710,1,2,0:0:0:0:
64,192,131794,1,2,0:0:0:0:
448,192,131877,1,2,0:0:0:0:
64,192,131960,1,2,0:0:0:0:
192,192,132044,1,2,0:0:0:0:
320,192,132127,1,2,0:0:0:0:
64,192,132210,1,4,0:0:0:0:
448,192,132210,1,2,0:0:0:0:
320,192,132377,1,0,0:0:0:0:
192,192,132544,1,0,0:0:0:0:
448,192,132710,1,0,0:0:0:0:
320,192,132877,1,0,0:0:0:0:
192,192,132960,1,0,0:0:0:0:
64,192,133044,1,0,0:0:0:0:
192,192,133210,1,0,0:0:0:0:
320,192,133377,1,0,0:0:0:0:
64,192,133544,1,0,0:0:0:0:
320,192,133710,1,0,0:0:0:0:
448,192,133877,1,0,0:0:0:0:
192,192,134044,1,0,0:0:0:0:
448,192,134210,1,0,0:0:0:0:
320,192,134294,1,0,0:0:0:0:
64,192,134377,1,0,0:0:0:0:
192,192,134544,1,0,0:0:0:0:
320,192,134710,1,0,0:0:0:0:
64,192,134877,1,0,0:0:0:0:
192,192,134877,1,0,0:0:0:0:
320,192,135044,1,0,0:0:0:0:
448,192,135210,1,0,0:0:0:0:
64,192,135377,1,0,0:0:0:0:
320,192,135544,1,0,0:0:0:0:
192,192,135627,1,0,0:0:0:0:
64,192,135710,1,0,0:0:0:0:
192,192,135877,1,0,0:0:0:0:
448,192,136044,1,0,0:0:0:0:
64,192,136210,1,0,0:0:0:0:
320,192,136377,1,0,0:0:0:0:
448,192,136544,1,0,0:0:0:0:
64,192,136710,1,0,0:0:0:0:
448,192,136877,1,0,0:0:0:0:
320,192,136960,1,0,0:0:0:0:
64,192,137044,1,0,0:0:0:0:
192,192,137210,1,0,0:0:0:0:
320,192,137377,1,0,0:0:0:0:
64,192,137544,1,0,0:0:0:0:
192,192,137627,1,0,0:0:0:0:
320,192,137710,1,0,0:0:0:0:
448,192,137794,1,0,0:0:0:0:
