osu file format v14

[General]
AudioFilename: Marchen Metamorphose.mp3
AudioLeadIn: 0
PreviewTime: 71305
Countdown: 1
SampleSet: Soft
StackLeniency: 0.7
Mode: 0
LetterboxInBreaks: 0
WidescreenStoryboard: 0

[Editor]
Bookmarks: 10777,25386,27472,29559,31646,33472,33733,96338,104686,113044,175642,179816
DistanceSpacing: 1.7
BeatDivisor: 3
GridSize: 4
TimelineZoom: 4.299998

[Metadata]
Title:Marchen oo Metamorphose!
TitleUnicode:メルヘン∞メタモルフォーゼ!
Artist:Abe Nana(CV : Miyake Marie)
ArtistUnicode:安部菜々(CV:三宅麻理恵)
Creator:Abe Nana
Version:MARCHEN MASTER
Source:アイドルマスター シンデレラガールズ
Tags:the idolm@ster cinderella girls starlight stage im@s -chata- lecana rui kanau iyasine
BeatmapID:1225147
BeatmapSetID:578654

[Difficulty]
HPDrainRate:6.7
CircleSize:3.7
OverallDifficulty:8.7
ApproachRate:9.2
SliderMultiplier:1.77
SliderTickRate:1

[Events]
//Background and Video events
0,0,"59986718_p0.png",0,0
//Break Periods
2,96373,104126
//Storyboard Layer 0 (Background)
//Storyboard Layer 1 (Fail)
//Storyboard Layer 2 (Pass)
//Storyboard Layer 3 (Foreground)
//Storyboard Sound Samples

[TimingPoints]
3479,260.869565217391,4,2,2,70,1,0
4522,-200,4,2,2,70,0,0
8632,-200,4,2,2,10,0,0
8696,-133.333333333333,4,2,2,70,0,0
11827,-166.666666666667,4,2,2,70,0,0
12870,-90.9090909090909,4,2,2,70,0,0
13131,-114.942528735632,4,2,2,70,0,0
13392,-72.992700729927,4,2,2,70,0,0
13653,-100,4,2,2,70,0,0
14957,-90.9090909090909,4,2,2,70,0,0
15218,-114.942528735632,4,2,2,70,0,0
15478,-72.992700729927,4,2,2,70,0,0
15740,-100,4,2,2,70,0,0
16261,-129.87012987013,4,2,2,70,0,0
16522,-100,4,2,2,70,0,0
17044,-90.9090909090909,4,2,2,70,0,1
25392,-129.87012987013,4,2,2,70,0,0
37913,-117.647058823529,4,2,2,70,0,0
49392,-125,4,2,2,70,0,1
52522,-166.666666666667,4,2,2,70,0,1
53565,-125,4,2,2,70,0,1
55652,-166.666666666667,4,2,2,70,0,1
59826,-129.87012987013,4,2,2,70,0,1
64000,-111.111111111111,4,2,2,70,0,1
67131,-166.666666666667,4,2,2,70,0,1
69218,-166.666666666667,4,2,2,70,0,0
70261,-100,4,2,2,70,0,0
71305,-100,4,2,2,70,0,1
78609,-142.857142857143,4,2,2,70,0,1
79652,-100,4,2,2,70,0,1
88000,-90.9090909090909,4,2,2,70,0,0
88261,-114.942528735632,4,2,2,70,0,0
88522,-72.992700729927,4,2,2,70,0,0
88783,-100,4,2,2,70,0,0
90087,-90.9090909090909,4,2,2,70,0,0
90348,-114.942528735632,4,2,2,70,0,0
90609,-72.992700729927,4,2,2,70,0,0
90870,-100,4,2,2,70,0,0
92174,-90.9090909090909,4,2,2,70,0,0
92435,-114.942528735632,4,2,2,70,0,0
92696,-72.992700729927,4,2,2,70,0,0
92957,-100,4,2,2,70,0,0
94261,-90.9090909090909,4,2,2,70,0,0
94522,-114.942528735632,4,2,2,70,0,0
94783,-72.992700729927,4,2,2,70,0,0
95044,-100,4,2,2,70,0,0
95565,-129.87012987013,4,2,2,70,0,0
95826,-100,4,2,2,70,0,0
104696,-129.87012987013,4,2,2,70,0,0
117218,-117.647058823529,4,2,2,70,0,0
128696,-125,4,2,2,70,0,1
131826,-166.666666666667,4,2,2,70,0,1
132870,-125,4,2,2,70,0,1
134957,-166.666666666667,4,2,2,70,0,1
139131,-129.87012987013,4,2,2,70,0,1
143305,-111.111111111111,4,2,2,70,0,1
146435,-166.666666666667,4,2,2,70,0,1
149565,-100,4,2,2,70,0,0
150609,-100,4,2,2,70,0,1
157913,-142.857142857143,4,2,2,70,0,1
158957,-100,4,2,2,70,0,1
167305,-100,4,2,2,70,0,0
225218,-100,4,2,2,70,0,1
232000,-100,4,2,2,70,0,0
235131,-100,4,2,2,70,0,1
242435,-100,4,2,2,70,0,0
251826,-100,4,2,2,70,0,1
271131,260.869565217391,4,2,2,70,1,0
271131,-100,4,2,2,70,0,0

[Colours]
Combo1 : 254,231,232
Combo2 : 255,157,157
Combo3 : 232,11,16

[HitObjects]
256,340,4522,6,0,L|348:328,1,88.5
392,120,5044,2,0,L|288:108,1,88.5
192,96,5565,2,0,P|152:152|220:228,1,177
312,236,6348,1,0,0:0:0:0:
256,348,6609,6,0,L|160:340,1,88.5
124,216,7131,2,0,P|136:144|144:120,1,88.5
237,51,7652,2,0,B|280:36|312:40|348:56|392:116|352:168|272:180|272:180|252:155|275:121,1,331.875,0|0,0:0|2:0,0:0:0:0:
275,121,8696,5,0,0:0:0:0:
248,208,8826,2,0,L|112:196,1,132.750005064011
72,132,9218,2,0,B|64:196|64:196|76:212|76:212|56:276,1,132.750005064011
320,344,9739,1,0,0:0:0:0:
408,304,9870,2,0,P|424:232|384:164,1,132.750005064011
324,248,10261,2,0,B|240:252|240:252|200:216,1,132.750005064011
336,4,10783,6,0,L|328:120,1,88.5000033760072
183,103,11044,2,0,L|176:8,1,88.5000033760072
344,265,11305,2,0,L|440:268,1,88.5000033760072
167,265,11565,2,0,L|72:272,1,88.5000033760072
256,360,11826,5,0,0:0:0:0:
213,255,12261,1,0,0:0:0:0:
213,255,12348,2,0,L|101:243,1,106.199996759033
107,243,12870,6,0,B|67:223|67:223|163:207,1,129.800003961182
256,60,13131,6,0,L|244:176,1,102.660000861557
352,320,13392,6,0,P|264:340|240:264,1,161.660004563461
240,264,13652,5,0,0:0:0:0:
356,136,13826,2,0,B|400:92|400:92|392:228,1,177
380,328,14174,1,0,0:0:0:0:
216,200,14348,1,0,0:0:0:0:
216,200,14435,2,0,L|224:324,1,118
92,168,14696,2,0,L|108:40,1,118
132,252,14957,6,0,P|52:256|12:200,1,129.800003961182
64,84,15218,6,0,P|116:84|164:116,1,102.660000861557
304,188,15478,6,0,B|284:308|284:308|235:280,1,161.660004563461
224,276,15739,5,0,0:0:0:0:
240,92,15913,2,0,P|316:56|388:132,1,177
376,328,16261,2,0,P|330:327|285:319,1,90.8599981976624
208,192,16522,2,0,B|216:204|216:204|224:224|224:260|180:300|180:300|136:276|116:240|124:212|124:212|152:212|176:244,1,295
132,100,17044,5,0,0:0:0:0:
312,116,17218,1,0,0:0:0:0:
352,44,17305,2,0,L|372:188,1,129.800003961182
380,256,17565,1,0,0:0:0:0:
240,328,17739,1,0,0:0:0:0:
196,256,17826,2,0,P|162:254|108:256,1,64.9000019805909
76,340,18000,6,0,P|4:264|84:192,1,194.700005941773
156,148,18348,1,0,0:0:0:0:
152,112,18435,1,0,0:0:0:0:
148,76,18522,1,0,0:0:0:0:
80,28,18609,2,0,B|68:108|68:108|124:92,1,129.800003961182
208,224,18870,2,0,L|364:208,1,129.800003961182
364,24,19131,6,0,P|404:52|376:160,1,129.800003961182
416,312,19392,2,0,L|260:328,1,129.800003961182
204,328,19652,1,0,0:0:0:0:
208,196,19826,1,0,0:0:0:0:
208,196,19913,2,0,P|177:186|140:184,1,64.9000019805909
96,100,20087,6,0,B|48:80|48:80|52:236,1,194.700005941773
80,320,20435,2,0,L|244:296,1,129.800003961182
240,188,20696,1,0,0:0:0:0:
240,188,20761,1,0,0:0:0:0:
240,188,20826,2,0,L|228:120,2,48.6750014854432
476,200,21131,5,0,0:0:0:0:
448,280,21218,2,0,L|296:252,1,129.800003961182
316,172,21478,1,0,0:0:0:0:
208,64,21652,1,0,0:0:0:0:
204,76,21739,2,0,L|216:168,1,64.9000019805909
232,236,21913,2,0,L|36:192,1,194.700005941773
52,96,22261,6,0,P|68:24|160:28,1,129.800003961182
200,84,22522,1,0,0:0:0:0:
232,80,22609,1,0,0:0:0:0:
264,76,22696,1,0,0:0:0:0:
328,20,22783,2,0,B|364:40|364:40|356:160,1,129.800003961182
368,300,23044,2,0,P|316:336|236:324,1,129.800003961182
156,264,23305,6,0,P|140:184|196:132,1,129.800003961182
296,108,23565,2,0,P|369:98|444:88,1,129.800003961182
372,200,23826,1,0,0:0:0:0:
192,64,24000,1,0,0:0:0:0:
192,64,24087,2,0,P|188:102|184:132,1,64.9000019805909
196,228,24261,6,0,B|127:224|76:228|76:228|64:112,1,194.700005941773
108,24,24609,2,0,P|192:8|252:36,1,129.800003961182
312,100,24870,1,0,0:0:0:0:
308,304,25392,6,0,B|228:328|228:328|240:180,1,204.43499594474
248,100,25913,2,0,P|332:48|392:152,1,227.149995494156
396,321,26435,2,0,P|352:307|303:304,1,90.8599981976624
151,234,26696,2,0,P|207:214|247:206,1,90.8599981976624
372,208,26957,2,0,L|380:112,1,90.8599981976624
320,32,27218,2,0,L|332:4,4,22.7149995494156
288,112,27478,6,0,P|244:100|192:80,1,90.8599981976624
64,56,27739,2,0,P|68:100|72:160,1,90.8599981976624
112,280,28000,2,0,P|154:255|200:232,1,90.8599981976624
284,272,28261,1,0,0:0:0:0:
380,164,28435,1,0,0:0:0:0:
380,164,28522,2,0,L|364:12,2,136.289997296494
396,296,29218,1,0,0:0:0:0:
396,296,29305,2,0,L|296:284,1,90.8599981976624
96,264,29565,6,0,B|56:172|56:172|168:184,1,204.43499594474
432,200,30087,2,0,P|364:132|284:192,1,204.43499594474
176,360,30609,2,0,L|184:264,1,90.8599981976624
100,180,30870,2,0,P|148:180|192:168,1,90.8599981976624
284,296,31131,2,0,P|336:292|380:280,1,90.8599981976624
420,168,31392,2,0,L|424:136,4,22.7149995494156
440,64,31652,6,0,P|400:50|332:40,1,90.8599981976624
240,12,31913,2,0,L|248:140,1,90.8599981976624
80,192,32174,2,0,P|112:208|188:216,1,90.8599981976624
276,192,32435,2,0,L|268:320,1,90.8599981976624
88,368,32696,6,0,L|84:260,1,90.8599981976624
24,132,32957,2,0,L|140:124,1,90.8599981976624
240,112,33218,1,0,0:0:0:0:
220,280,33478,2,0,L|220:380,1,68.1449986482468
332,348,33739,6,0,L|408:336,1,68.1449986482468
436,224,34000,1,0,0:0:0:0:
436,224,34131,1,0,0:0:0:0:
360,68,34261,2,0,P|355:104|356:156,1,68.1449986482468
336,240,34522,1,0,0:0:0:0:
184,112,34652,1,0,0:0:0:0:
136,212,34783,6,0,B|164:260|164:260|248:244,1,136.289997296494
324,308,35174,1,0,0:0:0:0:
252,380,35305,2,0,L|160:360,1,68.1449986482468
72,372,35565,2,0,P|76:328|88:284,1,68.1449986482468
96,184,35826,6,0,P|56:170|0:156,1,68.1449986482468
152,76,36087,1,0,0:0:0:0:
152,76,36218,1,0,0:0:0:0:
200,252,36348,2,0,L|296:240,1,68.1449986482468
380,128,36609,2,0,P|376:169|368:216,1,68.1449986482468
364,296,36870,6,0,P|332:348|248:340,1,136.289997296494
168,332,37261,1,0,0:0:0:0:
156,236,37392,1,0,0:0:0:0:
144,140,37522,1,0,0:0:0:0:
132,44,37652,1,0,0:0:0:0:
140,36,37783,1,0,0:0:0:0:
252,148,37913,6,0,P|324:176|372:104,1,150.450002869606
456,56,38305,1,0,0:0:0:0:
472,160,38435,2,0,P|474:199|476:256,1,75.225001434803
400,308,38696,2,0,P|367:292|320:280,1,75.225001434803
232,200,38957,2,0,L|240:360,2,150.450002869606
228,76,39609,1,0,0:0:0:0:
120,204,39739,1,0,0:0:0:0:
48,44,39870,1,0,0:0:0:0:
132,108,40000,6,0,B|200:120|200:120|284:88,1,150.450002869606
392,64,40392,1,0,0:0:0:0:
376,168,40522,2,0,P|370:212|360:268,1,75.225001434803
300,324,40783,1,0,0:0:0:0:
204,284,40913,2,0,L|160:292,1,37.6125007174015
116,352,41044,6,0,P|76:268|132:228,1,150.450002869606
280,240,41435,1,0,0:0:0:0:
280,240,41565,2,0,B|328:164|328:164|272:124,1,150.450002869606
146,156,41957,1,0,0:0:0:0:
168,52,42087,6,0,B|128:48|128:48|147:162,1,150.450002869606
244,224,42478,1,0,0:0:0:0:
192,340,42609,2,0,P|248:364|304:292,1,150.450002869606
304,306,43000,1,0,0:0:0:0:
352,128,43131,6,0,P|316:131|276:140,1,75.225001434803
220,240,43392,2,0,P|183:235|128:224,1,75.225001434803
116,112,43652,2,0,P|75:104|40:100,1,75.225001434803
48,292,43913,1,0,0:0:0:0:
216,148,44044,1,0,0:0:0:0:
216,340,44174,6,0,B|276:360|276:360|368:316,2,150.450002869606
152,272,44826,1,0,0:0:0:0:
152,272,44957,1,0,0:0:0:0:
312,88,45087,6,0,P|356:152|332:236,1,150.450002869606
132,256,45478,1,0,0:0:0:0:
256,172,45609,1,0,0:0:0:0:
224,348,45739,1,0,0:0:0:0:
224,348,46000,5,0,0:0:0:0:
256,192,46261,12,0,49326,0:0:0:0:
208,324,49392,6,0,P|292:340|332:292,1,141.6
324,200,49783,2,0,B|260:164|260:164|188:208,1,141.6
112,272,50174,2,0,L|108:201,1,70.8
172,44,50435,6,0,B|216:68|216:68|320:36,1,141.6
336,144,50826,2,0,P|380:224|336:248,1,141.6
252,272,51218,2,0,L|244:176,1,70.8
136,228,51478,6,0,L|128:384,1,141.6
28,264,51870,2,0,L|20:108,1,141.6
150,61,52261,2,0,L|144:132,1,70.8
108,308,52522,6,0,P|222:241|112:148,1,318.5999902771
136,228,53435,1,0,0:0:0:0:
192,316,53565,6,0,P|304:300|352:308,1,141.6
376,208,53957,1,0,0:0:0:0:
248,72,54087,2,0,B|288:112|288:112|268:208,1,141.6
112,224,54478,1,0,0:0:0:0:
112,224,54609,2,0,P|20:144|144:68,1,283.2
252,84,55392,5,0,0:0:0:0:
252,84,55522,1,0,0:0:0:0:
436,112,55652,6,0,B|384:104|384:104|328:136,1,106.199996759033
260,284,56174,1,0,0:0:0:0:
152,80,56435,1,0,0:0:0:0:
152,80,56565,2,0,B|144:100|136:140|136:140|123:139|108:144|108:144|88:116|68:92|68:92|76:117|100:156|100:156|84:188|96:212|128:220|148:212|168:196|172:180|164:164|148:156,1,371.699988656617
116,336,57609,1,0,0:0:0:0:
116,336,57739,6,0,B|180:332|180:332|228:304,1,106.199996759033
240,104,58261,1,0,0:0:0:0:
404,244,58522,1,0,0:0:0:0:
404,244,58652,2,0,B|412:264|420:304|420:304|433:303|448:308|448:308|468:280|488:256|488:256|480:281|456:320|456:320|472:352|460:376|428:384|408:376|388:360|384:344|392:328|408:320,1,371.699988656617
300,8,59826,6,0,P|284:76|288:152,1,136.289997296494
280,244,60218,1,0,0:0:0:0:
180,232,60348,2,0,L|28:208,1,136.289997296494
64,100,60739,1,0,0:0:0:0:
164,76,60870,2,0,P|220:68|260:64,1,68.1449986482468
272,168,61131,2,0,P|305:163|339:158,1,68.1449986482468
432,36,61392,2,0,P|428:76|428:116,1,68.1449986482468
428,208,61652,2,0,B|424:276|424:276|384:256,1,102.21749797237
396,276,61913,6,0,P|308:312|256:228,2,204.43499594474
400,172,62826,1,0,0:0:0:0:
364,76,62957,2,0,L|288:52,5,45.4299990988312
280,100,63478,2,0,L|228:84,7,34.0724993241234
160,40,64000,6,0,L|168:204,1,159.29999513855
188,312,64392,1,0,0:0:0:0:
332,220,64522,1,0,0:0:0:0:
212,172,64652,1,0,0:0:0:0:
304,344,64783,2,0,P|360:336|392:322,1,79.649997569275
460,156,65044,6,0,P|368:128|336:184,1,159.29999513855
264,252,65435,1,0,0:0:0:0:
232,92,65565,1,0,0:0:0:0:
128,252,65696,1,0,0:0:0:0:
240,84,65826,2,0,L|248:188,1,79.649997569275
240,344,66087,6,0,B|328:364|328:364|376:308,1,159.29999513855
396,200,66478,1,0,0:0:0:0:
228,144,66609,1,0,0:0:0:0:
296,268,66739,1,0,0:0:0:0:
336,80,66870,2,0,L|328:-16,1,79.649997569275
192,68,67131,6,0,B|118:96|12:47|12:47|73:126|73:126|26:118|26:118|79:163|79:163|54:171|54:171|77:199|125:207|180:191|200:166|187:123|152:114|116:133,1,637.1999805542
256,192,69218,12,0,70261,0:0:0:0:
216,332,70522,6,0,L|360:312,1,118
400,244,70783,2,0,L|380:92,1,118
312,68,71044,2,0,L|168:84,1,118
80,168,71305,6,0,B|84:256|84:256|148:232,1,118
192,204,71565,1,0,0:0:0:0:
248,376,71739,1,0,0:0:0:0:
264,372,71826,2,0,B|308:348|308:348|296:268,1,118
280,192,72087,1,0,0:0:0:0:
372,84,72261,6,0,P|280:28|240:100,1,177
240,88,72609,1,0,0:0:0:0:
112,128,72783,2,0,B|88:218|88:218|188:216,1,177
300,368,73131,6,0,P|304:309|294:251,1,118
180,336,73392,2,0,P|84:308|96:232,1,177
196,96,73826,1,0,0:0:0:0:
200,88,73913,2,0,P|144:60|72:72,1,118
128,156,74174,1,0,0:0:0:0:
276,36,74348,6,0,B|328:60|328:60|308:112|284:232,1,177
284,272,74696,2,0,P|340:300|420:192,1,177
440,92,75131,1,0,0:0:0:0:
424,88,75218,2,0,P|376:88|296:76,1,118
216,80,75478,5,0,0:0:0:0:
216,80,75652,2,0,L|228:140,1,59
204,256,75913,2,0,B|151:262|100:281|100:281|100:241|82:186,1,177
96,112,76261,1,0,0:0:0:0:
120,104,76348,1,0,0:0:0:0:
144,96,76435,1,0,0:0:0:0:
208,40,76522,5,0,0:0:0:0:
208,40,76696,2,0,P|204:80|200:112,1,59
404,212,76957,2,0,P|380:144|276:156,1,177
232,220,77305,1,0,0:0:0:0:
232,220,77392,2,0,P|228:260|224:292,1,59
188,356,77565,6,0,L|4:328,1,177
64,136,78000,1,0,0:0:0:0:
64,136,78087,2,0,B|127:143|168:156|168:156|176:120|204:48,1,177
272,16,78522,1,0,0:0:0:0:
272,16,78609,6,0,P|340:4|348:128,1,206.49999369812
336,196,79131,6,0,L|372:192,11,20.649999369812
240,156,79652,6,0,P|232:228|260:272,1,118
320,336,79913,2,0,P|260:360|188:336,1,118
120,344,80174,1,0,0:0:0:0:
112,324,80261,2,0,L|124:192,1,118
96,80,80522,6,0,P|196:52|240:108,1,177
336,64,80870,1,0,0:0:0:0:
344,48,80957,2,0,L|328:180,1,118
268,260,81218,2,0,L|400:256,1,118
176,320,81478,2,0,L|168:172,1,118
288,96,81739,6,0,B|344:84|344:84|328:216,1,177
88,164,82174,1,0,0:0:0:0:
88,164,82261,2,0,L|100:12,1,118
188,72,82522,2,0,L|312:56,1,118
408,20,82783,6,0,P|440:88|380:152,1,118
408,216,83044,2,0,B|328:212|328:212|288:148,1,118
312,84,83305,2,0,L|188:76,1,118
136,152,83565,2,0,P|124:228|160:272,1,118
228,308,83826,5,0,0:0:0:0:
228,308,84000,2,0,L|320:296,1,59
320,100,84261,2,0,B|352:112|352:112|384:104|384:104|360:212,1,177
264,208,84609,1,0,0:0:0:0:
240,204,84696,1,0,0:0:0:0:
216,200,84783,1,0,0:0:0:0:
164,132,84870,5,0,0:0:0:0:
164,132,85044,2,0,L|152:212,1,59
20,324,85305,2,0,L|236:288,1,177
284,340,85652,1,0,0:0:0:0:
284,340,85739,2,0,L|292:260,1,59
296,192,85913,6,0,B|376:196|376:196|412:144|416:68|368:32|288:36,1,295
208,8,86435,2,0,P|208:68|220:160,1,118
84,88,86696,2,0,P|112:144|128:245,1,118
204,264,86957,6,0,B|160:288|104:292|104:292|136:332|136:332|180:348|180:348|212:320|260:304,1,295
260,303,87478,1,0,0:0:0:0:
364,320,87652,1,0,0:0:0:0:
364,320,87739,1,0,0:0:0:0:
412,200,87913,1,0,0:0:0:0:
412,200,88000,6,0,B|320:204|320:204|296:156,1,129.800003961182
340,28,88261,6,0,P|372:72|368:129,1,102.660000861557
256,256,88522,6,0,P|212:192|236:104,1,161.660004563461
248,108,88783,5,0,0:0:0:0:
44,84,88957,2,0,B|16:148|16:148|152:124,1,177
180,52,89305,1,0,0:0:0:0:
132,220,89478,1,0,0:0:0:0:
132,220,89565,2,0,L|140:360,1,118
280,232,89826,2,0,L|292:104,1,118
348,300,90087,6,0,P|296:328|220:308,1,129.800003961182
210,151,90348,6,0,B|246:106|246:106|304:116,1,102.660000861557
436,216,90609,6,0,B|448:100|448:100|409:124,1,161.660004563461
384,136,90870,5,0,0:0:0:0:
188,76,91044,2,0,P|132:136|192:224,1,177
256,360,91392,2,0,P|320:344|380:344,1,118
456,272,91652,2,0,B|468:164|472:88|472:88|432:124|384:156,1,295
316,100,92174,6,0,P|292:152|328:224,1,129.800003961182
464,196,92435,6,0,P|476:156|444:92,1,102.660000861557
320,8,92696,6,0,B|192:24|192:24|244:60,1,161.660004563461
240,56,92957,5,0,0:0:0:0:
244,268,93131,2,0,P|176:216|232:112,1,177
376,200,93478,2,0,L|236:188,1,118
20,268,93739,2,0,B|72:304|72:304|156:264,1,118
94,74,94000,2,0,L|84:192,1,118
220,316,94261,6,0,L|208:160,1,129.800003961182
204,96,94522,2,0,P|260:80|312:80,1,102.660000861557
412,224,94783,2,0,B|312:224|300:216|300:216|308:184|332:148,1,161.660004563461
392,116,95044,5,0,0:0:0:0:
344,348,95218,2,0,P|272:360|224:276,1,177
124,168,95565,2,0,L|214:180,1,90.8599981976624
356,36,95826,2,0,P|416:92|312:192,1,236
80,136,104696,6,0,P|116:52|236:84,1,204.43499594474
260,152,105218,2,0,B|289:238|289:238|177:254,1,204.43499594474
68,240,105739,2,0,P|68:288|76:340,1,90.8599981976624
248,360,106000,2,0,P|256:312|256:264,1,90.8599981976624
192,88,106261,2,0,P|124:76|80:84,1,90.8599981976624
24,148,106522,2,0,L|20:124,4,22.7149995494156
80,240,106783,6,0,B|136:232|136:232|132:188,1,90.8599981976624
272,136,107044,2,0,L|264:248,1,90.8599981976624
180,352,107305,2,0,L|288:336,1,90.8599981976624
356,324,107565,1,0,0:0:0:0:
352,112,107739,1,0,0:0:0:0:
352,112,107826,2,0,L|204:88,2,136.289997296494
272,196,108522,1,0,0:0:0:0:
272,196,108609,2,0,B|248:224|248:224|264:296,1,90.8599981976624
428,180,108870,6,0,P|468:104|392:20,1,204.43499594474
356,112,109392,2,0,B|304:116|304:116|280:168|280:168|176:96,1,204.43499594474
72,60,109913,6,0,P|127:39|160:20,1,90.8599981976624
124,184,110174,2,0,P|132:248|132:288,1,90.8599981976624
272,344,110435,2,0,P|269:296|260:220,1,90.8599981976624
292,168,110696,2,0,L|256:144,4,22.7149995494156
320,72,110957,6,0,L|416:60,1,90.8599981976624
436,176,111218,2,0,P|428:236|408:280,1,90.8599981976624
224,272,111478,2,0,L|324:260,1,90.8599981976624
200,68,111739,2,0,L|200:158,1,90.8599981976624
104,320,112000,6,0,L|120:200,1,90.8599981976624
20,88,112261,2,0,P|80:76|124:80,1,90.8599981976624
296,84,112522,1,0,0:0:0:0:
296,84,112783,2,0,L|284:164,1,68.1449986482468
272,260,113044,5,0,0:0:0:0:
152,176,113174,1,0,0:0:0:0:
180,356,113305,2,0,L|184:268,1,68.1449986482468
172,280,113500,1,0,0:0:0:0:
160,272,113565,2,0,L|84:280,1,68.1449986482468
0,248,113826,1,0,0:0:0:0:
24,116,113957,1,0,0:0:0:0:
160,168,114087,6,0,P|252:168|280:120,1,136.289997296494
204,8,114478,1,0,0:0:0:0:
204,8,114609,2,0,L|204:88,1,68.1449986482468
356,232,114870,2,0,L|364:136,1,68.1449986482468
356,48,115131,5,0,0:0:0:0:
264,168,115261,1,0,0:0:0:0:
160,168,115392,2,0,L|80:164,1,68.1449986482468
144,64,115652,1,0,0:0:0:0:
144,64,115783,1,0,0:0:0:0:
20,40,115913,2,0,P|16:84|24:136,1,68.1449986482468
64,248,116174,6,0,B|32:232|32:232|52:336,1,136.289997296494
148,320,116565,1,0,0:0:0:0:
243,305,116696,1,0,0:0:0:0:
338,286,116826,1,0,0:0:0:0:
433,267,116957,1,0,0:0:0:0:
441,275,117087,1,0,0:0:0:0:
404,104,117218,6,0,B|376:176|376:176|304:152,1,150.450002869606
249,61,117609,1,0,0:0:0:0:
212,168,117739,2,0,B|204:208|204:208|224:252,1,75.225001434803
336,328,118000,2,0,P|347:281|340:236,1,75.225001434803
324,68,118261,6,0,L|228:60,1,75.225001434803
80,72,118522,2,0,L|155:66,1,75.225001434803
216,211,118783,1,0,0:0:0:0:
216,211,118913,1,0,0:0:0:0:
96,172,119043,1,0,0:0:0:0:
144,344,119173,1,0,0:0:0:0:
296,292,119305,6,0,P|320:224|296:140,1,150.450002869606
228,72,119696,1,0,0:0:0:0:
124,84,119826,2,0,L|32:92,1,75.225001434803
52,196,120087,1,0,0:0:0:0:
144,240,120218,2,0,L|120:300,1,37.6125007174015
72,336,120348,6,0,L|228:316,1,150.450002869606
320,352,120739,1,0,0:0:0:0:
388,272,120870,2,0,P|416:188|372:156,1,150.450002869606
296,228,121261,1,0,0:0:0:0:
232,48,121392,6,0,B|236:152|236:152|280:128,1,150.450002869606
276,129,121783,1,0,0:0:0:0:
212,248,121913,2,0,P|124:268|84:216,1,150.450002869606
156,104,122305,1,0,0:0:0:0:
156,104,122435,6,0,L|159:184,1,75.225001434803
4,248,122696,2,0,L|0:160,1,75.225001434803
24,32,122957,2,0,L|100:24,1,75.225001434803
159,179,123218,1,0,0:0:0:0:
248,80,123348,1,0,0:0:0:0:
232,256,123478,6,0,P|149:292|88:260,2,150.450002869606
288,172,124131,1,0,0:0:0:0:
288,172,124261,1,0,0:0:0:0:
336,340,124392,6,0,B|376:352|376:352|376:228,1,150.450002869606
332,40,124783,1,0,0:0:0:0:
288,172,124913,1,0,0:0:0:0:
452,136,125044,1,0,0:0:0:0:
452,136,125305,5,0,0:0:0:0:
256,192,125565,12,0,128631,0:0:0:0:
320,204,128696,6,0,P|404:188|476:168,1,141.6
344,320,129087,2,0,P|240:308|224:264,1,141.6
224,100,129478,2,0,L|226:170,1,70.8
124,244,129739,6,0,B|28:236|28:236|48:196,1,141.6
32,68,130131,2,0,P|88:28|168:48,1,141.6
264,8,130522,2,0,L|256:96,1,70.8
304,164,130783,6,0,P|238:181|186:137,1,141.6
88,168,131174,2,0,B|32:196|32:196|64:284,1,141.6
160,312,131565,2,0,P|209:308|240:296,1,70.8
328,356,131826,6,0,P|236:328|304:168,1,318.5999902771
304,264,132739,1,0,0:0:0:0:
392,252,132870,2,0,B|456:248|456:248|420:96,2,212.4
316,104,133783,1,0,0:0:0:0:
316,104,133913,2,0,P|201:55|169:202,1,283.2
336,208,134696,1,0,0:0:0:0:
336,208,134826,1,0,0:0:0:0:
270,359,134957,6,0,B|328:352|328:352|334:304,1,106.199996759033
180,268,135478,1,0,0:0:0:0:
272,64,135739,1,0,0:0:0:0:
272,64,135870,2,0,B|254:76|225:105|225:105|215:97|200:93|200:93|198:59|195:28|195:28|188:53|186:99|186:99|156:117|153:144|175:168|196:172|222:170|234:158|236:140|227:125,1,371.699988656617
144,264,136913,1,0,0:0:0:0:
144,264,137044,6,0,P|192:276|256:260,1,106.199996759033
352,328,137565,1,0,0:0:0:0:
384,112,137826,1,0,0:0:0:0:
384,112,137957,2,0,B|399:126|424:159|424:159|435:153|450:151|450:151|457:118|465:88|465:88|468:114|463:160|463:160|490:182|489:209|463:229|442:230|416:224|406:210|407:192|418:179,1,371.699988656617
240,336,139131,6,0,B|172:332|76:340|76:340,1,136.289997296494
88,216,139522,2,0,P|83:145|88:72,1,136.289997296494
184,72,139913,2,0,L|272:60,1,68.1449986482468
252,212,140174,6,0,L|164:200,1,68.1449986482468
64,192,140435,2,0,P|58:228|60:260,1,68.1449986482468
160,384,140696,2,0,P|164:340|172:304,1,68.1449986482468
292,316,140957,2,0,P|352:296|364:236,1,119.253747634432
344,160,141218,6,0,B|376:92|376:92|508:144,2,204.43499594474
276,232,142131,1,0,0:0:0:0:
184,176,142261,2,0,P|172:188|188:296,1,136.289997296494
288,336,142652,2,0,B|364:340|364:340|408:288,1,136.289997296494
408,192,143044,2,0,L|396:104,1,68.1449986482468
384,28,143305,6,0,L|196:24,1,159.29999513855
96,32,143696,1,0,0:0:0:0:
152,200,143826,1,0,0:0:0:0:
232,112,143957,1,0,0:0:0:0:
40,132,144087,2,0,P|44:181|60:232,1,79.649997569275
112,336,144348,6,0,P|204:332|228:268,1,159.29999513855
264,184,144739,1,0,0:0:0:0:
324,296,144870,1,0,0:0:0:0:
332,96,145000,1,0,0:0:0:0:
152,116,145131,2,0,P|156:165|172:216,1,79.649997569275
256,344,145392,6,0,L|428:328,1,159.29999513855
408,216,145783,1,0,0:0:0:0:
248,224,145913,1,0,0:0:0:0:
320,68,146044,1,0,0:0:0:0:
176,92,146174,2,0,P|174:48|184:0,1,79.649997569275
320,68,146435,6,0,B|393:96|499:47|499:47|438:126|438:126|485:118|485:118|432:163|432:163|457:171|457:171|434:199|386:207|331:191|311:166|324:123|359:114|395:133,1,637.1999805542
256,192,148522,12,0,149565,0:0:0:0:
120,260,149826,6,0,B|204:248|204:248|196:208,1,118
248,60,150087,6,0,B|164:72|164:72|172:112,1,118
48,60,150348,2,0,B|44:136|44:136|88:156,1,118
280,160,150609,6,0,P|348:140|440:136,1,118
476,180,150870,1,0,0:0:0:0:
364,280,151044,1,0,0:0:0:0:
364,280,151131,2,0,B|352:360|352:360|292:328,1,118
244,296,151392,1,0,0:0:0:0:
132,360,151565,6,0,P|80:280|148:216,1,177
140,220,151913,1,0,0:0:0:0:
244,88,152087,2,0,B|244:124|232:178|232:178|272:168|272:168|332:176,1,177
352,380,152435,6,0,P|368:316|346:263,1,118
228,332,152696,2,0,B|156:352|156:352|140:320|144:228,1,177
74,113,153130,1,0,0:0:0:0:
74,113,153217,2,0,B|156:100|156:100|167:134,1,118
172,156,153478,1,0,0:0:0:0:
185,290,153652,6,0,P|241:318|321:210,1,177
352,144,154000,2,0,B|344:32|344:32|284:92,1,177
100,148,154435,1,0,0:0:0:0:
100,148,154522,2,0,L|244:164,1,118
298,77,154782,5,0,0:0:0:0:
298,77,154956,2,0,L|306:141,1,59
324,256,155217,2,0,P|280:328|188:268,1,177
108,248,155565,1,0,0:0:0:0:
106,222,155652,1,0,0:0:0:0:
104,197,155739,1,0,0:0:0:0:
88,120,155826,5,0,0:0:0:0:
88,120,156000,2,0,P|128:124|160:128,1,59
368,156,156261,2,0,P|360:120|252:136,1,177
216,224,156609,1,0,0:0:0:0:
216,224,156696,2,0,L|224:296,1,59
308,328,156869,6,0,P|404:304|488:296,1,177
424,100,157305,1,0,0:0:0:0:
424,100,157392,2,0,L|228:136,1,177
