osu file format v14

[General]
AudioFilename: Marchen Debut.mp3
AudioLeadIn: 27
PreviewTime: 24195
Countdown: 0
SampleSet: Normal
StackLeniency: 0.7
Mode: 0
LetterboxInBreaks: 0
WidescreenStoryboard: 1

[Editor]
Bookmarks: 15371,17432,61736,116079
DistanceSpacing: 2.7
BeatDivisor: 4
GridSize: 4
TimelineZoom: 1.6

[Metadata]
Title:Marchen Debut!
TitleUnicode:メルヘンデビュー!
Artist:Abe Nana(CV : Miyake Marie)
ArtistUnicode:安部菜々(CV:三宅麻理恵)
Creator:-Chata-
Version:PRO
Source:アイドルマスター シンデレラガールズ
Tags:THE IDOLM@STER CINDERELLA GIRLS STARLIGHT STAGE im@s IOSYS ウサミン usamin
BeatmapID:1029762
BeatmapSetID:478558

[Difficulty]
HPDrainRate:5.7
CircleSize:3.7
OverallDifficulty:6.7
ApproachRate:7.7
SliderMultiplier:1.57
SliderTickRate:1

[Events]
//Background and Video events
0,0,"puripruiusamin.jpg",0,0
Video,0,"Marchen Debut!.avi"
//Break Periods
2,67983,69988
//Storyboard Layer 0 (Background)
//Storyboard Layer 1 (Fail)
//Storyboard Layer 2 (Pass)
//Storyboard Layer 3 (Foreground)
//Storyboard Sound Samples

[TimingPoints]
1607,352.941176470588,4,2,2,5,1,0
11136,-78.7401574803149,4,2,2,67,0,0
12195,-129.87012987013,4,2,8,57,0,0
12548,-129.87012987013,4,2,9,47,0,0
12901,-129.87012987013,4,2,5,77,0,0
13254,-129.87012987013,4,2,3,77,0,0
14048,-129.87012987013,4,2,2,77,0,0
14312,-129.87012987013,4,2,3,77,0,0
17136,-85.4700854700855,4,2,3,77,0,0
18548,-129.87012987013,4,2,3,77,0,0
21371,-129.87012987013,4,2,2,77,0,0
22783,-129.87012987013,4,2,8,77,0,0
23489,-72.992700729927,4,2,9,67,0,0
23842,-56.4971751412429,4,2,4,87,0,0
24195,-93.4579439252336,4,2,5,87,0,1
24283,-93.4579439252336,4,2,3,87,0,1
24548,-93.4579439252336,4,2,11,87,0,1
24636,-93.4579439252336,4,2,3,87,0,1
25254,-93.4579439252336,4,2,11,87,0,1
25342,-93.4579439252336,4,2,3,87,0,1
25959,-93.4579439252336,4,2,11,87,0,1
26048,-93.4579439252336,4,2,3,87,0,1
26312,-93.4579439252336,4,2,3,87,0,1
26665,-93.4579439252336,4,2,11,87,0,1
26754,-93.4579439252336,4,2,3,87,0,1
27018,-93.4579439252336,4,2,3,87,0,1
27371,-93.4579439252336,4,2,11,87,0,1
27459,-93.4579439252336,4,2,3,87,0,1
28077,-93.4579439252336,4,2,11,87,0,1
28165,-93.4579439252336,4,2,3,87,0,1
28783,-93.4579439252336,4,2,11,87,0,1
28871,-93.4579439252336,4,2,3,87,0,1
29136,-93.4579439252336,4,2,3,87,0,1
29489,-93.4579439252336,4,2,11,87,0,1
29577,-93.4579439252336,4,2,3,87,0,1
29842,-93.4579439252336,4,2,5,87,0,1
30195,-93.4579439252336,4,2,11,87,0,1
30283,-93.4579439252336,4,2,3,87,0,1
30901,-93.4579439252336,4,2,11,87,0,1
30989,-93.4579439252336,4,2,3,87,0,1
31606,-93.4579439252336,4,2,11,87,0,1
31695,-93.4579439252336,4,2,3,87,0,1
32312,-93.4579439252336,4,2,11,87,0,1
32401,-93.4579439252336,4,2,3,87,0,1
33018,-93.4579439252336,4,2,11,87,0,1
33106,-93.4579439252336,4,2,3,87,0,1
33724,-93.4579439252336,4,2,11,87,0,1
33812,-93.4579439252336,4,2,3,87,0,1
34254,-93.4579439252336,4,2,9,87,0,1
34606,-93.4579439252336,4,2,11,87,0,1
34783,-93.4579439252336,4,2,2,87,0,1
35136,-93.4579439252336,4,2,4,87,0,1
35224,-93.4579439252336,4,2,3,87,0,1
35489,-93.4579439252336,4,2,5,67,0,0
35577,-93.4579439252336,4,2,6,67,0,0
40783,-93.4579439252336,4,2,2,67,0,0
41136,-93.4579439252336,4,2,6,67,0,0
44665,-93.4579439252336,4,2,6,77,0,0
46430,-72.992700729927,4,2,4,77,0,0
46783,-85.4700854700855,4,2,2,77,0,0
46871,-85.4700854700855,4,2,7,77,0,0
52077,-85.4700854700855,4,2,2,77,0,0
52430,-85.4700854700855,4,2,7,77,0,0
55959,-85.4700854700855,4,2,11,77,0,0
56048,-85.4700854700855,4,2,7,77,0,0
57724,-85.4700854700855,4,2,9,77,0,0
58077,-85.4700854700855,4,2,14,77,0,0
58165,-85.4700854700855,4,2,7,77,0,0
58783,-85.4700854700855,4,2,11,77,0,0
58871,-85.4700854700855,4,2,7,77,0,0
59136,-85.4700854700855,4,2,2,77,0,0
59489,-85.4700854700855,4,2,14,77,0,0
59577,-85.4700854700855,4,2,7,77,0,0
60195,-85.4700854700855,4,2,11,77,0,0
60283,-85.4700854700855,4,2,6,77,0,0
60548,-85.4700854700855,4,2,2,77,0,0
60901,-85.4700854700855,4,2,7,77,0,0
63371,-85.4700854700855,4,2,2,77,0,0
63724,-85.4700854700855,4,2,14,77,0,0
63812,-85.4700854700855,4,2,7,77,0,0
64430,-85.4700854700855,4,2,11,77,0,0
64518,-85.4700854700855,4,2,2,77,0,0
64783,-85.4700854700855,4,2,2,77,0,0
65136,-85.4700854700855,4,2,14,77,0,0
65224,-85.4700854700855,4,2,7,77,0,0
65842,-85.4700854700855,4,2,14,67,0,0
66018,-85.4700854700855,4,2,7,77,0,0
66195,-85.4700854700855,4,2,11,77,0,0
66371,-85.4700854700855,4,2,7,77,0,0
67254,-85.4700854700855,4,2,11,77,0,0
67342,-85.4700854700855,4,2,7,77,0,0
67606,-85.4700854700855,4,2,11,77,0,0
67695,-85.4700854700855,4,2,7,77,0,0
67783,-85.4700854700855,4,2,11,77,0,0
67871,-85.4700854700855,4,2,7,77,0,0
70783,-103.092783505155,4,2,2,77,0,0
75018,-103.092783505155,4,2,2,77,0,0
76077,-85.4700854700855,4,2,2,77,0,0
76430,-85.4700854700855,4,2,2,87,0,1
77136,-85.4700854700855,4,2,7,87,0,1
77224,-85.4700854700855,4,2,2,87,0,1
77842,-85.4700854700855,4,2,27,87,0,1
77930,-85.4700854700855,4,2,7,87,0,1
78371,-85.4700854700855,4,2,2,87,0,1
78459,-85.4700854700855,4,2,7,87,0,1
79254,-85.4700854700855,4,2,2,87,0,1
79959,-85.4700854700855,4,2,7,87,0,1
80048,-85.4700854700855,4,2,2,87,0,1
80665,-78.7401574803149,4,2,7,87,0,1
80842,-78.7401574803149,4,2,2,87,0,1
80930,-78.7401574803149,4,2,7,87,0,1
82077,-85.4700854700855,4,2,2,87,0,1
82783,-85.4700854700855,4,2,7,87,0,1
82871,-85.4700854700855,4,2,2,87,0,1
83842,-85.4700854700855,4,2,7,87,0,1
83930,-85.4700854700855,4,2,2,87,0,1
86312,-103.092783505155,4,2,27,57,0,1
86665,-114.942528735632,4,2,27,57,0,1
87018,-114.942528735632,4,2,27,67,0,1
87371,-85.4700854700855,4,2,2,87,0,1
87636,-85.4700854700855,4,2,2,87,0,0
87724,-85.4700854700855,4,2,2,87,0,1
88430,-85.4700854700855,4,2,7,87,0,1
88518,-85.4700854700855,4,2,2,87,0,1
89136,-85.4700854700855,4,2,27,87,0,1
89224,-85.4700854700855,4,2,7,87,0,1
90548,-85.4700854700855,4,2,2,87,0,1
91959,-85.4700854700855,4,2,27,87,0,1
92312,-85.4700854700855,4,2,7,87,0,1
93371,-85.4700854700855,4,2,2,87,0,1
94077,-85.4700854700855,4,2,7,87,0,1
94165,-85.4700854700855,4,2,2,87,0,1
94783,-103.092783505155,4,2,7,87,0,1
94871,-103.092783505155,4,2,2,87,0,1
95489,-103.092783505155,4,2,7,87,0,1
95577,-103.092783505155,4,2,2,87,0,1
96195,-103.092783505155,4,2,2,77,0,0
99018,-93.4579439252336,4,2,2,77,0,0
107136,-93.4579439252336,4,2,4,87,0,0
107489,-85.4700854700855,4,2,5,87,0,1
107577,-85.4700854700855,4,2,3,87,0,1
107842,-85.4700854700855,4,2,11,87,0,1
107930,-85.4700854700855,4,2,3,87,0,1
108548,-85.4700854700855,4,2,11,87,0,1
108636,-85.4700854700855,4,2,3,87,0,1
109253,-85.4700854700855,4,2,11,87,0,1
109342,-85.4700854700855,4,2,3,87,0,1
109606,-72.992700729927,4,2,3,87,0,1
109959,-72.992700729927,4,2,11,87,0,1
110048,-72.992700729927,4,2,3,87,0,1
110312,-85.4700854700855,4,2,3,87,0,1
110665,-85.4700854700855,4,2,11,87,0,1
110753,-85.4700854700855,4,2,3,87,0,1
111371,-85.4700854700855,4,2,11,87,0,1
111459,-85.4700854700855,4,2,3,87,0,1
112077,-85.4700854700855,4,2,11,87,0,1
112165,-85.4700854700855,4,2,3,87,0,1
112430,-72.992700729927,4,2,3,87,0,1
112783,-72.992700729927,4,2,11,87,0,1
112871,-72.992700729927,4,2,3,87,0,1
113136,-85.4700854700855,4,2,5,87,0,1
113224,-85.4700854700855,4,2,3,87,0,1
113489,-85.4700854700855,4,2,11,87,0,1
113577,-85.4700854700855,4,2,3,87,0,1
114195,-85.4700854700855,4,2,11,87,0,1
114283,-85.4700854700855,4,2,3,87,0,1
114900,-85.4700854700855,4,2,11,87,0,1
114989,-85.4700854700855,4,2,3,87,0,1
115606,-85.4700854700855,4,2,11,87,0,1
115695,-85.4700854700855,4,2,3,87,0,1
116312,-85.4700854700855,4,2,11,87,0,1
116400,-85.4700854700855,4,2,3,87,0,1
117018,-85.4700854700855,4,2,11,87,0,1
117106,-85.4700854700855,4,2,3,87,0,1
117371,-85.4700854700855,4,2,2,87,0,1
117548,-85.4700854700855,4,2,9,87,0,1
117901,-85.4700854700855,4,2,11,87,0,1
118077,-85.4700854700855,4,2,2,87,0,1
118430,-85.4700854700855,4,2,4,87,0,1
118518,-85.4700854700855,4,2,3,87,0,1
118783,-93.4579439252336,4,2,2,77,0,0
120371,-93.4579439252336,4,2,2,87,0,0
120901,-93.4579439252336,4,1,27,87,0,0

[Colours]
Combo1 : 254,231,232
Combo2 : 255,157,157
Combo3 : 232,11,16

[HitObjects]
256,192,5842,12,0,10077,0:0:0:0:
172,168,11489,6,0,P|180:216|196:268,1,99.6949992393875,8|0,0:0|0:0,0:0:0:0:
268,332,11842,2,0,P|304:308|400:304,1,99.6949992393875,4|0,0:0|0:0,0:0:0:0:
424,224,12195,2,0,L|420:168,3,30.2224994004936
416,108,12548,5,0,0:0:0:0:
416,108,12724,1,0,0:0:0:0:
408,24,12901,5,12,0:0:0:0:
32,156,15371,6,0,P|64:146|92:144,1,60.4449988009873,6|8,0:0|0:0,0:0:0:0:
168,96,15724,6,0,L|184:228,1,120.889997601975,8|4,0:0|0:0,0:0:0:0:
272,216,16253,1,8,0:0:0:0:
240,300,16430,2,0,B|180:340|180:340|120:292,1,120.889997601975,2|12,0:0|0:0,0:0:0:0:
104,220,16959,1,2,0:0:0:0:
168,132,17136,6,0,P|216:124|259:125,1,91.8450003503609,2|8,0:0|0:0,0:0:0:0:
388,96,17489,1,6,0:0:0:0:
376,188,17665,1,8,0:0:0:0:
360,280,17842,2,0,B|268:268|268:268|160:324,1,183.690000700722,2|12,0:0|0:0,0:0:0:0:
104,220,18371,1,6,0:0:0:0:
104,220,18548,6,0,L|108:96,1,120.889997601975,8|4,0:0|0:0,0:0:0:0:
192,68,19077,1,2,0:0:0:0:
268,120,19254,2,0,L|256:208,1,60.4449988009873,8|0,0:0|0:0,0:0:0:0:
292,272,19606,1,4,0:0:0:0:
372,316,19783,1,2,0:0:0:0:
440,256,19959,6,0,L|432:128,1,120.889997601975,8|12,0:0|0:0,0:0:0:0:
340,164,20489,2,0,B|280:168|280:168|200:140,1,120.889997601975,2|0,0:0|0:0,0:0:0:0:
128,112,21018,1,4,0:0:0:0:
132,204,21195,1,2,0:0:0:0:
140,296,21371,6,0,L|228:300,1,60.4449988009873,8|8,0:0|0:0,0:0:0:0:
488,268,22077,2,0,L|400:272,1,60.4449988009873,8|8,0:0|0:0,0:0:0:0:
244,200,22783,2,0,P|212:198|177:191,1,60.4449988009873
104,124,23136,1,0,0:0:0:0:
112,264,23489,2,0,L|120:336,3,53.772501517931
216,360,23842,5,12,0:0:0:0:
216,360,24018,1,0,0:0:0:0:
216,360,24195,6,0,L|320:364,1,83.9949974366761,6|2,0:0|0:0,0:0:0:0:
384,292,24548,1,0,0:0:0:0:
392,184,24724,1,8,0:0:0:0:
392,184,24812,1,8,0:0:0:0:
392,184,24901,2,0,L|376:80,2,83.9949974366761,2|2|0,0:0|0:0|0:0,0:0:0:0:
312,244,25430,1,8,0:0:0:0:
244,172,25606,6,0,P|196:252|248:312,1,167.989994873352,2|0,0:0|0:0,0:0:0:0:
124,328,26136,1,8,0:0:0:0:
56,244,26312,1,10,0:0:0:0:
60,208,26401,1,8,0:0:0:0:
64,172,26489,1,10,0:0:0:0:
68,136,26577,1,8,0:0:0:0:
76,100,26665,2,0,P|124:96|160:84,1,83.9949974366761,0|8,0:0|0:0,0:0:0:0:
232,12,27018,6,0,P|284:15|324:24,1,83.9949974366761,2|2,0:0|0:0,0:0:0:0:
408,56,27371,1,0,0:0:0:0:
384,156,27548,1,8,0:0:0:0:
380,172,27636,1,8,0:0:0:0:
376,188,27724,2,0,L|376:276,2,83.9949974366761,2|2|0,0:0|0:0|0:0,0:0:0:0:
272,256,28254,1,8,0:0:0:0:
160,236,28430,6,0,P|120:232|64:220,1,83.9949974366761,2|2,0:0|0:0,0:0:0:0:
56,112,28783,2,0,P|108:104|148:104,1,83.9949974366761,0|2,0:0|0:0,0:0:0:0:
296,36,29136,1,10,0:0:0:0:
304,72,29224,1,8,0:0:0:0:
312,108,29312,1,10,0:0:0:0:
316,144,29401,1,8,0:0:0:0:
320,180,29489,2,0,L|316:288,1,83.9949974366761,0|8,0:0|0:0,0:0:0:0:
248,304,29754,1,8,0:0:0:0:
232,316,29842,6,0,P|188:328|120:304,1,83.9949974366761,6|2,0:0|0:0,0:0:0:0:
60,244,30195,2,0,L|72:128,1,83.9949974366761,0|8,0:0|0:0,0:0:0:0:
72,144,30459,1,8,0:0:0:0:
76,128,30548,2,0,B|112:112|112:112|172:116,1,83.9949974366761,2|2,0:0|0:0,0:0:0:0:
252,60,30901,2,0,L|240:176,1,83.9949974366761,0|8,0:0|0:0,0:0:0:0:
340,192,31254,6,0,P|404:144|504:172,1,167.989994873352,2|0,0:0|0:0,0:0:0:0:
492,268,31783,1,2,0:0:0:0:
412,340,31959,2,0,B|360:384|360:384|244:340,1,167.989994873352,8|0,0:0|0:0,0:0:0:0:
220,248,32489,1,2,0:0:0:0:
220,248,32577,1,2,0:0:0:0:
220,248,32665,6,0,L|216:144,1,83.9949974366761,2|0,0:0|0:0,0:0:0:0:
324,124,33018,2,0,L|328:32,1,83.9949974366761,0|0,0:0|0:0,0:0:0:0:
220,44,33371,2,0,P|112:48|100:124,1,167.989994873352,2|0,0:0|0:0,0:0:0:0:
64,196,33901,1,8,0:0:0:0:
64,196,33989,1,8,0:0:0:0:
64,196,34077,6,0,P|80:240|88:276,1,83.9949974366761,8|6,0:0|0:2,0:0:0:0:
288,376,34606,1,2,0:0:0:0:
288,376,34783,2,0,B|224:348|224:348|128:384,1,167.989994873352,8|4,0:0|0:0,0:0:0:0:
220,176,35489,5,12,0:0:0:0:
304,136,35665,1,2,0:0:0:0:
392,108,35842,2,0,P|396:156|396:212,1,83.9949974366761,12|10,0:0|0:0,0:0:0:0:
392,316,36195,2,0,L|304:292,1,83.9949974366761,2|0,0:0|0:0,0:0:0:0:
224,336,36548,2,0,L|132:312,1,83.9949974366761,14|2,0:0|0:0,0:0:0:0:
56,212,36901,5,10,0:0:0:0:
68,112,37077,1,10,0:0:0:0:
160,156,37254,2,0,P|208:140|268:132,1,83.9949974366761,12|10,0:0|0:0,0:0:0:0:
344,64,37606,2,0,L|352:160,1,83.9949974366761,10|0,0:0|0:0,0:0:0:0:
428,216,37959,2,0,L|436:312,1,83.9949974366761,14|2,0:0|0:0,0:0:0:0:
424,304,38224,1,0,0:0:0:0:
412,308,38312,5,10,0:0:0:0:
324,328,38489,1,10,0:0:0:0:
236,344,38665,1,14,0:0:0:0:
240,244,38842,5,2,0:0:0:0:
240,244,38930,1,2,0:0:0:0:
240,244,39018,1,10,0:0:0:0:
228,156,39195,1,10,0:0:0:0:
220,68,39371,1,12,0:0:0:0:
136,120,39548,5,0,0:0:0:0:
136,120,39636,1,2,0:0:0:0:
136,120,39724,2,0,L|128:208,1,83.9949974366761,10|0,0:0|0:0,0:0:0:0:
96,308,40077,2,0,L|192:312,1,83.9949974366761,14|2,0:0|0:0,0:0:0:0:
292,348,40430,1,8,0:0:0:0:
312,256,40606,1,0,0:3:0:0:
328,164,40783,6,0,P|327:119|324:80,1,83.9949974366761,4|0,0:0|0:0,0:0:0:0:
172,80,41136,5,10,0:0:0:0:
100,140,41312,1,0,0:0:0:0:
100,140,41401,1,2,0:0:0:0:
100,140,41489,2,0,P|109:192|116:232,1,83.9949974366761,14|10,0:0|0:0,0:0:0:0:
148,308,41842,2,0,P|232:276|312:308,1,167.989994873352,2|14,0:0|0:0,0:0:0:0:
404,356,42371,1,0,0:0:0:0:
404,356,42459,1,2,0:0:0:0:
404,356,42548,6,0,L|408:256,1,83.9949974366761,2|0,0:0|0:0,0:0:0:0:
408,180,42901,1,14,0:0:0:0:
404,88,43077,1,10,0:0:0:0:
312,92,43254,2,0,P|260:92|196:100,1,83.9949974366761,2|0,0:0|0:0,0:0:0:0:
140,72,43606,2,0,P|123:116|116:152,1,83.9949974366761,14|10,0:0|0:0,0:0:0:0:
112,244,43959,1,6,0:0:0:0:
116,336,44136,6,0,P|196:318|292:328,1,167.989994873352,10|0,0:0|0:0,0:0:0:0:
384,360,44665,2,0,L|400:172,1,167.989994873352,14|8,0:0|0:0,0:0:0:0:
200,56,45371,6,0,L|136:48,3,41.9974987183381,14|0|0|0,0:0|0:0|0:0|0:0,0:0:0:0:
264,120,45724,2,0,L|305:125,3,41.9974987183381,6|0|2|0,0:0|0:0|0:0|0:0,0:0:0:0:
196,184,46077,2,0,L|132:176,3,41.9974987183381,14|0|0|0,0:0|0:0|0:0|0:0,0:0:0:0:
72,200,46430,6,0,P|48:264|140:240,1,161.317504553793,4|0,0:0|0:0,0:0:0:0:
148,364,46783,6,0,P|192:342|240:328,1,91.8450003503609,4|0,0:0|0:0,0:0:0:0:
344,336,47136,2,0,L|336:204,1,91.8450003503609,4|2,0:0|0:0,0:0:0:0:
364,112,47489,2,0,B|296:72|296:72|204:92,1,137.767500525541,8|0,0:0|0:0,0:0:0:0:
160,140,47842,2,0,B|112:208|112:208|180:228,1,137.767500525541,4|0,0:0|0:0,0:0:0:0:
252,300,48195,6,0,L|268:204,1,91.8450003503609,8|0,0:0|0:0,0:0:0:0:
348,128,48548,2,0,P|395:119|452:112,1,91.8450003503609,4|2,0:0|0:0,0:0:0:0:
456,264,48901,2,0,P|412:258|365:250,1,91.8450003503609,8|0,0:0|0:0,0:0:0:0:
252,248,49254,2,0,L|267:338,1,91.8450003503609,4|2,0:0|0:0,0:0:0:0:
136,344,49606,5,8,0:0:0:0:
108,256,49783,1,0,0:0:0:0:
88,168,49959,2,0,P|92:120|100:56,1,91.8450003503609,4|2,0:0|0:0,0:0:0:0:
184,44,50312,1,8,0:0:0:0:
256,100,50489,1,0,0:0:0:0:
344,76,50665,2,0,L|352:188,1,91.8450003503609,4|2,0:0|0:0,0:0:0:0:
436,268,51018,5,8,0:0:0:0:
436,268,51195,1,0,0:0:0:0:
348,316,51371,2,0,P|304:320|256:304,1,91.8450003503609,4|2,0:0|0:0,0:0:0:0:
172,360,51724,2,0,P|116:340|12:392,1,137.767500525541,8|0,0:0|0:0,0:0:0:0:
52,256,52077,6,0,L|84:96,1,137.767500525541,4|0,0:0|0:0,0:0:0:0:
52,32,52430,6,0,P|108:23|164:31,1,91.8450003503609,8|0,0:0|0:0,0:0:0:0:
228,96,52783,1,4,0:0:0:0:
328,56,52959,1,2,0:0:0:0:
328,56,53048,1,0,0:0:0:0:
328,56,53136,2,0,B|316:120|316:120|340:156|340:156|312:240,1,183.690000700722,8|4,0:0|0:0,0:0:0:0:
316,227,53665,1,2,0:0:0:0:
216,180,53842,5,8,0:0:0:0:
216,180,54018,1,8,0:0:0:0:
116,136,54195,1,4,0:0:0:0:
116,136,54371,1,2,0:0:0:0:
196,48,54548,6,0,L|244:36,3,45.9225001751804,8|8|8|8,0:0|0:0|0:0|0:0,0:0:0:0:
284,64,54901,2,0,L|360:44,2,45.9225001751804,4|4|6,0:0|0:0|0:0,0:0:0:0:
312,184,55254,6,0,B|364:196|408:188|408:188|364:272|348:372|348:372,1,275.535001051083,0|0,0:0|0:0,0:0:0:0:
212,284,55959,2,0,B|224:272|244:272|244:272|232:336|184:356|184:356|144:320|156:256|156:256|172:264|184:284,1,275.535001051083,0|0,0:0|0:0,0:0:0:0:
128,156,56665,5,4,0:0:0:0:
128,156,56842,1,0,0:0:0:0:
244,188,57018,1,4,0:0:0:0:
244,188,57195,1,0,0:0:0:0:
264,72,57371,1,4,0:0:0:0:
264,72,57548,1,0,0:0:0:0:
340,160,57724,6,0,L|396:156,3,45.9225001751804,2|0|0|0,0:0|0:0|0:0|0:0,0:0:0:0:
264,244,58077,6,0,P|226:246|164:236,1,91.8450003503609,4|0,0:0|0:0,0:0:0:0:
96,152,58430,1,4,0:0:0:0:
76,264,58606,1,2,0:0:0:0:
76,264,58783,2,0,P|148:344|212:328,1,183.690000700722,0|12,0:0|0:0,0:0:0:0:
304,368,59312,1,0,0:0:0:0:
380,300,59489,6,0,P|379:249|376:188,1,91.8450003503609,4|0,0:0|0:0,0:0:0:0:
360,108,59842,1,4,0:0:0:0:
260,124,60018,1,2,0:0:0:0:
260,124,60195,2,0,B|200:192|200:192|136:120,1,183.690000700722,0|12,0:0|0:0,0:0:0:0:
72,200,60724,1,0,0:0:0:0:
88,300,60901,6,0,P|143:297|184:304,1,91.8450003503609,8|2,0:0|0:0,0:0:0:0:
256,368,61254,2,0,P|324:360|360:344,1,91.8450003503609,4|2,0:0|0:0,0:0:0:0:
396,264,61606,2,0,P|392:223|392:160,1,91.8450003503609,8|2,0:0|0:0,0:0:0:0:
428,77,61959,2,0,P|384:83|331:86,1,91.8450003503609,4|2,0:0|0:0,0:0:0:0:
242,122,62312,6,0,P|270:163|294:205,1,91.8450003503609,10|2,0:0|0:0,0:0:0:0:
313,298,62665,1,6,0:0:0:0:
313,298,62842,1,2,0:0:0:0:
213,280,63018,2,0,P|175:274|112:274,1,91.8450003503609,8|2,0:0|0:0,0:0:0:0:
41,210,63371,6,0,P|12:137|109:75,1,183.690000700722,4|4,0:0|0:0,0:0:0:0:
177,103,63901,5,0,0:0:0:0:
264,53,64077,2,0,P|287:89|304:136,1,91.8450003503609,4|2,0:0|0:0,0:0:0:0:
277,232,64430,2,0,L|380:223,1,91.8450003503609,0|0,0:0|0:0,0:0:0:0:
466,251,64783,6,0,P|504:273|414:338,1,183.690000700722,12|4,0:0|0:0,0:0:0:0:
346,335,65312,5,0,0:0:0:0:
248,363,65489,2,0,P|241:317|235:268,1,91.8450003503609,4|2,0:0|0:0,0:0:0:0:
152,213,65842,2,0,P|163:171|187:111,1,91.8450003503609,0|2,0:0|0:0,0:0:0:0:
189,24,66195,2,0,P|240:44|277:64,1,91.8450003503609,0|0,0:0|0:0,0:0:0:0:
365,102,66548,5,12,0:0:0:0:
365,102,66724,1,8,0:0:0:0:
322,193,66901,1,0,0:0:0:0:
322,193,67077,1,8,0:0:0:0:
228,154,67254,5,0,0:0:0:0:
208,264,67430,1,8,0:0:0:0:
76,244,67606,1,0,0:0:0:0:
96,352,67783,1,2,0:0:0:0:
125,323,70783,6,0,P|251:289|355:309,1,228.435005402744,8|8,0:0|0:0,0:0:0:0:
486,247,71665,2,0,P|486:163|445:105,1,152.29000360183,8|0,0:0|0:0,0:0:0:0:
355,125,72195,6,0,B|279:124|239:168|239:168|215:115|135:98,1,228.435005402744,8|8,0:0|0:0,0:0:0:0:
45,201,73077,2,0,L|64:300,1,76.1450018009148,8|0,0:0|0:0,0:0:0:0:
170,351,73606,6,0,L|322:360,1,152.29000360183,8|8,0:0|0:0,0:0:0:0:
497,221,74312,2,0,L|345:212,1,152.29000360183,8|8,0:0|0:0,0:0:0:0:
192,216,75018,5,8,0:0:0:0:
208,124,75195,1,8,0:0:0:0:
220,32,75371,1,8,0:0:0:0:
98,83,75548,2,0,B|63:132|63:132|89:251,1,152.29000360183,4|8,0:0|0:0,0:0:0:0:
144,317,76077,2,0,P|206:291|285:307,1,137.767500525541,8|0,0:0|0:0,0:0:0:0:
313,319,76430,6,0,P|324:271|341:210,1,91.8450003503609,4|0,0:0|0:0,0:0:0:0:
408,160,76783,1,8,0:0:0:0:
352,76,76959,1,0,0:0:0:0:
352,76,77048,1,0,0:0:0:0:
352,76,77136,2,0,P|303:68|244:70,1,91.8450003503609,8|2,1:2|0:0,0:0:0:0:
152,60,77489,2,0,P|166:105|172:156,1,91.8450003503609,8|8,0:0|0:0,0:0:0:0:
296,224,77842,6,0,L|244:328,1,91.8450003503609,4|0,0:0|0:0,0:0:0:0:
128,344,78195,2,0,P|136:280|132:240,1,91.8450003503609,8|8,1:2|0:0,0:0:0:0:
84,144,78548,2,0,L|184:132,1,91.8450003503609,0|2,1:0|0:0,0:0:0:0:
336,268,78901,2,0,L|244:257,1,91.8450003503609,8|0,1:2|0:0,0:0:0:0:
296,128,79254,5,4,0:0:0:0:
296,128,79430,1,2,0:0:0:0:
380,180,79606,2,0,L|484:168,1,91.8450003503609,8|0,0:0|0:0,0:0:0:0:
432,272,79959,2,0,P|416:360|316:352,1,183.690000700722,8|8,1:2|0:0,0:0:0:0:
236,320,80489,1,8,0:0:0:0:
228,328,80577,1,0,0:0:0:0:
220,336,80665,6,0,L|156:332,3,49.8474996196938,4|0|8|0,0:0|0:0|0:0|0:0,0:0:0:0:
152,284,81018,2,0,L|88:280,3,49.8474996196938,8|0|0|0,1:2|0:0|0:0|0:0,0:0:0:0:
92,180,81371,6,0,L|84:108,3,49.8474996196938,0|0|2|0,1:0|0:0|0:0|0:0,0:0:0:0:
172,104,81724,2,0,L|177:54,3,49.8474996196938,8|0|4|0,1:2|0:0|0:0|0:0,0:0:0:0:
240,180,82077,6,0,L|344:168,1,91.8450003503609,4|0,0:0|0:0,0:0:0:0:
432,220,82430,2,0,B|420:272|420:272|320:292,1,137.767500525541,8|0,0:0|0:0,0:0:0:0:
272,360,82783,2,0,B|244:328|244:328|180:316,1,91.8450003503609,8|0,0:0|0:0,0:0:0:0:
76,352,83136,6,0,L|88:200,1,137.767500525541,8|0,0:0|0:0,0:0:0:0:
24,120,83489,2,0,P|80:100|172:124,1,137.767500525541,10|0,0:0|0:0,0:0:0:0:
260,72,83842,2,0,B|258:50|290:38|290:38|306:62|282:130,1,137.767500525541,8|0,1:2|0:0,0:0:0:0:
228,212,84195,2,0,L|380:208,1,137.767500525541
416,208,84548,1,8,0:0:0:0:
424,360,84901,6,0,L|328:344,1,91.8450003503609,8|8,0:0|0:0,0:0:0:0:
232,328,85254,2,0,L|136:312,1,91.8450003503609,8|8,0:0|0:0,0:0:0:0:
168,196,85606,1,8,0:0:0:0:
168,196,85783,1,8,0:0:0:0:
276,176,85959,2,0,L|366:160,1,91.8450003503609,8|8,0:0|0:0,0:0:0:0:
440,80,86312,6,0,B|472:144|472:144|452:236,2,152.29000360183,2|4|8,0:0|0:0|0:0,0:0:0:0:
344,72,87195,1,0,0:0:0:0:
344,72,87371,2,0,L|296:64,3,45.9225001751804,8|0|2|0,0:0|0:0|0:0|0:0,0:0:0:0:
296,152,87724,6,0,L|304:248,1,91.8450003503609,4|0,0:0|0:0,0:0:0:0:
324,360,88077,1,8,0:0:0:0:
228,316,88254,1,0,0:0:0:0:
228,316,88342,1,0,0:0:0:0:
228,316,88430,2,0,B|164:304|164:304|116:324|116:324|36:296,1,183.690000700722,8|8,1:2|0:0,0:0:0:0:
44,200,88959,1,2,0:0:0:0:
92,112,89136,6,0,P|149:108|196:100,1,91.8450003503609,4|2,0:0|0:0,0:0:0:0:
280,32,89489,2,0,P|288:108|280:148,1,91.8450003503609,8|8,1:2|0:0,0:0:0:0:
272,240,89842,2,0,P|224:212|172:208,1,91.8450003503609,0|0,1:1|0:0,0:0:0:0:
104,292,90195,2,0,P|152:320|204:324,1,91.8450003503609,8|2,1:2|0:0,0:0:0:0:
320,348,90548,6,0,P|384:356|368:256,1,183.690000700722,4|8,0:0|0:0,0:0:0:0:
348,168,91077,1,0,0:0:0:0:
248,184,91254,2,0,P|203:196|158:203,1,91.8450003503609,0|0,0:0|0:0,0:0:0:0:
128,300,91606,2,0,P|172:312|236:300,1,91.8450003503609,8|2,0:0|0:0,0:0:0:0:
352,276,91959,6,0,B|400:240|396:180|380:152|380:152|324:152,1,183.690000700722,4|0,0:0|1:0,0:0:0:0:
272,72,92489,1,0,0:0:0:0:
172,136,92665,1,0,1:0:0:0:
172,136,92842,1,0,1:0:0:0:
72,112,93018,1,8,1:2:0:0:
72,112,93195,1,2,0:0:0:0:
84,256,93371,6,0,P|144:288|224:216,1,183.690000700722,6|8,0:0|0:0,0:0:0:0:
236,120,93901,1,2,0:0:0:0:
320,176,94077,2,0,L|420:184,1,91.8450003503609,8|0,0:0|0:0,0:0:0:0:
400,284,94430,2,0,L|308:291,1,91.8450003503609,8|2,0:0|0:0,0:0:0:0:
188,320,94783,6,0,P|168:256|200:156,2,152.29000360183,4|8|0,0:0|0:0|0:0,0:0:0:0:
372,308,95842,1,8,0:0:0:0:
320,116,96195,5,8,0:0:0:0:
320,116,96371,1,2,0:0:0:0:
156,228,96901,2,0,P|125:238|81:242,1,76.1450018009148,0|2,0:0|0:0,0:0:0:0:
20,160,97254,2,0,P|64:144|112:140,1,76.1450018009148,0|0,0:0|0:0,0:0:0:0:
196,44,97606,6,0,B|236:4|308:8|336:52|340:96|328:132|308:152|280:164|244:176|244:176|260:204|256:272,1,380.725009004574,2|0,0:0|0:0,0:0:0:0:
256,348,98665,1,8,0:0:0:0:
452,224,99018,5,12,0:0:0:0:
452,224,99195,1,8,0:0:0:0:
436,324,99371,2,0,P|400:332|336:336,1,83.9949974366761,8|8,0:0|0:0,0:0:0:0:
256,372,99724,2,0,L|248:276,1,83.9949974366761,8|8,0:0|0:0,0:0:0:0:
248,188,100077,1,8,0:0:0:0:
248,188,100254,1,8,0:0:0:0:
168,124,100430,6,0,P|120:168|164:248,1,167.989994873352,12|2,0:0|0:0,0:0:0:0:
256,292,100959,1,0,0:0:0:0:
256,292,101136,2,0,L|300:280,5,41.9974987183381,2|2|2|2|2|2,0:0|0:0|0:0|0:0|0:0|0:0,0:0:0:0:
348,332,101665,6,0,L|364:156,1,167.989994873352,8|10,0:0|0:0,0:0:0:0:
264,204,102195,2,0,L|172:192,1,83.9949974366761,8|0,0:0|0:0,0:0:0:0:
112,120,102548,2,0,P|72:123|24:144,2,83.9949974366761,8|8|2,0:0|0:0|0:0,0:0:0:0:
88,232,103077,6,0,B|96:284|92:320|92:320|140:324|180:356,1,167.989994873352,8|10,0:0|0:0,0:0:0:0:
268,356,103606,2,0,P|320:336|384:332,1,83.9949974366761,8|0,0:0|0:0,0:0:0:0:
448,352,103959,2,0,L|460:260,2,83.9949974366761,8|8|2,0:0|0:0|0:0,0:0:0:0:
368,236,104489,6,0,P|344:188|416:116,1,167.989994873352,10|8,0:0|0:0,0:0:0:0:
512,144,105018,1,8,0:0:0:0:
512,144,105195,1,0,0:0:0:0:
488,48,105371,2,0,P|446:33|400:16,1,83.9949974366761,8|8,0:0|0:0,0:0:0:0:
312,52,105724,1,8,0:0:0:0:
312,52,105901,1,0,0:0:0:0:
216,20,106077,6,0,L|228:196,2,167.989994873352,12|4|4,0:0|0:0|0:0,0:0:0:0:
52,132,107136,5,12,0:0:0:0:
52,132,107312,1,0,0:0:0:0:
52,132,107489,6,0,P|46:179|52:240,1,91.8450003503609,6|2,0:0|0:0,0:0:0:0:
112,312,107842,1,0,0:0:0:0:
216,280,108018,1,8,0:0:0:0:
216,280,108106,1,8,0:0:0:0:
216,280,108195,2,0,L|320:280,2,91.8450003503609,2|2|0,0:0|0:0|0:0,0:0:0:0:
152,192,108724,1,8,0:0:0:0:
204,96,108901,6,0,P|288:60|328:160,1,183.690000700722,2|0,0:0|0:0,0:0:0:0:
368,228,109430,1,2,0:0:0:0:
288,328,109606,1,10,0:0:0:0:
240,324,109695,1,8,0:0:0:0:
192,320,109783,1,8,0:0:0:0:
144,316,109871,1,8,0:0:0:0:
100,336,109959,2,0,P|92:288|88:216,1,107.545003035862,0|10,0:0|0:0,0:0:0:0:
32,136,110312,6,0,L|140:104,1,91.8450003503609,2|2,0:0|0:0,0:0:0:0:
204,180,110665,1,0,0:0:0:0:
288,108,110842,1,8,0:0:0:0:
288,108,110930,1,8,0:0:0:0:
288,108,111018,2,0,L|272:4,2,91.8450003503609,2|2|0,0:0|0:0|0:0,0:0:0:0:
308,216,111548,1,8,0:0:0:0:
292,324,111724,6,0,P|244:304|176:296,1,91.8450003503609,2|2,0:0|0:0,0:0:0:0:
120,228,112077,2,0,P|183:192|216:180,1,91.8450003503609,0|2,0:0|0:0,0:0:0:0:
332,192,112430,1,8,0:0:0:0:
332,192,112518,1,8,0:0:0:0:
332,192,112606,1,8,0:0:0:0:
332,192,112695,1,8,0:0:0:0:
332,192,112783,2,0,L|316:68,1,107.545003035862,0|8,0:0|0:0,0:0:0:0:
228,68,113048,1,8,0:0:0:0:
208,80,113136,6,0,L|80:64,1,91.8450003503609,6|2,0:0|0:0,0:0:0:0:
56,156,113489,1,0,0:0:0:0:
92,264,113665,1,8,0:0:0:0:
92,264,113754,1,8,0:0:0:0:
92,264,113842,2,0,L|220:252,1,91.8450003503609,2|2,0:0|0:0,0:0:0:0:
272,320,114195,2,0,P|288:275|288:212,1,91.8450003503609,0|8,0:0|0:0,0:0:0:0:
216,136,114548,6,0,P|260:84|356:160,1,183.690000700722,2|0,0:0|0:0,0:0:0:0:
404,224,115077,1,8,0:0:0:0:
372,328,115254,2,0,B|292:368|292:368|188:320,1,183.690000700722,2|0,0:0|0:0,0:0:0:0:
116,256,115783,1,8,0:0:0:0:
116,256,115871,1,8,0:0:0:0:
116,256,115959,6,0,P|122:210|136:136,1,91.8450003503609,8|0,0:0|0:0,0:0:0:0:
236,128,116312,2,0,P|236:80|224:20,1,91.8450003503609,2|0,0:0|0:0,0:0:0:0:
120,20,116665,2,0,P|40:48|60:152,1,183.690000700722,8|0,0:0|0:0,0:0:0:0:
120,236,117195,1,2,0:0:0:0:
120,236,117283,1,0,0:0:0:0:
120,236,117371,6,0,P|192:212|260:308,1,183.690000700722,8|0,0:0|0:0,0:0:0:0:
288,384,117901,1,2,0:0:0:0:
288,384,118077,2,0,P|336:280|476:320,1,275.535001051083,8|8,0:0|0:0,0:0:0:0:
496,200,118783,6,0,L|496:120,4,41.9974987183381,2|0|0|0|2,0:0|0:0|0:0|0:0|0:0,0:0:0:0:
396,108,119312,2,0,L|352:92,4,41.9974987183381,2|0|0|0|2,0:0|0:0|0:0|0:0|0:0,0:0:0:0:
380,248,119842,1,2,0:0:0:0:
380,248,120018,1,2,0:0:0:0:
220,116,120371,5,8,0:0:0:0:
152,192,120548,1,8,0:0:0:0:
228,256,120724,1,8,0:0:0:0:
296,180,120901,5,4,0:0:0:0:
