osu file format v14

[General]
AudioFilename: Marchen Debut.mp3
AudioLeadIn: 27
PreviewTime: 24195
Countdown: 0
SampleSet: Soft
StackLeniency: 0.7
Mode: 0
LetterboxInBreaks: 0
WidescreenStoryboard: 1

[Editor]
Bookmarks: 15371,17432,61736,116079
DistanceSpacing: 2.7
BeatDivisor: 4
GridSize: 4
TimelineZoom: 3.899998

[Metadata]
Title:Marchen Debut!
TitleUnicode:メルヘンデビュー!
Artist:Abe Nana(CV : Miyake Marie)
ArtistUnicode:安部菜々(CV:三宅麻理恵)
Creator:-Chata-
Version:MASTER
Source:アイドルマスター シンデレラガールズ
Tags:THE IDOLM@STER CINDERELLA GIRLS STARLIGHT STAGE im@s IOSYS ウサミン usamin
BeatmapID:1022070
BeatmapSetID:478558

[Difficulty]
HPDrainRate:6.7
CircleSize:3.7
OverallDifficulty:7.7
ApproachRate:9
SliderMultiplier:1.77
SliderTickRate:1

[Events]
//Background and Video events
0,0,"puripruiusamin.jpg",0,0
Video,0,"Marchen Debut!.avi"
//Break Periods
2,67983,70183
//Storyboard Layer 0 (Background)
//Storyboard Layer 1 (Fail)
//Storyboard Layer 2 (Pass)
//Storyboard Layer 3 (Foreground)
//Storyboard Sound Samples

[TimingPoints]
1607,352.941176470588,4,2,2,5,1,0
11136,-78.7401574803149,4,2,2,67,0,0
11489,-129.87012987013,4,2,2,67,0,0
12195,-129.87012987013,4,2,8,57,0,0
12548,-129.87012987013,4,2,9,47,0,0
12901,-129.87012987013,4,2,5,77,0,0
13254,-129.87012987013,4,2,3,77,0,0
14048,-129.87012987013,4,2,2,77,0,0
14312,-129.87012987013,4,2,3,77,0,0
17136,-68.0272108843537,4,2,3,77,0,0
18548,-129.87012987013,4,2,3,77,0,0
21371,-129.87012987013,4,2,2,77,0,0
22783,-129.87012987013,4,2,8,77,0,0
23489,-72.992700729927,4,2,9,67,0,0
23842,-56.4971751412429,4,2,4,87,0,0
24195,-93.4579439252336,4,2,5,87,0,1
24283,-93.4579439252336,4,2,3,87,0,1
24548,-93.4579439252336,4,2,11,87,0,1
24636,-93.4579439252336,4,2,3,87,0,1
25254,-93.4579439252336,4,2,11,87,0,1
25342,-93.4579439252336,4,2,3,87,0,1
25959,-93.4579439252336,4,2,11,87,0,1
26048,-93.4579439252336,4,2,3,87,0,1
26312,-78.7401574803149,4,2,3,87,0,1
26665,-78.7401574803149,4,2,11,87,0,1
26754,-78.7401574803149,4,2,3,87,0,1
27018,-93.4579439252336,4,2,3,87,0,1
27371,-93.4579439252336,4,2,11,87,0,1
27459,-93.4579439252336,4,2,3,87,0,1
28077,-93.4579439252336,4,2,11,87,0,1
28165,-93.4579439252336,4,2,3,87,0,1
28783,-93.4579439252336,4,2,11,87,0,1
28871,-93.4579439252336,4,2,3,87,0,1
29136,-78.7401574803149,4,2,3,87,0,1
29489,-78.7401574803149,4,2,11,87,0,1
29577,-78.7401574803149,4,2,3,87,0,1
29842,-93.4579439252336,4,2,5,87,0,1
29930,-93.4579439252336,4,2,5,87,0,1
30195,-93.4579439252336,4,2,11,87,0,1
30283,-93.4579439252336,4,2,3,87,0,1
30901,-93.4579439252336,4,2,11,87,0,1
30989,-93.4579439252336,4,2,3,87,0,1
31606,-93.4579439252336,4,2,11,87,0,1
31695,-93.4579439252336,4,2,3,87,0,1
32312,-93.4579439252336,4,2,11,87,0,1
32401,-93.4579439252336,4,2,3,87,0,1
33018,-93.4579439252336,4,2,11,87,0,1
33106,-93.4579439252336,4,2,3,87,0,1
33724,-93.4579439252336,4,2,11,87,0,1
33812,-93.4579439252336,4,2,3,87,0,1
34254,-93.4579439252336,4,2,9,87,0,1
34606,-93.4579439252336,4,2,11,87,0,1
34783,-93.4579439252336,4,2,2,87,0,1
35136,-93.4579439252336,4,2,4,87,0,1
35224,-93.4579439252336,4,2,3,87,0,1
35489,-93.4579439252336,4,2,5,67,0,0
35577,-93.4579439252336,4,2,6,67,0,0
40783,-72.992700729927,4,2,2,67,0,0
41136,-93.4579439252336,4,2,6,67,0,0
44665,-78.7401574803149,4,2,6,77,0,0
45018,-93.4579439252336,4,2,6,77,0,0
46430,-72.992700729927,4,2,4,77,0,0
46783,-85.4700854700855,4,2,2,77,0,0
46871,-85.4700854700855,4,2,7,77,0,0
52077,-68.0272108843537,4,2,2,77,0,0
52430,-85.4700854700855,4,2,7,77,0,0
55959,-85.4700854700855,4,2,11,77,0,0
56048,-85.4700854700855,4,2,7,77,0,0
56577,-85.4700854700855,4,2,7,5,0,0
57724,-85.4700854700855,4,2,9,77,0,0
58077,-85.4700854700855,4,2,14,77,0,0
58165,-85.4700854700855,4,2,7,77,0,0
58783,-103.092783505155,4,2,11,77,0,0
58871,-103.092783505155,4,2,7,77,0,0
59136,-78.7401574803149,4,2,2,77,0,0
59489,-85.4700854700855,4,2,14,77,0,0
59577,-85.4700854700855,4,2,7,77,0,0
60195,-103.092783505155,4,2,11,77,0,0
60283,-103.092783505155,4,2,6,77,0,0
60548,-78.7401574803149,4,2,2,77,0,0
60901,-85.4700854700855,4,2,7,77,0,0
63371,-78.7401574803149,4,2,2,77,0,0
63724,-85.4700854700855,4,2,14,77,0,0
63812,-85.4700854700855,4,2,7,77,0,0
64430,-103.092783505155,4,2,11,77,0,0
64518,-103.092783505155,4,2,2,77,0,0
64783,-78.7401574803149,4,2,2,77,0,0
65136,-85.4700854700855,4,2,14,77,0,0
65224,-85.4700854700855,4,2,7,77,0,0
65842,-85.4700854700855,4,2,14,67,0,0
66018,-85.4700854700855,4,2,7,77,0,0
66195,-85.4700854700855,4,2,11,77,0,0
66371,-85.4700854700855,4,2,7,77,0,0
67254,-85.4700854700855,4,2,11,77,0,0
67342,-85.4700854700855,4,2,7,77,0,0
67606,-85.4700854700855,4,2,11,77,0,0
67695,-85.4700854700855,4,2,7,77,0,0
67783,-85.4700854700855,4,2,11,77,0,0
67871,-85.4700854700855,4,2,7,77,0,0
70783,-114.942528735632,4,2,2,77,0,0
75018,-103.092783505155,4,2,2,77,0,0
76077,-78.7401574803149,4,2,2,77,0,0
76430,-85.4700854700855,4,2,2,87,0,1
77136,-85.4700854700855,4,2,7,87,0,1
77224,-85.4700854700855,4,2,2,87,0,1
77842,-85.4700854700855,4,2,27,87,0,1
77930,-85.4700854700855,4,2,7,87,0,1
78371,-85.4700854700855,4,2,2,87,0,1
78459,-85.4700854700855,4,2,7,87,0,1
79254,-85.4700854700855,4,2,2,87,0,1
79959,-85.4700854700855,4,2,7,87,0,1
80048,-85.4700854700855,4,2,2,87,0,1
80665,-68.0272108843537,4,2,7,87,0,1
80842,-68.0272108843537,4,2,2,87,0,1
80930,-68.0272108843537,4,2,7,87,0,1
82077,-85.4700854700855,4,2,2,87,0,1
82783,-85.4700854700855,4,2,7,87,0,1
82871,-85.4700854700855,4,2,2,87,0,1
83842,-85.4700854700855,4,2,7,87,0,1
83930,-85.4700854700855,4,2,2,87,0,1
86312,-103.092783505155,4,2,27,57,0,1
86665,-114.942528735632,4,2,27,57,0,1
87018,-72.992700729927,4,2,27,67,0,1
87371,-85.4700854700855,4,2,2,87,0,1
87636,-85.4700854700855,4,2,2,87,0,0
87724,-85.4700854700855,4,2,2,87,0,1
88430,-85.4700854700855,4,2,7,87,0,1
88518,-85.4700854700855,4,2,2,87,0,1
89136,-85.4700854700855,4,2,27,87,0,1
89224,-85.4700854700855,4,2,7,87,0,1
90548,-85.4700854700855,4,2,2,87,0,1
91959,-85.4700854700855,4,2,27,87,0,1
92312,-85.4700854700855,4,2,7,87,0,1
93371,-85.4700854700855,4,2,2,87,0,1
94077,-85.4700854700855,4,2,7,87,0,1
94165,-85.4700854700855,4,2,2,87,0,1
94783,-129.87012987013,4,2,7,87,0,1
94871,-129.87012987013,4,2,2,87,0,1
95489,-103.092783505155,4,2,7,87,0,1
95577,-103.092783505155,4,2,2,87,0,1
96195,-103.092783505155,4,2,2,77,0,0
99018,-93.4579439252336,4,2,2,77,0,0
101665,-93.4579439252336,4,2,2,77,0,0
107136,-63.6942675159236,4,2,4,87,0,0
107489,-85.4700854700855,4,2,5,87,0,1
107577,-85.4700854700855,4,2,3,87,0,1
107842,-85.4700854700855,4,2,11,87,0,1
107930,-85.4700854700855,4,2,3,87,0,1
108548,-85.4700854700855,4,2,11,87,0,1
108636,-85.4700854700855,4,2,3,87,0,1
109253,-85.4700854700855,4,2,11,87,0,1
109342,-85.4700854700855,4,2,3,87,0,1
109606,-72.992700729927,4,2,3,87,0,1
109959,-72.992700729927,4,2,11,87,0,1
110048,-72.992700729927,4,2,3,87,0,1
110312,-85.4700854700855,4,2,3,87,0,1
110665,-85.4700854700855,4,2,11,87,0,1
110753,-85.4700854700855,4,2,3,87,0,1
111371,-85.4700854700855,4,2,11,87,0,1
111459,-85.4700854700855,4,2,3,87,0,1
112077,-85.4700854700855,4,2,11,87,0,1
112165,-85.4700854700855,4,2,3,87,0,1
112430,-72.992700729927,4,2,3,87,0,1
112783,-72.992700729927,4,2,11,87,0,1
112871,-72.992700729927,4,2,3,87,0,1
113136,-85.4700854700855,4,2,5,87,0,1
113224,-85.4700854700855,4,2,3,87,0,1
113489,-85.4700854700855,4,2,11,87,0,1
113577,-85.4700854700855,4,2,3,87,0,1
114195,-85.4700854700855,4,2,11,87,0,1
114283,-85.4700854700855,4,2,3,87,0,1
114900,-85.4700854700855,4,2,11,87,0,1
114989,-85.4700854700855,4,2,3,87,0,1
115606,-85.4700854700855,4,2,11,87,0,1
115695,-85.4700854700855,4,2,3,87,0,1
116312,-85.4700854700855,4,2,11,87,0,1
116400,-85.4700854700855,4,2,3,87,0,1
117018,-85.4700854700855,4,2,11,87,0,1
117106,-85.4700854700855,4,2,3,87,0,1
117371,-85.4700854700855,4,2,2,87,0,1
117548,-85.4700854700855,4,2,9,87,0,1
117901,-85.4700854700855,4,2,11,87,0,1
118077,-114.942528735632,4,2,2,87,0,1
118430,-85.4700854700855,4,2,4,87,0,1
118518,-85.4700854700855,4,2,3,87,0,1
118783,-93.4579439252336,4,2,2,77,0,0
120371,-93.4579439252336,4,2,2,87,0,0
120901,-93.4579439252336,4,1,27,87,0,0

[Colours]
Combo1 : 254,231,232
Combo2 : 255,157,157
Combo3 : 232,11,16

[HitObjects]
256,192,5842,12,0,10077,0:0:0:0:
229,323,11489,6,0,L|196:332,2,34.0724993241234,8|8|8,0:0|0:0|0:0,0:0:0:0:
320,284,11754,1,8,0:0:0:0:
320,256,11842,2,0,L|368:252,3,34.0724993241234,12|8|8|8,0:0|0:0|0:0|0:0,0:0:0:0:
240,180,12195,5,0,0:0:0:0:
236,148,12283,1,0,0:0:0:0:
232,116,12371,1,0,0:0:0:0:
228,84,12459,1,0,0:0:0:0:
224,52,12548,6,0,L|256:68,1,34.0724993241234,0|0,0:0|0:0,0:0:0:0:
340,108,12724,2,0,P|372:104|396:104,1,34.0724993241234
460,61,12901,6,0,B|485:101|485:101|448:209,1,136.289997296494,12|6,0:0|0:0,0:0:0:0:
420,320,13430,1,8,0:0:0:0:
320,320,13606,2,0,L|224:316,1,68.1449986482468,8|0,0:0|0:0,0:0:0:0:
192,192,13959,2,0,L|276:188,1,68.1449986482468,4|0,0:0|0:0,0:0:0:0:
456,144,14312,6,0,B|468:176|468:176|460:220,1,68.1449986482468,8|0,0:0|0:0,0:0:0:0:
352,176,14665,1,6,0:0:0:0:
296,76,14842,2,0,B|252:64|252:64|212:76|212:76|187:68|144:64,1,136.289997296494,8|8,0:0|0:0,0:0:0:0:
64,128,15371,6,0,L|60:168,1,34.0724993241234,6|0,0:0|0:0,0:0:0:0:
96,240,15548,2,0,L|140:244,1,34.0724993241234,8|0,0:0|0:0,0:0:0:0:
220,159,15724,6,0,P|212:226|211:295,1,136.289997296494,8|4,0:0|0:0,0:0:0:0:
308,364,16254,1,8,0:0:0:0:
400,252,16430,2,0,P|368:239|328:236,1,68.1449986482468,2|0,0:0|0:0,0:0:0:0:
296,56,16783,2,0,P|294:90|276:132,1,68.1449986482468,12|2,0:0|0:0,0:0:0:0:
144,204,17136,6,0,P|188:208|248:236,1,65.0474969727346,2|0,0:0|0:0,0:0:0:0:
280,312,17312,2,0,P|252:316|168:340,1,65.0474969727346,8|0,0:0|0:0,0:0:0:0:
132,196,17489,6,0,P|176:200|236:228,1,65.0474969727346,6|0,0:0|0:0,0:0:0:0:
284,320,17665,2,0,P|256:324|172:348,1,65.0474969727346,8|0,0:0|0:0,0:0:0:0:
364,216,17842,5,2,0:0:0:0:
308,96,18018,1,8,0:0:0:0:
308,96,18106,1,8,0:0:0:0:
308,96,18195,2,0,P|244:96|160:112,1,130.094993945469,12|6,0:0|0:0,0:0:0:0:
48,24,18548,6,0,B|56:68|56:68|44:120|44:120|60:164,1,136.289997296494,8|4,0:0|0:0,0:0:0:0:
80,288,19077,1,2,0:0:0:0:
188,220,19254,2,0,B|252:200|252:200|340:216,2,136.289997296494,8|4|8,0:0|0:0|0:0,0:0:0:0:
56,168,20136,5,0,0:0:0:0:
96,300,20312,1,12,0:0:0:0:
196,208,20489,2,0,L|196:164,1,34.0724993241234,2|0,0:0|0:0,0:0:0:0:
168,76,20665,2,0,L|165:59,14,17.0362496620617,0|0|0|0|0|0|0|0|4|0|0|0|2|0|0,0:0|0:0|0:0|0:0|0:0|0:0|0:0|0:0|0:0|0:0|0:0|0:0|0:0|0:0|0:0,0:0:0:0:
296,88,21371,5,8,0:0:0:0:
296,88,21548,1,8,0:0:0:0:
236,316,22077,1,8,0:0:0:0:
236,316,22254,1,8,0:0:0:0:
142,182,22783,6,0,L|140:216,2,34.0724993241234,0|0|0,0:0|0:0|0:0,0:0:0:0:
208,64,23136,2,0,L|204:8,2,34.0724993241234,0|0|0,0:0|0:0|0:0,0:0:0:0:
268,192,23489,1,0,0:0:0:0:
304,188,23577,1,0,0:0:0:0:
340,184,23665,1,0,0:0:0:0:
376,180,23754,1,0,0:0:0:0:
412,176,23842,6,0,B|432:228|484:264|484:264|512:208|504:136,1,234.967507618804,12|0,0:0|0:0,0:0:0:0:
420,68,24195,5,6,0:0:0:0:
328,264,24371,1,2,0:0:0:0:
232,108,24548,1,0,0:0:0:0:
192,240,24724,1,8,0:0:0:0:
192,240,24812,1,8,0:0:0:0:
192,240,24901,5,2,0:0:0:0:
328,144,25077,1,2,0:0:0:0:
140,64,25254,1,0,0:0:0:0:
124,288,25430,1,8,0:0:0:0:
124,288,25518,1,8,0:0:0:0:
124,288,25606,6,0,B|193:275|193:275|234:307|234:307|264:296|316:296,1,189.389994220276,2|0,0:0|0:0,0:0:0:0:
324,188,26136,1,8,0:0:0:0:
336,40,26312,6,0,P|332:82|332:108,1,56.1974995712471,10|8,0:0|0:0,0:0:0:0:
168,188,26489,2,0,L|236:180,1,56.1974995712471,10|8,0:0|0:0,0:0:0:0:
416,208,26665,2,0,P|432:264|396:324,1,112.394999142494,0|8,0:0|0:0,0:0:0:0:
268,348,26930,1,8,0:0:0:0:
268,348,27018,5,2,0:0:0:0:
252,140,27195,1,2,0:0:0:0:
288,320,27371,1,0,0:0:0:0:
240,160,27548,1,8,0:0:0:0:
240,160,27636,1,8,0:0:0:0:
240,160,27724,5,2,0:0:0:0:
116,308,27901,1,2,0:0:0:0:
72,128,28077,1,0,0:0:0:0:
160,332,28254,1,8,0:0:0:0:
160,332,28342,1,8,0:0:0:0:
160,332,28430,6,0,B|212:344|212:344|248:320,1,94.694997110138,2|2,0:0|0:0,0:0:0:0:
240,152,28783,2,0,B|188:140|188:140|152:164,1,94.694997110138,0|2,0:0|0:0,0:0:0:0:
48,268,29136,6,0,L|42:212,1,56.1974995712471,10|8,0:0|0:0,0:0:0:0:
68,104,29312,2,0,L|72:24,1,56.1974995712471,10|8,0:0|0:0,0:0:0:0:
204,248,29489,2,0,L|200:368,1,112.394999142494,0|8,0:0|0:0,0:0:0:0:
304,364,29754,1,8,0:0:0:0:
304,364,29842,5,6,0:0:0:0:
304,148,30018,1,2,0:0:0:0:
168,264,30195,1,0,0:0:0:0:
336,372,30371,1,8,0:0:0:0:
336,372,30459,1,8,0:0:0:0:
336,372,30548,5,2,0:0:0:0:
352,132,30724,1,2,0:0:0:0:
268,328,30901,1,0,0:0:0:0:
200,124,31077,1,8,0:0:0:0:
200,124,31165,1,8,0:0:0:0:
200,124,31254,6,0,B|152:96|152:96|112:124|140:200,1,142.042495665207,2|0,0:0|0:0,0:0:0:0:
144,224,31606,1,0,0:0:0:0:
264,268,31783,1,2,0:0:0:0:
172,348,31959,2,0,B|120:372|72:368|72:368|56:324,1,142.042495665207,8|0,0:0|0:0,0:0:0:0:
64,296,32312,1,0,0:0:0:0:
172,128,32489,1,2,0:0:0:0:
172,128,32577,1,2,0:0:0:0:
172,128,32665,6,0,L|184:12,1,94.694997110138,2|0,0:0|0:0,0:0:0:0:
300,164,33018,2,0,L|309:69,1,94.694997110138,0|0,0:0|0:0,0:0:0:0:
460,120,33371,5,2,0:0:0:0:
496,144,33459,1,0,0:0:0:0:
508,184,33548,1,0,0:0:0:0:
500,224,33636,1,0,0:0:0:0:
468,252,33724,1,0,0:0:0:0:
308,304,33901,1,8,0:0:0:0:
308,304,34077,6,0,L|240:300,1,47.347498555069,8|0,0:0|0:0,0:0:0:0:
76,336,34254,2,0,L|76:232,1,94.694997110138,6|0,0:2|0:0,0:0:0:0:
40,84,34606,1,2,0:0:0:0:
167,167,34783,2,0,P|244:116|196:48,1,189.389994220276,8|4,0:0|0:0,0:0:0:0:
176,44,35224,1,0,0:0:0:0:
152,44,35312,1,0,0:0:0:0:
40,204,35489,6,0,L|44:280,3,47.347498555069,12|2|2|0,0:0|0:0|0:0|0:0,0:0:0:0:
120,300,35842,2,0,L|184:296,1,47.347498555069,12|0,0:0|0:0,0:0:0:0:
208,216,36018,2,0,L|255:218,1,47.347498555069,10|0,0:0|0:0,0:0:0:0:
312,304,36195,6,0,L|320:368,3,47.347498555069,2|2|0|0,0:0|0:0|0:0|0:0,0:0:0:0:
376,240,36548,2,0,P|440:236|492:248,1,94.694997110138,14|2,0:0|0:0,0:0:0:0:
496,156,36812,1,0,0:0:0:0:
500,140,36901,6,0,P|510:107|504:68,1,47.347498555069,10|2,0:0|0:0,0:0:0:0:
416,12,37077,1,10,0:0:0:0:
416,12,37254,2,0,P|400:55|400:124,1,94.694997110138,12|10,0:0|0:0,0:0:0:0:
304,156,37518,1,2,0:0:0:0:
304,156,37606,6,0,P|216:140|184:148,1,94.694997110138,10|0,0:0|0:0,0:0:0:0:
104,88,37871,1,2,0:0:0:0:
104,72,37959,2,0,L|96:24,2,47.347498555069,14|0|2,0:0|0:0|0:0,0:0:0:0:
56,248,38312,6,0,L|128:244,1,47.347498555069,10|2,0:0|0:0,0:0:0:0:
152,324,38489,2,0,L|224:320,1,47.347498555069,10|2,0:0|0:0,0:0:0:0:
272,256,38665,2,0,L|344:252,1,47.347498555069,14|0,0:0|0:0,0:0:0:0:
432,312,38842,1,2,0:0:0:0:
432,312,38930,1,2,0:0:0:0:
432,312,39018,6,0,L|424:224,1,47.347498555069,10|0,0:0|0:0,0:0:0:0:
464,144,39195,2,0,L|460:72,1,47.347498555069,10|2,0:0|0:0,0:0:0:0:
352,152,39371,2,0,L|296:140,3,47.347498555069,12|0|0|2,0:0|0:0|0:0|0:0,0:0:0:0:
288,120,39724,5,10,0:0:0:0:
268,100,39812,1,2,0:0:0:0:
240,96,39901,1,0,0:0:0:0:
212,100,39989,1,2,0:0:0:0:
192,120,40077,5,14,0:0:0:0:
180,144,40165,1,0,0:0:0:0:
184,172,40254,1,2,0:0:0:0:
200,196,40342,1,0,0:0:0:0:
220,216,40430,2,0,L|212:268,1,47.347498555069,8|2,0:0|0:0,0:0:0:0:
108,316,40606,2,0,L|115:270,1,47.347498555069,0|0,0:3|0:3,0:0:0:0:
68,80,40783,6,0,P|17:138|89:164,1,181.867505133894,4|0,0:0|0:0,0:0:0:0:
268,156,41136,6,0,L|348:148,1,47.347498555069,10|2,0:0|0:0,0:0:0:0:
388,224,41312,1,0,0:0:0:0:
388,224,41401,1,2,0:0:0:0:
388,224,41489,2,0,P|384:269|376:336,1,94.694997110138,14|10,0:0|0:0,0:0:0:0:
424,104,41842,2,0,L|404:4,1,94.694997110138,2|0,0:0|0:0,0:0:0:0:
308,80,42106,1,2,0:0:0:0:
308,80,42195,2,0,L|232:76,1,47.347498555069,14|0,0:0|0:0,0:0:0:0:
212,152,42371,2,0,L|136:148,1,47.347498555069,0|2,0:0|0:0,0:0:0:0:
152,240,42548,6,0,P|128:180|32:192,1,142.042495665207,2|2,0:0|0:0,0:0:0:0:
48,280,42901,2,0,L|48:348,1,47.347498555069,14|0,0:0|0:0,0:0:0:0:
152,336,43077,2,0,L|156:384,1,47.347498555069,10|2,0:0|0:0,0:0:0:0:
244,288,43254,2,0,L|300:284,3,47.347498555069,2|0|0|2,0:0|0:0|0:0|0:0,0:0:0:0:
328,280,43606,2,0,P|328:232|320:184,1,94.694997110138,14|10,0:0|0:0,0:0:0:0:
224,184,43871,1,2,0:0:0:0:
212,176,43959,2,0,L|204:120,1,47.347498555069,6|0,0:0|0:0,0:0:0:0:
312,28,44136,6,0,P|272:80|176:32,1,189.389994220276,10|0,0:0|0:0,0:0:0:0:
176,288,44665,2,0,P|272:263|364:268,1,168.592498713741,14|0,0:0|0:0,0:0:0:0:
452,324,45018,2,0,P|452:248|440:152,1,142.042495665207,8|0,0:0|0:0,0:0:0:0:
404,92,45371,5,14,0:0:0:0:
407,84,45459,1,0,0:0:0:0:
409,75,45548,1,0,0:0:0:0:
411,66,45636,1,0,0:0:0:0:
424,48,45724,5,6,0:0:0:0:
380,48,45812,1,0,0:0:0:0:
336,52,45901,1,2,0:0:0:0:
292,60,45989,1,0,0:0:0:0:
308,108,46077,5,14,0:0:0:0:
328,156,46165,1,0,0:0:0:0:
348,204,46254,1,0,0:0:0:0:
364,252,46342,1,0,0:0:0:0:
376,324,46430,6,0,P|296:264|292:328,1,181.867505133894,4|0,0:0|0:0,0:0:0:0:
160,344,46783,6,0,B|152:280|152:280|200:256,1,103.545000394993,4|0,0:0|0:0,0:0:0:0:
280,80,47136,2,0,P|256:132|288:208,1,103.545000394993,4|2,0:0|0:0,0:0:0:0:
396,280,47489,1,8,0:0:0:0:
436,152,47665,1,0,0:0:0:0:
408,312,47842,2,0,B|368:296|368:296|304:304,1,103.545000394993,4|2,0:0|0:0,0:0:0:0:
157,334,48195,5,8,0:0:0:0:
68,188,48371,1,0,0:0:0:0:
149,350,48548,1,4,0:0:0:0:
263,194,48724,1,2,0:0:0:0:
64,152,48901,2,0,B|49:212|49:212|100:244,1,103.545000394993,8|0,0:0|0:0,0:0:0:0:
224,36,49254,2,0,B|180:54|180:54|188:110,1,103.545000394993,4|2,0:0|0:0,0:0:0:0:
260,240,49606,6,0,L|344:236,1,51.7725001974964,8|0,0:0|0:0,0:0:0:0:
336,128,49783,2,0,L|400:120,1,51.7725001974964,0|0,0:0|0:0,0:0:0:0:
440,224,49959,2,0,L|432:312,3,51.7725001974964,4|0|2|0,0:0|0:0|0:0|0:0,0:0:0:0:
344,356,50312,6,0,L|280:344,1,51.7725001974964,8|0,0:0|0:0,0:0:0:0:
200,380,50489,2,0,L|160:328,1,51.7725001974964,0|0,0:0|0:0,0:0:0:0:
76,288,50665,2,0,L|88:216,3,51.7725001974964,4|0|2|0,0:0|0:0|0:0|0:0,0:0:0:0:
96,180,51018,5,8,0:0:0:0:
96,180,51195,1,0,0:0:0:0:
204,80,51371,1,4,0:0:0:0:
212,252,51548,1,2,0:0:0:0:
328,164,51724,1,8,0:0:0:0:
88,152,51901,6,0,L|80:208,1,51.7725001974964,2|0,0:0|0:0,0:0:0:0:
120,312,52077,2,0,B|136:360|152:372|176:388|176:388|216:364|216:364|248:368|248:368|308:344,1,195.142490918204,4|0,0:0|0:0,0:0:0:0:
380,376,52430,6,0,P|388:328|376:260,1,103.545000394993,8|0,0:0|0:0,0:0:0:0:
496,180,52783,2,0,L|348:172,1,103.545000394993,4|2,0:0|0:0,0:0:0:0:
324,68,53136,2,0,B|256:84|256:84|280:172,1,155.317500592489,8|0,0:0|0:0,0:0:0:0:
280,180,53489,2,0,B|240:204|240:204|180:184,1,103.545000394993,4|8,0:0|0:0,0:0:0:0:
88,144,53842,1,0,0:0:0:0:
88,144,54018,5,8,0:0:0:0:
32,48,54195,1,4,0:0:0:0:
64,256,54371,1,2,0:0:0:0:
200,144,54548,5,8,0:0:0:0:
236,140,54636,1,8,0:0:0:0:
272,136,54724,1,8,0:0:0:0:
308,132,54812,1,8,0:0:0:0:
324,112,54901,5,4,0:0:0:0:
348,116,54989,1,4,0:0:0:0:
372,120,55077,1,6,0:0:0:0:
392,124,55165,1,4,0:0:0:0:
256,192,55254,12,0,56577,0:0:0:0:
148,336,56665,5,4,0:0:0:0:
128,224,56842,1,0,0:0:0:0:
260,284,57018,5,4,0:0:0:0:
240,172,57195,1,0,0:0:0:0:
372,232,57371,5,4,0:0:0:0:
352,120,57548,1,0,0:0:0:0:
484,228,57724,6,0,L|480:292,1,51.7725001974964,2|0,0:0|0:0,0:0:0:0:
352,384,57901,2,0,L|348:312,1,51.7725001974964,0|0,0:0|0:0,0:0:0:0:
376,164,58077,6,0,B|336:144|300:140|300:140|252:152|296:220,1,155.317500592489,4|0,0:0|0:0,0:0:0:0:
285,200,58430,1,4,0:0:0:0:
164,112,58606,1,2,0:0:0:0:
136,248,58783,2,0,B|168:242|186:236|186:236|184:272|194:312,1,128.767503045496,0|0,0:0|0:0,0:0:0:0:
208,328,59136,6,0,P|272:356|320:280,1,168.592498713741,12|0,0:0|0:0,0:0:0:0:
460,92,59489,6,0,L|475:246,1,155.317500592489,4|0,0:0|0:0,0:0:0:0:
475,246,59842,1,4,0:0:0:0:
360,176,60018,1,2,0:0:0:0:
256,248,60195,2,0,B|268:220|268:220|240:180|240:180|264:132|264:132,1,128.767503045496,0|0,0:0|0:0,0:0:0:0:
264,104,60548,6,0,P|152:72|92:128,1,168.592498713741,12|0,0:0|0:0,0:0:0:0:
112,112,60901,5,8,0:0:0:0:
116,224,61077,1,2,0:0:0:0:
248,312,61254,5,4,0:0:0:0:
252,200,61430,1,2,0:0:0:0:
392,108,61606,5,8,0:0:0:0:
396,220,61783,1,2,0:0:0:0:
512,176,61959,5,4,0:0:0:0:
512,176,62136,1,2,0:0:0:0:
424,328,62312,5,10,0:0:0:0:
420,336,62401,1,0,0:0:0:0:
416,344,62489,1,2,0:0:0:0:
412,352,62577,1,0,0:0:0:0:
408,360,62665,2,0,L|340:352,1,51.7725001974964,6|0,0:0|0:0,0:0:0:0:
272,292,62842,2,0,L|220:285,1,51.7725001974964,2|0,0:0|0:0,0:0:0:0:
340,216,63018,6,0,P|341:195|336:148,1,51.7725001974964,8|0,0:0|0:0,0:0:0:0:
272,40,63195,2,0,P|268:69|268:108,1,51.7725001974964,2|0,0:0|0:0,0:0:0:0:
216,184,63371,6,0,P|156:152|212:60,1,168.592498713741,4|0,0:0|0:0,0:0:0:0:
400,92,63724,6,0,B|452:120|452:120|424:240,1,155.317500592489,4|0,0:0|0:0,0:0:0:0:
430,213,64077,1,4,0:0:0:0:
348,352,64254,1,2,0:0:0:0:
348,352,64430,2,0,L|200:328,1,128.767503045496,0|0,0:0|0:0,0:0:0:0:
160,192,64783,6,0,B|137:164|133:112|165:88|165:88|189:108|171:135,1,168.592498713741,12|0,0:0|0:0,0:0:0:0:
196,140,65136,6,0,B|228:144|256:148|256:148|296:140|341:132,1,103.545000394993,4|0,0:0|0:0,0:0:0:0:
332,135,65489,1,4,0:0:0:0:
444,40,65665,1,2,0:0:0:0:
448,188,65842,2,0,P|452:252|444:300,1,103.545000394993,0|2,0:0|0:0,0:0:0:0:
312,356,66195,2,0,B|303:289|303:289|323:253,1,103.545000394993,0|0,0:0|0:0,0:0:0:0:
464,200,66548,5,12,0:0:0:0:
376,88,66724,1,8,0:0:0:0:
244,184,66901,1,0,0:0:0:0:
320,0,67077,1,8,0:0:0:0:
444,212,67254,5,0,0:0:0:0:
442,227,67342,1,0,0:0:0:0:
440,243,67430,1,8,0:0:0:0:
438,259,67518,1,0,0:0:0:0:
437,275,67606,1,0,0:0:0:0:
435,291,67695,1,0,0:0:0:0:
440,340,67783,5,2,0:0:0:0:
113,68,70783,6,0,B|189:32|189:32|245:76|245:76|289:56|337:72,1,230.985001938503,8|8,0:0|0:0,0:0:0:0:
441,178,71665,2,0,B|477:226|477:226|437:310,1,153.990001292336,8|0,0:0|0:0,0:0:0:0:
360,360,72195,6,0,L|199:331,1,153.990001292336,8|0,0:0|0:0,0:0:0:0:
120,252,72724,2,0,B|128:176|128:176|208:188|200:244,1,153.990001292336,8|0,0:0|0:0,0:0:0:0:
379,57,73606,6,0,L|303:64,1,76.9950006461678,8|0,0:0|0:0,0:0:0:0:
318,298,73959,2,0,L|395:294,1,76.9950006461678,8|0,0:0|0:0,0:0:0:0:
181,76,74312,6,0,L|105:83,1,76.9950006461678,8|0,0:0|0:0,0:0:0:0:
120,317,74665,2,0,L|197:313,1,76.9950006461678,8|0,0:0|0:0,0:0:0:0:
289,183,75018,5,8,0:0:0:0:
390,165,75195,1,8,0:0:0:0:
491,151,75371,1,8,0:0:0:0:
464,344,75548,2,0,P|408:331|321:322,1,128.767503045496,4|0,0:0|0:0,0:0:0:0:
312,324,75901,1,8,0:0:0:0:
200,384,76077,6,0,B|178:330|178:330|199:276|199:276|199:266|179:208,1,168.592498713741,8|0,0:0|0:0,0:0:0:0:
112,76,76430,6,0,P|168:67|235:69,1,103.545000394993,4|0,0:0|0:0,0:0:0:0:
344,172,76783,1,8,0:0:0:0:
476,72,76959,1,0,0:0:0:0:
479,62,77048,1,0,0:0:0:0:
482,52,77136,2,0,L|479:168,1,103.545000394993,8|2,1:2|0:0,0:0:0:0:
424,280,77489,1,8,0:0:0:0:
292,168,77665,1,8,0:0:0:0:
311,384,77842,5,4,0:0:0:0:
311,384,78018,1,0,0:0:0:0:
152,233,78195,1,8,1:2:0:0:
179,374,78371,1,8,0:0:0:0:
74,151,78548,5,0,1:0:0:0:
48,292,78724,1,2,0:0:0:0:
269,264,78901,1,8,1:2:0:0:
236,123,79077,1,0,0:0:0:0:
388,184,79254,5,4,0:0:0:0:
388,184,79342,1,0,0:0:0:0:
388,184,79430,1,2,0:0:0:0:
172,216,79606,1,8,0:0:0:0:
216,32,79783,1,0,0:0:0:0:
312,240,79959,5,8,1:2:0:0:
312,240,80048,1,0,0:0:0:0:
312,240,80136,1,2,0:0:0:0:
448,128,80312,2,0,L|432:16,1,103.545000394993,8|8,0:0|0:0,0:0:0:0:
296,60,80577,1,0,0:0:0:0:
280,41,80665,6,0,L|196:29,1,65.0474969727346,4|0,0:0|0:0,0:0:0:0:
140,164,80842,2,0,L|224:152,1,65.0474969727346,8|0,0:0|0:0,0:0:0:0:
304,268,81018,2,0,L|284:352,1,65.0474969727346,8|0,1:2|0:0,0:0:0:0:
160,384,81195,2,0,L|152:296,1,65.0474969727346,0|0,0:0|0:0,0:0:0:0:
80,232,81371,5,0,1:0:0:0:
56,192,81459,1,0,0:0:0:0:
52,148,81548,1,2,0:0:0:0:
72,108,81636,1,0,0:0:0:0:
112,84,81724,1,8,1:2:0:0:
156,80,81812,1,0,0:0:0:0:
196,100,81901,1,4,0:0:0:0:
220,140,81989,1,0,0:0:0:0:
228,184,82077,6,0,L|372:192,1,103.545000394993,4|0,0:0|0:0,0:0:0:0:
484,112,82430,1,8,0:0:0:0:
360,320,82606,1,2,0:0:0:0:
280,68,82783,2,0,P|228:68|168:80,1,103.545000394993,8|0,0:0|0:0,0:0:0:0:
112,284,83136,6,0,P|164:300|216:292,1,103.545000394993,8|2,0:0|0:0,0:0:0:0:
376,332,83489,2,0,P|388:232|360:176,1,155.317500592489,10|0,0:0|0:0,0:0:0:0:
316,96,83842,2,0,B|257:88|257:88|221:136|268:172,1,155.317500592489,8|0,1:2|0:0,0:0:0:0:
444,252,84195,2,0,L|460:20,1,207.090000789986,0|8,0:0|0:0,0:0:0:0:
128,164,84724,1,8,0:0:0:0:
128,164,84812,1,8,0:0:0:0:
128,164,84901,5,8,0:0:0:0:
284,212,85077,1,8,0:0:0:0:
100,260,85254,1,8,0:0:0:0:
284,120,85430,1,8,0:0:0:0:
168,320,85606,5,8,0:0:0:0:
96,144,85783,1,8,0:0:0:0:
360,232,85959,1,8,0:0:0:0:
288,56,86136,1,8,0:0:0:0:
164,288,86312,6,0,B|220:320|220:320|291:296,1,128.767503045496,2|0,0:0|0:0,0:0:0:0:
400,268,86665,6,0,P|420:208|388:132,1,115.492500969252,4|0,0:0|0:0,0:0:0:0:
320,16,87018,6,0,P|232:68|344:104,1,242.490006845192,8|8,0:0|0:0,0:0:0:0:
432,164,87459,2,0,L|496:152,2,51.7725001974964,0|2|0,0:0|0:0|0:0,0:0:0:0:
300,272,87724,5,4,0:0:0:0:
300,272,87901,1,0,0:0:0:0:
172,196,88077,2,0,P|172:252|176:320,1,103.545000394993,8|0,0:0|0:0,0:0:0:0:
356,380,88430,2,0,P|428:320|396:196,1,207.090000789986,8|8,1:2|0:0,0:0:0:0:
336,96,88959,1,2,0:0:0:0:
172,196,89136,5,4,0:0:0:0:
172,196,89312,1,2,0:0:0:0:
328,280,89489,1,8,1:2:0:0:
156,320,89665,1,8,0:0:0:0:
336,160,89842,5,0,1:1:0:0:
92,152,90018,1,0,0:0:0:0:
228,356,90195,1,8,1:2:0:0:
344,168,90371,1,2,0:0:0:0:
220,48,90548,6,0,P|185:45|104:48,1,103.545000394993,4|0,0:0|0:0,0:0:0:0:
88,256,90901,2,0,P|123:259|204:256,1,103.545000394993,8|0,0:0|0:0,0:0:0:0:
320,148,91254,1,0,0:0:0:0:
364,272,91430,1,0,0:0:0:0:
392,68,91606,1,8,0:0:0:0:
244,236,91783,1,2,0:0:0:0:
244,236,91871,1,0,0:0:0:0:
244,236,91959,6,0,B|252:226|264:228|264:228|272:264|236:296|236:296|192:276|192:232|192:232|200:228|228:248,1,207.090000789986,4|0,0:0|1:0,0:0:0:0:
108,120,92489,1,0,0:0:0:0:
108,120,92577,1,0,0:0:0:0:
108,120,92665,1,0,1:0:0:0:
132,88,92754,5,0,0:0:0:0:
168,68,92842,1,0,1:0:0:0:
208,84,92930,1,0,0:0:0:0:
244,104,93018,1,8,1:2:0:0:
284,96,93106,1,0,0:0:0:0:
320,76,93195,1,2,0:0:0:0:
360,72,93283,1,0,0:0:0:0:
396,92,93371,6,0,L|404:160,3,51.7725001974964,6|0|2|0,0:0|0:0|0:0|0:0,0:0:0:0:
424,224,93724,2,0,L|412:284,3,51.7725001974964,8|0|2|0,0:0|0:0|0:0|0:0,0:0:0:0:
340,336,94077,1,8,0:0:0:0:
304,332,94165,1,0,0:0:0:0:
268,332,94254,1,0,0:0:0:0:
232,332,94342,1,0,0:0:0:0:
196,332,94430,5,8,0:0:0:0:
176,304,94518,1,0,0:0:0:0:
164,268,94607,1,2,0:0:0:0:
168,240,94695,1,0,0:0:0:0:
180,212,94783,6,0,L|200:180,3,34.0724993241234,4|0|2|0,0:0|0:0|0:0|0:0,0:0:0:0:
300,200,95136,2,0,L|333:207,3,34.0724993241234,8|0|2|0,0:0|0:0|0:0|0:0,0:0:0:0:
436,244,95489,5,0,0:0:0:0:
440,208,95577,1,0,0:0:0:0:
436,172,95665,1,2,0:0:0:0:
424,140,95754,1,0,0:0:0:0:
400,116,95842,1,8,0:0:0:0:
368,104,95930,1,0,0:0:0:0:
332,96,96018,2,0,L|260:80,1,42.9225010151654,2|0,0:0|0:0,0:0:0:0:
332,4,96195,5,8,0:0:0:0:
332,4,96371,1,2,0:0:0:0:
100,80,96901,6,0,L|96:176,1,85.8450020303307,0|2,0:0|0:0,0:0:0:0:
124,260,97254,2,0,B|184:292|184:292|252:268,1,128.767503045496,0|0,0:0|2:0,0:0:0:0:
241,271,97606,5,2,0:0:0:0:
376,236,97783,1,0,0:0:0:0:
376,236,97871,1,2,0:0:0:0:
376,236,97959,1,0,0:0:0:0:
404,104,98136,2,0,L|361:107,1,42.9225010151654
254,19,98312,6,0,B|280:12|292:20|300:44|300:44|271:72|271:72|272:104|269:98,1,128.767503045496,2|0,0:0|0:0,0:0:0:0:
264,188,98665,1,8,0:0:0:0:
72,140,99018,5,12,0:0:0:0:
116,296,99195,1,8,0:0:0:0:
264,168,99371,1,8,0:0:0:0:
160,196,99548,1,8,0:0:0:0:
284,152,99724,5,8,0:0:0:0:
428,260,99901,1,8,0:0:0:0:
460,48,100077,1,8,0:0:0:0:
396,160,100254,1,8,0:0:0:0:
236,316,100430,5,12,0:0:0:0:
236,316,100606,1,0,0:0:0:0:
164,152,100783,1,2,0:0:0:0:
216,84,101136,5,2,0:0:0:0:
164,152,101254,2,0,L|120:144,5,31.5649990367127,2|0|2|2|0|0,0:0|0:0|0:0|0:0|0:0|0:0,0:0:0:0:
60,104,101665,6,0,B|8:92|8:92|28:161|36:248,1,189.389994220276,8|10,0:0|0:0,0:0:0:0:
64,348,102195,1,8,0:0:0:0:
64,348,102371,1,0,0:0:0:0:
288,288,102548,5,8,0:0:0:0:
128,144,102724,1,8,0:0:0:0:
164,272,102901,1,2,0:0:0:0:
356,212,103077,6,0,P|380:116|304:104,1,189.389994220276,8|10,0:0|0:0,0:0:0:0:
152,32,103606,1,8,0:0:0:0:
152,32,103783,1,0,0:0:0:0:
172,204,103959,5,8,0:0:0:0:
280,180,104136,1,8,0:0:0:0:
96,112,104312,1,2,0:0:0:0:
100,324,104489,6,0,L|296:292,1,189.389994220276,10|8,0:0|0:0,0:0:0:0:
408,240,105018,1,8,0:0:0:0:
364,116,105195,1,0,0:0:0:0:
364,116,105283,1,0,0:0:0:0:
364,116,105371,5,8,0:0:0:0:
176,40,105548,1,8,0:0:0:0:
180,76,105636,1,0,0:0:0:0:
184,112,105724,1,8,0:0:0:0:
188,148,105812,1,0,0:0:0:0:
192,184,105901,1,0,0:0:0:0:
196,220,105989,1,0,0:0:0:0:
200,256,106077,5,12,0:0:0:0:
448,164,106430,1,4,0:0:0:0:
196,268,106783,1,4,0:0:0:0:
444,176,107136,6,0,B|472:112|464:84|432:52|432:52|400:64|368:128,1,208.41750079505,12|0,0:0|0:0,0:0:0:0:
356,216,107489,5,6,0:0:0:0:
248,120,107665,1,2,0:0:0:0:
228,304,107842,1,0,0:0:0:0:
388,240,108018,1,8,0:0:0:0:
388,240,108106,1,8,0:0:0:0:
388,240,108195,5,2,0:0:0:0:
172,272,108371,1,2,0:0:0:0:
272,96,108548,1,0,0:0:0:0:
304,320,108724,1,8,0:0:0:0:
308,332,108812,1,8,0:0:0:0:
312,344,108901,6,0,L|88:316,1,207.090000789986,2|0,0:0|0:0,0:0:0:0:
60,180,109430,1,2,0:0:0:0:
184,68,109606,6,0,L|172:164,1,60.622501711298,10|8,0:0|0:0,0:0:0:0:
276,240,109783,2,0,L|272:164,1,60.622501711298,8|8,0:0|0:0,0:0:0:0:
296,0,109959,2,0,B|344:36|344:36|332:112,1,121.245003422596,0|10,0:0|0:0,0:0:0:0:
400,180,110224,1,8,0:0:0:0:
400,180,110312,5,2,0:0:0:0:
204,152,110489,1,2,0:0:0:0:
312,324,110665,1,0,0:0:0:0:
364,88,110842,1,8,0:0:0:0:
364,88,110930,1,8,0:0:0:0:
364,88,111018,5,2,0:0:0:0:
232,244,111195,1,2,0:0:0:0:
180,64,111371,1,0,0:0:0:0:
96,264,111548,1,8,0:0:0:0:
96,264,111636,1,8,0:0:0:0:
96,264,111724,6,0,B|84:316|84:316|104:380,1,103.545000394993,2|2,0:0|0:0,0:0:0:0:
296,308,112077,2,0,B|308:256|308:256|288:192,1,103.545000394993,0|2,0:0|0:0,0:0:0:0:
304,48,112430,6,0,L|296:116,1,60.622501711298,8|8,0:0|0:0,0:0:0:0:
176,128,112606,2,0,L|176:200,1,60.622501711298,8|8,0:0|0:0,0:0:0:0:
304,284,112783,2,0,P|232:312|180:272,1,121.245003422596,0|8,0:0|0:0,0:0:0:0:
88,296,113048,1,8,0:0:0:0:
88,296,113136,5,6,0:0:0:0:
64,104,113312,1,2,0:0:0:0:
240,200,113489,1,0,0:0:0:0:
76,320,113665,1,8,0:0:0:0:
76,320,113754,1,8,0:0:0:0:
76,320,113842,5,2,0:0:0:0:
140,148,114018,1,2,0:0:0:0:
248,312,114195,1,0,0:0:0:0:
384,176,114371,1,8,0:0:0:0:
384,176,114459,1,8,0:0:0:0:
384,176,114548,6,0,P|376:112|368:68,1,103.545000394993,2|0,0:0|0:0,0:0:0:0:
264,128,114812,1,0,0:0:0:0:
256,112,114901,2,0,P|252:56|260:-24,1,103.545000394993,0|8,0:0|0:0,0:0:0:0:
268,248,115254,2,0,P|176:264|196:360,1,207.090000789986,2|0,0:0|0:0,0:0:0:0:
344,384,115783,1,8,0:0:0:0:
368,376,115871,1,8,0:0:0:0:
396,368,115959,6,0,L|388:248,1,103.545000394993,8|0,0:0|0:0,0:0:0:0:
144,84,116312,2,0,P|144:136|152:204,1,103.545000394993,2|0,0:0|0:0,0:0:0:0:
288,144,116665,1,8,0:0:0:0:
304,140,116754,1,0,0:0:0:0:
320,136,116842,1,0,0:0:0:0:
336,132,116930,1,0,0:0:0:0:
352,128,117018,1,0,0:0:0:0:
368,124,117106,1,2,0:0:0:0:
384,120,117195,6,0,L|384:188,1,51.7725001974964,2|0,0:0|0:0,0:0:0:0:
356,288,117371,1,8,0:0:0:0:
356,288,117548,6,0,P|296:312|232:260,1,155.317500592489,6|0,0:0|0:0,0:0:0:0:
128,160,117901,1,2,0:0:0:0:
128,160,118077,2,0,L|116:308,1,115.492500969252,8|0,0:0|0:0,0:0:0:0:
120,312,118430,2,0,L|112:340,6,25.8862500987482,2|0|2|0|8|0|0,0:0|0:0|0:0|0:0|0:0|0:0|0:0,0:0:0:0:
248,276,118783,6,0,L|296:272,5,47.347498555069,2|0|0|0|2|0,0:0|0:0|0:0|0:0|0:0|0:0,0:0:0:0:
336,160,119312,2,0,L|384:168,5,47.347498555069,2|0|0|0|2|0,0:0|0:0|0:0|0:0|0:0|0:0,0:0:0:0:
224,84,119842,1,2,0:0:0:0:
224,84,120018,1,2,0:0:0:0:
254,297,120371,5,8,0:0:0:0:
350,131,120548,1,8,0:0:0:0:
276,323,120724,1,8,0:0:0:0:
104,196,120901,5,4,0:0:0:0:
