osu file format v14

[General]
AudioFilename: Marchen Debut.mp3
AudioLeadIn: 27
PreviewTime: 24195
Countdown: 0
SampleSet: Normal
StackLeniency: 0.7
Mode: 0
LetterboxInBreaks: 0
WidescreenStoryboard: 1

[Editor]
Bookmarks: 15371,17432,61736,116079
DistanceSpacing: 2.7
BeatDivisor: 4
GridSize: 4
TimelineZoom: 1.6

[Metadata]
Title:Marchen Debut!
TitleUnicode:メルヘンデビュー!
Artist:Abe Nana(CV : Miyake Marie)
ArtistUnicode:安部菜々(CV:三宅麻理恵)
Creator:-Chata-
Version:DEBUT
Source:アイドルマスター シンデレラガールズ
Tags:THE IDOLM@STER CINDERELLA GIRLS STARLIGHT STAGE im@s IOSYS ウサミン usamin
BeatmapID:1040901
BeatmapSetID:478558

[Difficulty]
HPDrainRate:2.7
CircleSize:2.7
OverallDifficulty:2.7
ApproachRate:3.7
SliderMultiplier:0.87
SliderTickRate:1

[Events]
//Background and Video events
0,0,"puripruiusamin.jpg",0,0
Video,0,"Marchen Debut!.avi"
//Break Periods
2,13101,14016
2,67983,69428
//Storyboard Layer 0 (Background)
//Storyboard Layer 1 (Fail)
//Storyboard Layer 2 (Pass)
//Storyboard Layer 3 (Foreground)
//Storyboard Sound Samples

[TimingPoints]
1607,352.941176470588,4,2,2,5,1,0
11136,-93.4579439252336,4,2,2,57,0,0
12195,-93.4579439252336,4,2,8,47,0,0
12548,-93.4579439252336,4,2,9,37,0,0
12901,-93.4579439252336,4,2,5,77,0,0
13254,-93.4579439252336,4,2,3,77,0,0
14048,-93.4579439252336,4,2,2,77,0,0
14312,-93.4579439252336,4,2,3,77,0,0
17136,-93.4579439252336,4,2,3,77,0,0
18548,-93.4579439252336,4,2,3,77,0,0
21371,-93.4579439252336,4,2,2,77,0,0
22783,-93.4579439252336,4,2,8,77,0,0
23489,-93.4579439252336,4,2,9,67,0,0
23842,-93.4579439252336,4,2,4,77,0,0
24195,-93.4579439252336,4,2,5,87,0,1
24283,-93.4579439252336,4,2,3,87,0,1
24548,-93.4579439252336,4,2,11,87,0,1
24636,-93.4579439252336,4,2,3,87,0,1
25254,-93.4579439252336,4,2,11,87,0,1
25342,-93.4579439252336,4,2,3,87,0,1
25959,-93.4579439252336,4,2,11,87,0,1
26048,-93.4579439252336,4,2,3,87,0,1
26312,-93.4579439252336,4,2,3,87,0,1
26665,-93.4579439252336,4,2,11,87,0,1
26754,-93.4579439252336,4,2,3,87,0,1
27018,-93.4579439252336,4,2,3,87,0,1
27371,-93.4579439252336,4,2,11,87,0,1
27459,-93.4579439252336,4,2,3,87,0,1
28077,-93.4579439252336,4,2,11,87,0,1
28165,-93.4579439252336,4,2,3,87,0,1
28783,-93.4579439252336,4,2,11,87,0,1
28871,-93.4579439252336,4,2,3,87,0,1
29136,-93.4579439252336,4,2,3,87,0,1
29489,-93.4579439252336,4,2,11,87,0,1
29577,-93.4579439252336,4,2,3,87,0,1
29842,-93.4579439252336,4,2,5,87,0,1
30195,-93.4579439252336,4,2,11,87,0,1
30283,-93.4579439252336,4,2,3,87,0,1
30901,-93.4579439252336,4,2,11,87,0,1
30989,-93.4579439252336,4,2,3,87,0,1
31606,-93.4579439252336,4,2,11,87,0,1
31695,-93.4579439252336,4,2,3,87,0,1
32312,-93.4579439252336,4,2,11,87,0,1
32401,-93.4579439252336,4,2,3,87,0,1
33018,-93.4579439252336,4,2,11,87,0,1
33106,-93.4579439252336,4,2,3,87,0,1
33724,-93.4579439252336,4,2,11,87,0,1
33812,-93.4579439252336,4,2,3,87,0,1
34254,-93.4579439252336,4,2,9,87,0,1
34606,-93.4579439252336,4,2,11,87,0,1
34783,-93.4579439252336,4,2,2,87,0,1
35136,-93.4579439252336,4,2,4,87,0,1
35224,-93.4579439252336,4,2,3,87,0,1
35489,-93.4579439252336,4,2,5,67,0,0
35577,-93.4579439252336,4,2,6,67,0,0
40783,-93.4579439252336,4,2,2,67,0,0
41136,-93.4579439252336,4,2,6,67,0,0
44665,-93.4579439252336,4,2,6,77,0,0
46430,-93.4579439252336,4,2,4,77,0,0
46783,-93.4579439252336,4,2,2,77,0,0
46871,-93.4579439252336,4,2,7,77,0,0
52077,-93.4579439252336,4,2,2,77,0,0
52430,-93.4579439252336,4,2,7,77,0,0
55959,-93.4579439252336,4,2,11,77,0,0
56048,-93.4579439252336,4,2,7,77,0,0
57724,-93.4579439252336,4,2,9,77,0,0
58077,-93.4579439252336,4,2,14,77,0,0
58165,-93.4579439252336,4,2,7,77,0,0
58783,-93.4579439252336,4,2,11,77,0,0
58871,-93.4579439252336,4,2,7,77,0,0
59136,-93.4579439252336,4,2,2,77,0,0
59489,-93.4579439252336,4,2,14,77,0,0
59577,-93.4579439252336,4,2,7,77,0,0
60195,-93.4579439252336,4,2,11,77,0,0
60283,-93.4579439252336,4,2,6,77,0,0
60548,-93.4579439252336,4,2,2,77,0,0
60901,-93.4579439252336,4,2,7,77,0,0
63371,-93.4579439252336,4,2,2,77,0,0
63724,-93.4579439252336,4,2,14,77,0,0
63812,-93.4579439252336,4,2,7,77,0,0
64430,-93.4579439252336,4,2,11,77,0,0
64518,-93.4579439252336,4,2,2,77,0,0
64783,-93.4579439252336,4,2,2,77,0,0
65136,-93.4579439252336,4,2,14,77,0,0
65224,-93.4579439252336,4,2,7,77,0,0
65842,-93.4579439252336,4,2,14,67,0,0
66018,-93.4579439252336,4,2,7,77,0,0
66195,-93.4579439252336,4,2,11,77,0,0
66371,-93.4579439252336,4,2,7,77,0,0
66548,-93.4579439252336,4,2,2,77,0,0
67254,-93.4579439252336,4,2,11,77,0,0
67342,-93.4579439252336,4,2,7,77,0,0
67606,-93.4579439252336,4,2,11,77,0,0
67695,-93.4579439252336,4,2,7,77,0,0
67783,-93.4579439252336,4,2,11,77,0,0
67871,-93.4579439252336,4,2,7,77,0,0
70783,-93.4579439252336,4,2,2,77,0,0
75018,-93.4579439252336,4,2,2,77,0,0
76077,-93.4579439252336,4,2,2,77,0,0
76430,-93.4579439252336,4,2,2,87,0,1
77136,-93.4579439252336,4,2,7,87,0,1
77224,-93.4579439252336,4,2,2,87,0,1
77842,-93.4579439252336,4,2,27,87,0,1
77930,-93.4579439252336,4,2,7,87,0,1
78371,-93.4579439252336,4,2,2,87,0,1
78459,-93.4579439252336,4,2,7,87,0,1
79254,-93.4579439252336,4,2,2,87,0,1
79959,-93.4579439252336,4,2,7,87,0,1
80048,-93.4579439252336,4,2,2,87,0,1
80665,-93.4579439252336,4,2,7,87,0,1
80842,-93.4579439252336,4,2,2,87,0,1
80930,-93.4579439252336,4,2,7,87,0,1
82077,-93.4579439252336,4,2,2,87,0,1
82783,-93.4579439252336,4,2,7,87,0,1
82871,-93.4579439252336,4,2,2,87,0,1
83842,-93.4579439252336,4,2,7,87,0,1
83930,-93.4579439252336,4,2,2,87,0,1
86312,-93.4579439252336,4,2,27,57,0,1
86665,-93.4579439252336,4,2,27,57,0,1
87018,-93.4579439252336,4,2,27,67,0,1
87371,-93.4579439252336,4,2,2,87,0,1
87636,-93.4579439252336,4,2,2,87,0,0
87724,-93.4579439252336,4,2,2,87,0,1
88430,-93.4579439252336,4,2,7,87,0,1
88518,-93.4579439252336,4,2,2,87,0,1
89136,-93.4579439252336,4,2,27,87,0,1
89224,-93.4579439252336,4,2,7,87,0,1
90548,-93.4579439252336,4,2,2,87,0,1
91959,-93.4579439252336,4,2,27,87,0,1
92312,-93.4579439252336,4,2,7,87,0,1
93371,-93.4579439252336,4,2,2,87,0,1
94077,-93.4579439252336,4,2,7,87,0,1
94165,-93.4579439252336,4,2,2,87,0,1
94783,-93.4579439252336,4,2,7,87,0,1
94871,-93.4579439252336,4,2,2,87,0,1
95489,-93.4579439252336,4,2,7,87,0,1
95577,-93.4579439252336,4,2,2,87,0,1
96195,-93.4579439252336,4,2,2,77,0,0
99018,-93.4579439252336,4,2,2,77,0,0
107136,-93.4579439252336,4,2,4,87,0,0
107489,-93.4579439252336,4,2,5,87,0,1
107577,-93.4579439252336,4,2,3,87,0,1
107842,-93.4579439252336,4,2,11,87,0,1
107930,-93.4579439252336,4,2,3,87,0,1
108548,-93.4579439252336,4,2,11,87,0,1
108636,-93.4579439252336,4,2,3,87,0,1
109253,-93.4579439252336,4,2,11,87,0,1
109342,-93.4579439252336,4,2,3,87,0,1
109606,-93.4579439252336,4,2,3,87,0,1
109959,-93.4579439252336,4,2,11,87,0,1
110048,-93.4579439252336,4,2,3,87,0,1
110312,-93.4579439252336,4,2,3,87,0,1
110665,-93.4579439252336,4,2,11,87,0,1
110753,-93.4579439252336,4,2,3,87,0,1
111371,-93.4579439252336,4,2,11,87,0,1
111459,-93.4579439252336,4,2,3,87,0,1
112077,-93.4579439252336,4,2,11,87,0,1
112165,-93.4579439252336,4,2,3,87,0,1
112430,-93.4579439252336,4,2,3,87,0,1
112783,-93.4579439252336,4,2,11,87,0,1
112871,-93.4579439252336,4,2,3,87,0,1
113136,-93.4579439252336,4,2,5,87,0,1
113224,-93.4579439252336,4,2,3,87,0,1
113489,-93.4579439252336,4,2,11,87,0,1
113577,-93.4579439252336,4,2,3,87,0,1
114195,-93.4579439252336,4,2,11,87,0,1
114283,-93.4579439252336,4,2,3,87,0,1
114900,-93.4579439252336,4,2,11,87,0,1
114989,-93.4579439252336,4,2,3,87,0,1
115606,-93.4579439252336,4,2,11,87,0,1
115695,-93.4579439252336,4,2,3,87,0,1
116312,-93.4579439252336,4,2,11,87,0,1
116400,-93.4579439252336,4,2,3,87,0,1
117018,-93.4579439252336,4,2,11,87,0,1
117106,-93.4579439252336,4,2,3,87,0,1
117371,-93.4579439252336,4,2,2,87,0,1
117548,-93.4579439252336,4,2,9,87,0,1
117901,-93.4579439252336,4,2,11,87,0,1
118077,-93.4579439252336,4,2,2,87,0,1
118430,-93.4579439252336,4,2,4,87,0,1
118518,-93.4579439252336,4,2,3,87,0,1
118783,-93.4579439252336,4,2,2,77,0,0
120371,-93.4579439252336,4,2,2,87,0,0
120901,-93.4579439252336,4,1,27,87,0,0

[Colours]
Combo1 : 254,231,232
Combo2 : 255,157,157
Combo3 : 232,11,16

[HitObjects]
256,192,5842,12,0,10077,0:0:0:0:
208,56,11489,6,0,B|252:72|312:56|312:56|276:152|276:232,1,279.269991477356,4|0,0:0|0:0,0:0:0:0:
284,332,12901,5,4,0:0:0:0:
272,48,15371,5,10,0:0:0:0:
284,156,15724,2,0,L|484:176,2,186.179994318237,12|2|2,0:0|0:0|0:0,0:0:0:0:
228,248,17489,5,6,0:0:0:0:
120,260,17842,2,0,P|64:188|124:108,1,186.179994318237,2|8,0:0|0:0,0:0:0:0:
284,236,19254,5,8,0:0:0:0:
304,24,19959,2,0,L|452:16,2,139.634995738678,8|2|4,0:0|0:0|0:0,0:0:0:0:
196,36,21371,6,0,L|136:44,1,46.5449985795594,8|8,0:0|0:0,0:0:0:0:
244,172,22077,2,0,L|308:164,1,46.5449985795594,8|8,0:0|0:0,0:0:0:0:
448,128,22783,6,0,P|448:176|444:236,1,93.0899971591187
388,312,23489,2,0,P|344:296|296:296,1,93.0899971591187,0|12,0:0|0:0,0:0:0:0:
192,308,24195,6,0,L|80:324,2,93.0899971591187,6|0|2,0:0|0:0|0:0,0:0:0:0:
228,208,25254,1,0,0:0:0:0:
192,108,25606,2,0,P|248:44|340:80,1,186.179994318237,2|10,0:0|0:0,0:0:0:0:
388,164,26665,1,0,0:0:0:0:
368,268,27018,6,0,L|352:372,1,93.0899971591187,2|0,0:0|0:0,0:0:0:0:
252,332,27724,2,0,P|216:324|156:328,1,93.0899971591187,2|0,0:0|0:0,0:0:0:0:
84,252,28430,2,0,P|48:172|112:184,1,186.179994318237,2|10,0:0|0:0,0:0:0:0:
140,76,29489,1,0,0:0:0:0:
220,148,29842,6,0,L|320:140,2,93.0899971591187,6|0|2,0:0|0:0|0:0,0:0:0:0:
208,256,30901,1,0,0:0:0:0:
216,364,31254,2,0,B|268:352|296:320|296:320|340:344|340:344|396:328,1,186.179994318237,2|8,0:0|0:0,0:0:0:0:
396,224,32312,1,0,0:0:0:0:
404,116,32665,6,0,P|312:44|240:72,1,186.179994318237,2|2,0:0|0:0,0:0:0:0:
156,20,33724,2,0,P|148:64|144:132,1,93.0899971591187,0|6,0:0|0:2,0:0:0:0:
228,248,34606,2,0,L|288:276,1,46.5449985795594
352,200,35136,1,4,0:0:0:0:
364,308,35489,6,0,B|328:352|296:376|296:376|256:364|196:340,1,186.179994318237,12|2,0:0|0:0,0:0:0:0:
124,280,36548,1,14,0:0:0:0:
92,176,36901,2,0,L|96:76,1,93.0899971591187,10|12,0:0|0:0,0:0:0:0:
204,84,37606,2,0,P|260:88|296:76,1,93.0899971591187,10|14,0:0|0:0,0:0:0:0:
392,28,38312,6,0,L|404:220,2,186.179994318237,10|10|10,0:0|0:0|0:0,0:0:0:0:
288,48,40077,1,14,0:0:0:0:
180,40,40430,2,0,P|164:84|152:140,1,93.0899971591187,8|12,0:0|0:0,0:0:0:0:
148,236,41136,5,10,0:0:0:0:
172,340,41489,2,0,P|257:307|360:332,1,186.179994318237,14|14,0:0|0:0,0:0:0:0:
452,356,42548,2,0,P|464:308|468:252,1,93.0899971591187,2|14,0:0|0:0,0:0:0:0:
484,160,43254,2,0,P|445:138|388:128,1,93.0899971591187,2|14,0:0|0:0,0:0:0:0:
292,128,43959,5,6,0:0:0:0:
84,72,44665,2,0,L|80:172,1,93.0899971591187,14|8,0:0|0:0,0:0:0:0:
104,268,45371,2,0,L|4:252,2,93.0899971591187,14|6|14,0:0|0:0|0:0,0:0:0:0:
200,216,46430,1,4,0:0:0:0:
216,112,46783,6,0,P|236:64|352:88,1,186.179994318237,4|8,0:0|0:0,0:0:0:0:
408,172,47842,1,4,0:0:0:0:
420,280,48195,2,0,P|410:335|400:380,1,93.0899971591187,8|4,0:0|0:0,0:0:0:0:
300,344,48901,2,0,P|255:324|196:324,1,93.0899971591187,8|4,0:0|0:0,0:0:0:0:
124,260,49606,6,0,B|68:272|40:308|40:308|60:340|120:380,2,186.179994318237,8|8|8,0:0|0:0|0:0,0:0:0:0:
108,152,51371,1,4,0:0:0:0:
88,48,51724,1,8,0:0:0:0:
192,72,52077,2,0,L|292:64,1,93.0899971591187,4|8,0:0|0:0,0:0:0:0:
392,60,52783,5,4,0:0:0:0:
380,168,53136,2,0,L|380:276,1,93.0899971591187,8|4,0:0|0:0,0:0:0:0:
400,368,53842,2,0,P|356:320|244:336,1,186.179994318237,8|8,0:0|0:0,0:0:0:0:
140,312,54901,1,4,0:0:0:0:
148,96,56665,6,0,L|54:99,2,93.0899971591187,4|4|4,0:0|0:0|0:0,0:0:0:0:
256,84,57724,1,2,0:0:0:0:
356,44,58077,6,0,P|404:104|352:196,1,186.179994318237,4|0,0:0|0:0,0:0:0:0:
252,204,59136,1,12,0:0:0:0:
148,172,59489,2,0,B|112:168|80:208|80:208|84:244|132:304,1,186.179994318237,4|0,0:0|0:0,0:0:0:0:
228,340,60548,1,12,0:0:0:0:
324,288,60901,6,0,L|512:252,1,186.179994318237,8|8,0:0|0:0,0:0:0:0:
500,148,61959,1,4,0:0:0:0:
488,40,62312,2,0,L|392:24,1,93.0899971591187,10|6,0:0|0:0,0:0:0:0:
288,20,63018,2,0,P|280:72|276:116,1,93.0899971591187,8|4,0:0|0:0,0:0:0:0:
268,220,63724,6,0,P|188:232|180:136,1,186.179994318237,4|0,0:0|0:0,0:0:0:0:
200,44,64783,1,12,0:0:0:0:
92,44,65136,2,0,B|28:56|28:56|44:180,1,186.179994318237,4|0,0:0|0:0,0:0:0:0:
112,260,66195,1,0,0:0:0:0:
212,296,66548,6,0,B|328:328|328:328|384:312|428:268|424:212|396:164,1,325.814990056916,12|2,0:0|0:0,0:0:0:0:
120,176,70783,6,0,P|196:92|308:124,1,232.724992897797,8|8,0:0|0:0,0:0:0:0:
348,272,72195,2,0,P|272:356|160:324,1,232.724992897797,8|8,0:0|0:0,0:0:0:0:
20,268,73606,6,0,P|8:228|2:176,1,93.0899971591187,8|8,0:0|0:0,0:0:0:0:
28,72,74312,2,0,P|80:88|116:108,1,93.0899971591187,8|8,0:0|0:0,0:0:0:0:
144,212,75018,2,0,P|184:120|320:184,1,279.269991477356,12|8,0:0|0:0,0:0:0:0:
344,284,76430,6,0,P|404:264|436:256,1,93.0899971591187,4|8,0:0|0:0,0:0:0:0:
436,148,77136,2,0,L|424:36,1,93.0899971591187,8|8,1:2|0:0,0:0:0:0:
320,48,77842,2,0,L|216:32,2,93.0899971591187,4|8|0,0:0|1:2|1:0,0:0:0:0:
324,156,78901,1,8,1:2:0:0:
324,264,79254,6,0,P|236:296|196:220,1,186.179994318237,4|8,0:0|1:2,0:0:0:0:
212,124,80312,1,8,0:0:0:0:
104,120,80665,2,0,P|95:168|92:232,1,93.0899971591187,4|8,0:0|1:2,0:0:0:0:
96,320,81371,2,0,P|156:300|296:320,1,186.179994318237,0|4,1:0|0:0,0:0:0:0:
296,208,82430,5,8,0:0:0:0:
312,104,82783,1,8,0:0:0:0:
408,152,83136,2,0,L|396:260,1,93.0899971591187,8|10,0:0|0:0,0:0:0:0:
296,208,83842,2,0,P|236:188|192:184,1,93.0899971591187,8|0,1:2|0:0,0:0:0:0:
108,224,84548,1,8,0:0:0:0:
8,264,84901,6,0,L|16:64,1,186.179994318237,8|8,0:0|0:0,0:0:0:0:
108,132,85959,1,8,0:0:0:0:
200,188,86312,2,0,P|255:188|300:180,2,93.0899971591187,2|4|8,0:0|0:0|0:0,0:0:0:0:
192,80,87371,1,8,0:0:0:0:
284,28,87724,6,0,B|332:20|332:20|380:40,1,93.0899971591187,4|8,0:0|0:0,0:0:0:0:
480,48,88430,2,0,L|472:156,1,93.0899971591187,8|8,1:2|0:0,0:0:0:0:
412,228,89136,2,0,L|420:336,2,93.0899971591187,4|8|0,0:0|1:2|1:1,0:0:0:0:
324,164,90195,1,8,1:2:0:0:
228,120,90548,6,0,L|132:116,1,93.0899971591187,4|8,0:0|0:0,0:0:0:0:
48,56,91254,2,0,P|8:136|84:196,1,186.179994318237,0|4,0:0|0:0,0:0:0:0:
172,216,92312,1,0,1:0:0:0:
180,324,92665,2,0,L|276:308,1,93.0899971591187,0|8,1:0|1:2,0:0:0:0:
372,348,93371,6,0,L|384:148,1,186.179994318237,6|8,0:0|0:0,0:0:0:0:
388,56,94430,1,8,0:0:0:0:
280,68,94783,2,0,P|240:56|180:48,1,93.0899971591187,4|8,0:0|0:0,0:0:0:0:
112,124,95489,2,0,P|114:180|124:232,1,93.0899971591187,0|10,0:0|0:0,0:0:0:0:
208,280,96195,5,12,0:0:0:0:
372,56,97606,2,0,B|412:36|460:44|484:92|472:140|408:160|408:160|420:204|416:240,1,279.269991477356,2|8,0:0|0:0,0:0:0:0:
412,336,99018,6,0,P|364:320|308:312,1,93.0899971591187,12|8,0:0|0:0,0:0:0:0:
216,336,99724,2,0,L|212:228,1,93.0899971591187,8|8,0:0|0:0,0:0:0:0:
204,136,100430,1,12,0:0:0:0:
196,28,100783,2,0,L|352:8,1,139.634995738678,2|2,0:0|0:0,0:0:0:0:
416,80,101665,6,0,P|432:132|412:228,1,139.634995738678,8|8,0:0|0:0,0:0:0:0:
384,316,102548,2,0,P|320:288|236:284,1,139.634995738678,8|8,0:0|0:0,0:0:0:0:
92,312,103606,2,0,L|104:168,1,139.634995738678,8|8,0:0|0:0,0:0:0:0:
76,68,104489,6,0,B|140:40|140:40|224:56,1,139.634995738678,10|8,0:0|0:0,0:0:0:0:
316,52,105371,2,0,L|292:152,1,93.0899971591187,8|8,0:0|0:0,0:0:0:0:
260,244,106077,2,0,L|368:244,2,93.0899971591187,12|4|4,0:0|0:0|0:0,0:0:0:0:
152,240,107136,1,12,0:0:0:0:
140,132,107489,6,0,L|124:20,2,93.0899971591187,6|0|2,0:0|0:0|0:0,0:0:0:0:
248,120,108548,1,0,0:0:0:0:
340,64,108901,2,0,P|396:124|332:188,1,186.179994318237,2|10,0:0|0:0,0:0:0:0:
232,216,109959,1,0,0:0:0:0:
228,324,110312,6,0,P|279:315|320:316,1,93.0899971591187,2|0,0:0|0:0,0:0:0:0:
420,352,111018,2,0,L|432:256,1,93.0899971591187,2|0,0:0|0:0,0:0:0:0:
464,156,111724,2,0,P|380:104|292:136,1,186.179994318237,2|8,0:0|0:0,0:0:0:0:
240,216,112783,1,0,0:0:0:0:
184,124,113136,6,0,P|172:56|160:32,2,93.0899971591187,6|0|2,0:0|0:0|0:0,0:0:0:0:
144,224,114195,1,0,0:0:0:0:
164,328,114548,2,0,B|208:328|208:328|244:308|244:308|296:332|296:332|360:320,1,186.179994318237,2|2,0:0|0:0,0:0:0:0:
388,228,115606,1,0,0:0:0:0:
392,120,115959,6,0,B|392:72|396:44|396:44|348:56|272:64,1,186.179994318237,8|8,0:0|0:0,0:0:0:0:
184,36,117018,2,0,L|188:144,1,93.0899971591187,0|6,0:0|0:0,0:0:0:0:
204,288,117901,2,0,L|252:276,1,46.5449985795594,2|8,0:0|0:0,0:0:0:0:
352,252,118430,1,2,0:0:0:0:
256,192,118783,12,0,120901,0:0:0:0:
