osu file format v14

[General]
AudioFilename: Marchen Debut.mp3
AudioLeadIn: 27
PreviewTime: 23405
Countdown: 0
SampleSet: Normal
StackLeniency: 0.5
Mode: 1
LetterboxInBreaks: 0
WidescreenStoryboard: 0

[Editor]
DistanceSpacing: 2.7
BeatDivisor: 4
GridSize: 4
TimelineZoom: 1.999999

[Metadata]
Title:Marchen Debut!
TitleUnicode:メルヘンデビュー!
Artist:Abe Nana (CV: Miyake Marie)
ArtistUnicode:安部菜々 (CV: 三宅麻理恵)
Creator:sing216
Version:Oni
Source:アイドルマスター シンデレラガールズ
Tags:THE IDOLM@STER IDOL MASTER idolmaster imas im@s スターライトステージ デレステ cgss deresute CINDERELLA GIRLS STARLIGHT STAGE IOSYS ウサミン usamin ミンミンミン minminmin ミン min game music ver version yuuno yoshimi ARM japanese video game tag co-op coop pop jpop j-pop [r] ron
BeatmapID:1267458
BeatmapSetID:599727

[Difficulty]
HPDrainRate:6
CircleSize:5
OverallDifficulty:6
ApproachRate:5
SliderMultiplier:1.4
SliderTickRate:1

[Events]
//Background and Video events
0,0,"puripuriusamin.png",0,50
//Break Periods
//Storyboard Layer 0 (Background)
//Storyboard Layer 1 (Fail)
//Storyboard Layer 2 (Pass)
//Storyboard Layer 3 (Foreground)
//Storyboard Layer 4 (Overlay)
//Storyboard Sound Samples

[TimingPoints]
817,352.941176470588,4,1,0,50,1,0
10699,-100,4,1,0,60,0,0
12111,-100,4,1,0,70,0,0
23405,-100,4,1,0,80,0,1
34699,-100,4,1,0,70,0,0
75640,-100,4,1,0,80,0,1
85522,-100,4,1,0,70,0,0
86934,-100,4,1,0,80,0,1
95405,-100,4,1,0,70,0,0
106699,-100,4,1,0,80,0,1
117993,-100,4,1,0,70,0,0
119581,-100,4,1,0,80,0,0

[HitObjects]
254,196,10699,6,0,L|331:198,4,70
256,192,11758,1,8,0:0:0:0:
256,192,11934,1,8,0:0:0:0:
256,192,12111,5,4,0:0:0:0:
256,192,12464,1,8,0:0:0:0:
256,192,12640,1,0,0:0:0:0:
256,192,12816,1,8,0:0:0:0:
256,192,13169,1,0,0:0:0:0:
256,192,13522,1,8,0:0:0:0:
256,192,13699,1,8,0:0:0:0:
256,192,13875,1,0,0:0:0:0:
256,192,14052,1,0,0:0:0:0:
256,192,14405,1,0,0:0:0:0:
256,192,14581,1,0,0:0:0:0:
256,192,14758,1,8,0:0:0:0:
261,195,14934,5,8,0:0:0:0:
256,192,15287,1,8,0:0:0:0:
256,192,15464,1,0,0:0:0:0:
256,192,15640,1,8,0:0:0:0:
256,192,15993,1,0,0:0:0:0:
256,192,16346,1,8,0:0:0:0:
256,192,16522,1,8,0:0:0:0:
256,192,16699,1,0,0:0:0:0:
255,199,16787,1,0,0:0:0:0:
256,192,16875,1,0,0:0:0:0:
255,199,16964,1,0,0:0:0:0:
256,192,17052,1,8,0:0:0:0:
256,192,17405,1,8,0:0:0:0:
256,192,17581,1,8,0:0:0:0:
256,192,17758,5,4,0:0:0:0:
256,192,18111,1,8,0:0:0:0:
256,192,18287,1,0,0:0:0:0:
256,192,18464,1,8,0:0:0:0:
256,192,18816,1,0,0:0:0:0:
252,192,19169,1,8,0:0:0:0:
256,192,19346,1,8,0:0:0:0:
256,192,19522,1,0,0:0:0:0:
256,192,19699,1,8,0:0:0:0:
256,192,19875,1,0,0:0:0:0:
256,192,19964,1,0,0:0:0:0:
256,192,20052,1,8,0:0:0:0:
256,192,20228,1,8,0:0:0:0:
252,192,20316,1,8,0:0:0:0:
256,192,20405,1,0,0:0:0:0:
256,192,20581,5,4,0:0:0:0:
256,192,20758,1,4,0:0:0:0:
256,192,21287,5,4,0:0:0:0:
256,192,21464,1,4,0:0:0:0:
256,192,21993,5,8,0:0:0:0:
256,192,22081,1,8,0:0:0:0:
256,192,22169,1,0,0:0:0:0:
256,192,22346,5,8,0:0:0:0:
256,192,22434,1,8,0:0:0:0:
256,192,22522,1,0,0:0:0:0:
256,192,22699,5,0,0:0:0:0:
245,194,22787,1,0,0:0:0:0:
256,192,22875,1,0,0:0:0:0:
256,192,22964,1,0,0:0:0:0:
256,192,23052,1,8,0:0:0:0:
256,192,23405,5,8,0:0:0:0:
260,192,23493,1,0,0:0:0:0:
256,192,23581,1,8,0:0:0:0:
256,196,23669,1,0,0:0:0:0:
260,192,23758,1,8,0:0:0:0:
260,192,23934,1,0,0:0:0:0:
260,192,24111,1,8,0:0:0:0:
260,192,24199,1,0,0:0:0:0:
260,192,24287,1,8,0:0:0:0:
260,192,24375,1,0,0:0:0:0:
260,192,24464,1,8,0:0:0:0:
260,192,24640,1,0,0:0:0:0:
260,192,24816,1,0,0:0:0:0:
260,192,24905,1,0,0:0:0:0:
260,192,24993,1,0,0:0:0:0:
260,192,25169,1,8,0:0:0:0:
260,192,25346,1,8,0:0:0:0:
260,192,25434,1,8,0:0:0:0:
260,192,25522,1,0,0:0:0:0:
260,192,25699,1,0,0:0:0:0:
260,192,25875,1,8,0:0:0:0:
251,197,26052,1,8,0:0:0:0:
256,192,26228,5,0,0:0:0:0:
256,192,26405,1,8,0:0:0:0:
259,198,26493,1,8,0:0:0:0:
260,192,26581,1,0,0:0:0:0:
260,192,26758,1,8,0:0:0:0:
260,192,26934,1,0,0:0:0:0:
260,192,27111,1,8,0:0:0:0:
260,192,27199,1,8,0:0:0:0:
260,192,27287,1,0,0:0:0:0:
260,192,27464,1,8,0:0:0:0:
260,192,27640,1,0,0:0:0:0:
263,195,27728,1,0,0:0:0:0:
260,192,27816,1,8,0:0:0:0:
260,192,27993,1,8,0:0:0:0:
260,192,28169,1,0,0:0:0:0:
260,192,28346,1,8,0:0:0:0:
260,192,28434,1,0,0:0:0:0:
260,192,28522,1,8,0:0:0:0:
260,192,28611,1,8,0:0:0:0:
260,192,28699,1,0,0:0:0:0:
256,192,29052,5,8,0:0:0:0:
256,192,29140,1,0,0:0:0:0:
256,192,29228,1,8,0:0:0:0:
260,192,29316,1,0,0:0:0:0:
260,192,29405,1,8,0:0:0:0:
260,192,29581,1,0,0:0:0:0:
260,192,29758,1,8,0:0:0:0:
260,192,29846,1,0,0:0:0:0:
260,192,29934,1,8,0:0:0:0:
260,192,30022,1,0,0:0:0:0:
260,192,30111,1,8,0:0:0:0:
260,192,30287,1,0,0:0:0:0:
260,192,30464,1,0,0:0:0:0:
260,192,30552,1,0,0:0:0:0:
260,192,30640,1,0,0:0:0:0:
260,192,30816,1,8,0:0:0:0:
260,192,30993,1,8,0:0:0:0:
260,192,31081,1,8,0:0:0:0:
260,192,31169,1,0,0:0:0:0:
260,192,31346,1,0,0:0:0:0:
260,192,31522,1,8,0:0:0:0:
251,197,31699,1,0,0:0:0:0:
260,192,31875,5,8,0:0:0:0:
260,192,31964,1,8,0:0:0:0:
260,192,32052,1,0,0:0:0:0:
260,192,32228,1,8,0:0:0:0:
256,200,32316,1,8,0:0:0:0:
256,200,32405,1,0,0:0:0:0:
256,200,32581,1,0,0:0:0:0:
256,200,32669,1,0,0:0:0:0:
256,200,32758,1,0,0:0:0:0:
256,200,32846,1,0,0:0:0:0:
256,200,32934,1,8,0:0:0:0:
256,200,33111,1,8,0:0:0:0:
257,201,33199,1,8,0:0:0:0:
256,200,33464,1,4,0:0:0:0:
256,200,33816,1,4,0:0:0:0:
256,200,33993,1,12,0:0:0:0:
250,200,34169,5,0,0:0:0:0:
256,200,34258,1,0,0:0:0:0:
256,200,34346,1,8,0:0:0:0:
256,200,34434,1,8,0:0:0:0:
256,200,34522,1,8,0:0:0:0:
256,200,34611,1,8,0:0:0:0:
256,200,34699,1,0,0:0:0:0:
256,200,35052,5,8,0:0:0:0:
256,200,35228,1,8,0:0:0:0:
256,200,35405,1,0,0:0:0:0:
256,200,35758,1,8,0:0:0:0:
256,200,36111,5,0,0:0:0:0:
256,200,36464,1,8,0:0:0:0:
256,200,36640,1,0,0:0:0:0:
256,200,36816,1,0,0:0:0:0:
252,204,37169,1,8,0:0:0:0:
256,200,37522,5,0,0:0:0:0:
256,200,37699,1,0,0:0:0:0:
256,200,37875,1,8,0:0:0:0:
256,200,38228,5,0,0:0:0:0:
256,200,38405,1,0,0:0:0:0:
256,200,38581,1,8,0:0:0:0:
256,204,38934,5,0,0:0:0:0:
256,204,39111,1,0,0:0:0:0:
256,204,39287,1,8,0:0:0:0:
256,204,39464,5,8,0:0:0:0:
248,208,39552,1,8,0:0:0:0:
256,204,39640,1,0,0:0:0:0:
256,204,39816,1,8,0:0:0:0:
256,204,39993,1,12,0:0:0:0:
256,200,40346,5,0,0:0:0:0:
256,200,40699,1,0,0:0:0:0:
256,200,40875,1,0,0:0:0:0:
256,200,41052,1,8,0:0:0:0:
256,200,41405,1,8,0:0:0:0:
256,200,41758,5,0,0:0:0:0:
256,200,42111,1,8,0:0:0:0:
256,200,42287,1,8,0:0:0:0:
256,200,42464,1,0,0:0:0:0:
252,204,42816,1,8,0:0:0:0:
256,200,43169,5,0,0:0:0:0:
256,200,43434,1,0,0:0:0:0:
256,200,43522,1,8,0:0:0:0:
254,199,43699,1,0,0:0:0:0:
256,200,43875,1,8,0:0:0:0:
250,198,43964,1,8,0:0:0:0:
256,200,44052,1,0,0:0:0:0:
256,200,44228,1,8,0:0:0:0:
256,200,44405,1,8,0:0:0:0:
256,204,44581,5,0,0:0:0:0:
253,204,44846,1,0,0:0:0:0:
256,204,44934,1,8,0:0:0:0:
256,204,45111,1,0,0:0:0:0:
258,208,45287,1,8,0:0:0:0:
248,208,45375,1,0,0:0:0:0:
256,204,45464,1,0,0:0:0:0:
256,204,45640,1,12,0:0:0:0:
256,200,45993,5,0,0:0:0:0:
256,200,46169,1,0,0:0:0:0:
256,200,46346,1,8,0:0:0:0:
256,200,46522,1,8,0:0:0:0:
256,200,46611,1,8,0:0:0:0:
256,200,46699,1,0,0:0:0:0:
256,200,46875,1,0,0:0:0:0:
256,200,47052,1,8,0:0:0:0:
256,200,47405,5,0,0:0:0:0:
256,200,47581,1,0,0:0:0:0:
256,200,47758,1,8,0:0:0:0:
256,200,47934,1,0,0:0:0:0:
256,200,48022,1,0,0:0:0:0:
256,200,48111,1,8,0:0:0:0:
252,204,48287,1,0,0:0:0:0:
252,204,48464,1,8,0:0:0:0:
256,200,48640,1,8,0:0:0:0:
256,200,48816,5,0,0:0:0:0:
256,200,48993,1,0,0:0:0:0:
256,200,49169,1,8,0:0:0:0:
256,200,49522,5,0,0:0:0:0:
256,200,49699,1,0,0:0:0:0:
256,200,49875,1,8,0:0:0:0:
261,193,50052,5,8,0:0:0:0:
261,193,50140,1,8,0:0:0:0:
256,204,50228,1,0,0:0:0:0:
256,204,50405,1,8,0:0:0:0:
256,204,50581,1,0,0:0:0:0:
256,204,50758,5,8,0:0:0:0:
248,208,50846,1,8,0:0:0:0:
256,204,50934,1,0,0:0:0:0:
251,188,51022,1,0,0:0:0:0:
256,204,51111,1,0,0:0:0:0:
256,204,51287,5,12,0:0:0:0:
256,200,51640,5,0,0:0:0:0:
256,200,51816,1,0,0:0:0:0:
256,200,51993,1,8,0:0:0:0:
256,200,52169,1,8,0:0:0:0:
256,200,52258,1,8,0:0:0:0:
256,200,52346,1,0,0:0:0:0:
256,200,52522,1,0,0:0:0:0:
256,200,52699,1,8,0:0:0:0:
256,200,53052,5,0,0:0:0:0:
256,200,53228,1,0,0:0:0:0:
256,200,53405,1,8,0:0:0:0:
256,200,53581,1,0,0:0:0:0:
262,198,53669,1,0,0:0:0:0:
256,200,53758,1,8,0:0:0:0:
251,202,53846,1,8,0:0:0:0:
256,200,53934,1,0,0:0:0:0:
252,204,54111,1,8,0:0:0:0:
256,200,54287,1,8,0:0:0:0:
256,200,54375,1,8,0:0:0:0:
256,200,54464,1,0,0:0:0:0:
256,204,55875,5,0,0:0:0:0:
256,204,56052,1,8,0:0:0:0:
256,204,56228,1,0,0:0:0:0:
256,204,56405,1,8,0:0:0:0:
256,204,56493,1,8,0:0:0:0:
261,206,56581,1,0,0:0:0:0:
250,199,56669,1,0,0:0:0:0:
256,204,56758,1,8,0:0:0:0:
256,204,56934,1,12,0:0:0:0:
256,200,57287,5,4,0:0:0:0:
256,200,57640,1,0,0:0:0:0:
256,200,57816,1,8,0:0:0:0:
256,200,57905,1,8,0:0:0:0:
256,200,57993,1,0,0:0:0:0:
256,200,58169,1,8,0:0:0:0:
256,200,58346,1,0,0:0:0:0:
260,194,58434,1,0,0:0:0:0:
252,194,58522,1,8,0:0:0:0:
256,200,58699,5,0,0:0:0:0:
256,200,58875,1,8,0:0:0:0:
256,200,59052,1,0,0:0:0:0:
256,200,59228,1,8,0:0:0:0:
256,200,59316,1,8,0:0:0:0:
256,200,59405,1,0,0:0:0:0:
256,200,59581,1,8,0:0:0:0:
256,200,59758,1,0,0:0:0:0:
256,200,60111,5,0,0:0:0:0:
256,200,60287,1,8,0:0:0:0:
256,200,60464,1,0,0:0:0:0:
256,200,60640,1,8,0:0:0:0:
256,200,60728,1,8,0:0:0:0:
256,200,60816,1,0,0:0:0:0:
256,200,60993,1,0,0:0:0:0:
256,200,61169,1,8,0:0:0:0:
256,200,61346,1,8,0:0:0:0:
256,200,61522,5,0,0:0:0:0:
256,200,61611,1,0,0:0:0:0:
256,200,61699,1,8,0:0:0:0:
256,200,61875,1,0,0:0:0:0:
256,200,61964,1,0,0:0:0:0:
256,200,62052,1,8,0:0:0:0:
256,200,62140,1,8,0:0:0:0:
256,200,62228,1,0,0:0:0:0:
264,184,62316,1,8,0:0:0:0:
256,200,62405,1,0,0:0:0:0:
256,200,62581,1,12,0:0:0:0:
256,200,62934,5,4,0:0:0:0:
256,200,63287,1,0,0:0:0:0:
256,200,63464,1,0,0:0:0:0:
256,200,63552,1,0,0:0:0:0:
256,200,63640,1,8,0:0:0:0:
256,200,63816,1,8,0:0:0:0:
256,200,63993,1,0,0:0:0:0:
256,200,64169,1,8,0:0:0:0:
256,200,64258,1,8,0:0:0:0:
256,200,64346,5,0,0:0:0:0:
252,195,64522,1,0,0:0:0:0:
256,200,64699,1,8,0:0:0:0:
256,200,64875,1,0,0:0:0:0:
256,200,64964,1,0,0:0:0:0:
256,200,65052,1,8,0:0:0:0:
256,200,65228,1,0,0:0:0:0:
256,200,65405,1,8,0:0:0:0:
256,200,65758,2,4,L|341:203,7,70,0|0|0|0|0|0|0|0,0:0|0:0|0:0|0:0|0:0|0:0|0:0|0:0,0:0:0:0:
264,188,69993,5,0,0:0:0:0:
264,188,70522,1,0,0:0:0:0:
264,188,70875,1,0,0:0:0:0:
256,192,71405,5,0,0:0:0:0:
256,192,71934,1,0,0:0:0:0:
256,192,72287,1,0,0:0:0:0:
256,192,72816,5,8,0:0:0:0:
256,192,73169,1,8,0:0:0:0:
256,192,73522,5,0,0:0:0:0:
256,192,73875,1,0,0:0:0:0:
256,192,74228,8,0,75287,0:0:0:0:
256,200,75640,5,0,0:0:0:0:
256,200,75816,1,0,0:0:0:0:
251,203,75905,1,0,0:0:0:0:
256,200,75993,1,8,0:0:0:0:
256,200,76169,1,8,0:0:0:0:
256,200,76346,1,0,0:0:0:0:
256,200,76522,1,8,0:0:0:0:
256,200,76611,1,0,0:0:0:0:
256,200,76699,1,0,0:0:0:0:
256,200,76875,1,12,0:0:0:0:
256,200,77228,5,0,0:0:0:0:
256,200,77405,1,8,0:0:0:0:
252,195,77581,1,0,0:0:0:0:
252,195,77758,1,8,0:0:0:0:
252,195,77934,1,8,0:0:0:0:
252,195,78022,1,8,0:0:0:0:
252,195,78111,1,0,0:0:0:0:
257,194,78287,1,0,0:0:0:0:
256,200,78464,5,8,0:0:0:0:
256,200,78640,1,0,0:0:0:0:
258,190,78728,1,0,0:0:0:0:
256,200,78816,1,8,0:0:0:0:
256,200,78993,1,8,0:0:0:0:
256,200,79169,1,0,0:0:0:0:
256,200,79346,1,8,0:0:0:0:
248,188,79434,1,0,0:0:0:0:
256,200,79522,1,0,0:0:0:0:
256,200,79699,1,12,0:0:0:0:
256,200,80052,5,0,0:0:0:0:
259,203,80228,1,8,0:0:0:0:
259,203,80405,1,0,0:0:0:0:
259,203,80493,1,0,0:0:0:0:
259,203,80581,1,8,0:0:0:0:
259,203,80758,1,8,0:0:0:0:
259,203,80846,1,8,0:0:0:0:
256,200,80934,1,0,0:0:0:0:
256,200,81022,1,0,0:0:0:0:
259,203,81111,1,8,0:0:0:0:
256,200,81287,5,0,0:0:0:0:
256,200,81464,1,8,0:0:0:0:
256,200,81640,1,0,0:0:0:0:
255,198,81728,1,0,0:0:0:0:
251,201,81816,1,8,0:0:0:0:
256,200,81993,1,0,0:0:0:0:
256,200,82081,1,8,0:0:0:0:
246,203,82258,1,8,0:0:0:0:
256,200,82346,1,0,0:0:0:0:
254,207,82434,1,0,0:0:0:0:
259,208,82522,1,8,0:0:0:0:
256,200,82699,5,12,0:0:0:0:
256,200,83052,5,4,0:0:0:0:
256,200,83405,5,4,0:0:0:0:
256,200,83758,5,8,0:0:0:0:
259,203,83934,1,8,0:0:0:0:
256,200,84022,1,8,0:0:0:0:
264,200,84111,1,0,0:0:0:0:
264,200,84287,5,8,0:0:0:0:
256,200,84375,1,8,0:0:0:0:
264,200,84464,1,0,0:0:0:0:
264,200,84640,5,8,0:0:0:0:
261,193,84728,1,8,0:0:0:0:
264,200,84816,1,0,0:0:0:0:
264,200,84905,1,8,0:0:0:0:
264,200,84993,1,0,0:0:0:0:
264,200,85081,1,0,0:0:0:0:
259,193,85169,1,8,0:0:0:0:
264,200,85346,1,8,0:0:0:0:
260,208,85522,5,4,0:0:0:0:
260,208,85875,5,4,0:0:0:0:
260,208,86228,5,12,0:0:0:0:
260,208,86405,5,0,0:0:0:0:
260,208,86493,1,0,0:0:0:0:
260,208,86581,1,8,0:0:0:0:
256,200,86934,5,0,0:0:0:0:
256,200,87111,1,8,0:0:0:0:
253,207,87199,1,0,0:0:0:0:
256,200,87287,1,8,0:0:0:0:
256,200,87464,1,0,0:0:0:0:
256,200,87640,1,8,0:0:0:0:
256,200,87816,1,8,0:0:0:0:
256,191,87905,1,8,0:0:0:0:
256,200,87993,1,0,0:0:0:0:
256,200,88169,1,12,0:0:0:0:
256,200,88522,5,0,0:0:0:0:
256,200,88699,1,8,0:0:0:0:
256,200,88875,1,0,0:0:0:0:
256,200,88964,1,0,0:0:0:0:
256,200,89052,1,8,0:0:0:0:
256,200,89228,1,0,0:0:0:0:
256,200,89405,1,8,0:0:0:0:
256,200,89581,1,0,0:0:0:0:
256,200,89669,1,0,0:0:0:0:
256,200,89758,5,8,0:0:0:0:
256,200,89934,1,0,0:0:0:0:
256,200,90111,1,8,0:0:0:0:
259,203,90199,1,0,0:0:0:0:
256,200,90287,1,8,0:0:0:0:
256,200,90464,1,0,0:0:0:0:
256,200,90640,1,8,0:0:0:0:
256,200,90728,1,8,0:0:0:0:
256,200,90816,1,0,0:0:0:0:
256,200,90993,1,12,0:0:0:0:
251,196,91346,5,0,0:0:0:0:
251,196,91522,1,8,0:0:0:0:
251,196,91699,1,0,0:0:0:0:
251,196,91787,1,0,0:0:0:0:
251,196,91875,1,8,0:0:0:0:
251,196,92052,1,0,0:0:0:0:
251,196,92228,1,8,0:0:0:0:
259,193,92316,1,0,0:0:0:0:
251,196,92405,1,8,0:0:0:0:
256,192,92493,1,8,0:0:0:0:
256,200,92581,5,0,0:0:0:0:
256,200,92758,1,8,0:0:0:0:
256,200,92934,1,0,0:0:0:0:
256,200,93022,1,0,0:0:0:0:
256,200,93111,1,8,0:0:0:0:
256,200,93287,1,0,0:0:0:0:
256,200,93375,1,8,0:0:0:0:
261,211,93552,1,8,0:0:0:0:
256,200,93640,1,0,0:0:0:0:
266,207,93728,1,0,0:0:0:0:
266,207,93816,1,8,0:0:0:0:
256,200,93993,5,12,0:0:0:0:
256,200,94346,5,4,0:0:0:0:
256,200,94699,5,4,0:0:0:0:
261,200,95052,5,8,0:0:0:0:
265,203,95228,1,8,0:0:0:0:
257,204,95316,1,8,0:0:0:0:
256,192,95405,1,0,0:0:0:0:
256,200,97875,5,12,0:0:0:0:
252,200,98228,5,0,0:0:0:0:
252,200,98405,1,8,0:0:0:0:
252,200,98493,1,8,0:0:0:0:
252,200,98581,1,0,0:0:0:0:
252,200,98758,1,8,0:0:0:0:
252,200,98934,5,0,0:0:0:0:
252,200,99111,1,8,0:0:0:0:
252,200,99199,1,8,0:0:0:0:
252,200,99287,1,0,0:0:0:0:
256,192,99464,1,8,0:0:0:0:
256,192,99640,5,0,0:0:0:0:
256,192,99816,1,0,0:0:0:0:
259,194,99905,1,0,0:0:0:0:
256,192,99993,1,8,0:0:0:0:
260,194,100169,1,0,0:0:0:0:
256,200,100346,5,8,0:0:0:0:
260,194,100434,1,0,0:0:0:0:
256,200,100522,1,8,0:0:0:0:
256,200,100611,1,0,0:0:0:0:
256,200,100699,1,8,0:0:0:0:
256,192,100875,8,0,102287,0:0:0:0:
256,192,103875,5,0,0:0:0:0:
256,192,104581,5,8,0:0:0:0:
256,196,105287,5,4,0:0:0:0:
256,196,105640,5,4,0:0:0:0:
256,196,105993,5,4,0:0:0:0:
266,195,106346,5,8,0:0:0:0:
256,192,106699,5,8,0:0:0:0:
260,192,106787,1,0,0:0:0:0:
256,192,106875,1,8,0:0:0:0:
256,196,106964,1,0,0:0:0:0:
260,192,107052,1,8,0:0:0:0:
260,192,107228,1,0,0:0:0:0:
260,192,107405,5,8,0:0:0:0:
260,192,107493,1,0,0:0:0:0:
260,192,107581,1,8,0:0:0:0:
260,192,107669,1,0,0:0:0:0:
260,192,107758,1,8,0:0:0:0:
260,192,107934,1,0,0:0:0:0:
260,192,108111,5,0,0:0:0:0:
260,192,108199,1,0,0:0:0:0:
260,192,108287,1,0,0:0:0:0:
260,192,108464,1,8,0:0:0:0:
260,192,108640,5,8,0:0:0:0:
260,192,108728,1,8,0:0:0:0:
260,192,108816,1,0,0:0:0:0:
260,192,108993,1,0,0:0:0:0:
260,192,109169,1,8,0:0:0:0:
249,194,109346,1,8,0:0:0:0:
256,192,109522,5,0,0:0:0:0:
256,192,109699,1,8,0:0:0:0:
259,198,109787,1,8,0:0:0:0:
260,192,109875,1,0,0:0:0:0:
260,192,110052,1,8,0:0:0:0:
260,192,110228,5,0,0:0:0:0:
260,192,110405,1,8,0:0:0:0:
260,192,110493,1,8,0:0:0:0:
260,192,110581,1,0,0:0:0:0:
260,192,110758,1,8,0:0:0:0:
260,192,110934,5,0,0:0:0:0:
260,192,111022,1,0,0:0:0:0:
260,192,111111,1,8,0:0:0:0:
260,192,111287,1,8,0:0:0:0:
260,192,111464,1,0,0:0:0:0:
260,192,111640,5,8,0:0:0:0:
260,192,111728,1,0,0:0:0:0:
260,192,111816,1,8,0:0:0:0:
260,192,111905,1,8,0:0:0:0:
260,192,111993,1,0,0:0:0:0:
256,192,112346,5,8,0:0:0:0:
256,192,112434,1,0,0:0:0:0:
256,192,112522,1,8,0:0:0:0:
260,192,112611,1,0,0:0:0:0:
260,192,112699,1,8,0:0:0:0:
260,192,112875,1,0,0:0:0:0:
260,192,113052,5,8,0:0:0:0:
260,192,113140,1,0,0:0:0:0:
260,192,113228,1,8,0:0:0:0:
260,192,113316,1,0,0:0:0:0:
260,192,113405,1,8,0:0:0:0:
260,192,113581,1,0,0:0:0:0:
260,192,113758,5,0,0:0:0:0:
260,192,113846,1,0,0:0:0:0:
260,192,113934,1,0,0:0:0:0:
260,192,114111,1,8,0:0:0:0:
260,192,114287,5,8,0:0:0:0:
260,192,114375,1,8,0:0:0:0:
260,192,114464,1,0,0:0:0:0:
260,192,114640,1,0,0:0:0:0:
260,192,114816,1,8,0:0:0:0:
260,192,114993,1,0,0:0:0:0:
260,192,115169,5,8,0:0:0:0:
260,192,115258,1,8,0:0:0:0:
260,192,115346,1,0,0:0:0:0:
260,192,115522,5,8,0:0:0:0:
256,200,115611,1,8,0:0:0:0:
256,200,115699,1,0,0:0:0:0:
256,200,115875,5,0,0:0:0:0:
256,200,115964,1,0,0:0:0:0:
256,200,116052,1,0,0:0:0:0:
256,200,116140,1,0,0:0:0:0:
256,200,116228,1,8,0:0:0:0:
268,195,116405,5,8,0:0:0:0:
268,195,116493,1,8,0:0:0:0:
256,200,116758,5,4,0:0:0:0:
256,200,117111,5,4,0:0:0:0:
256,200,117287,5,12,0:0:0:0:
251,198,117464,5,0,0:0:0:0:
256,200,117552,1,0,0:0:0:0:
256,200,117640,1,8,0:0:0:0:
256,189,117728,1,8,0:0:0:0:
256,200,117816,1,8,0:0:0:0:
256,200,117905,1,8,0:0:0:0:
256,200,117993,1,0,0:0:0:0:
256,200,118522,1,8,0:0:0:0:
256,200,118875,5,0,0:0:0:0:
256,200,119052,1,0,0:0:0:0:
256,200,119228,1,8,0:0:0:0:
256,200,119581,5,12,0:0:0:0:
256,200,119758,5,12,0:0:0:0:
256,200,119934,5,12,0:0:0:0:
256,200,120111,5,12,0:0:0:0:
