osu file format v14

[General]
AudioFilename: Marchen Debut.mp3
AudioLeadIn: 27
PreviewTime: 23405
Countdown: 0
SampleSet: Normal
StackLeniency: 0.5
Mode: 1
LetterboxInBreaks: 0
WidescreenStoryboard: 0

[Editor]
DistanceSpacing: 2.7
BeatDivisor: 2
GridSize: 4
TimelineZoom: 1.099999

[Metadata]
Title:Marchen Debut!
TitleUnicode:メルヘンデビュー!
Artist:Abe Nana (CV: Miyake Marie)
ArtistUnicode:安部菜々 (CV: 三宅麻理恵)
Creator:sing216
Version:Kantan
Source:アイドルマスター シンデレラガールズ
Tags:THE IDOLM@STER IDOL MASTER idolmaster imas im@s スターライトステージ デレステ cgss deresute CINDERELLA GIRLS STARLIGHT STAGE IOSYS ウサミン usamin ミンミンミン minminmin ミン min game music ver version yuuno yoshimi ARM japanese video game tag co-op coop pop jpop j-pop [r] ron
BeatmapID:1267686
BeatmapSetID:599727

[Difficulty]
HPDrainRate:7
CircleSize:5
OverallDifficulty:3
ApproachRate:5
SliderMultiplier:1.4
SliderTickRate:1

[Events]
//Background and Video events
0,0,"puripuriusamin.png",0,50
//Break Periods
//Storyboard Layer 0 (Background)
//Storyboard Layer 1 (Fail)
//Storyboard Layer 2 (Pass)
//Storyboard Layer 3 (Foreground)
//Storyboard Layer 4 (Overlay)
//Storyboard Sound Samples

[TimingPoints]
817,352.941176470588,4,1,0,50,1,0
10699,-100,4,1,0,60,0,0
12111,-100,4,1,0,70,0,0
23405,-100,4,1,0,80,0,1
34699,-100,4,1,0,70,0,0
75640,-100,4,1,0,80,0,1
85522,-100,4,1,0,70,0,0
86934,-100,4,1,0,80,0,1
95405,-100,4,1,0,70,0,0
106699,-100,4,1,0,80,0,1
117993,-100,4,1,0,70,0,0
119581,-100,4,1,0,80,0,0

[HitObjects]
254,196,10699,6,0,L|331:198,4,70
256,192,12111,5,4,0:0:0:0:
256,192,12816,1,8,0:0:0:0:
256,192,13522,1,0,0:0:0:0:
256,192,14934,5,8,0:0:0:0:
256,192,15640,1,8,0:0:0:0:
264,192,16346,1,0,0:0:0:0:
256,192,16699,1,0,0:0:0:0:
256,192,17052,1,8,0:0:0:0:
256,192,17758,5,4,0:0:0:0:
256,192,18464,1,8,0:0:0:0:
256,192,19169,1,0,0:0:0:0:
256,192,20581,5,0,0:0:0:0:
256,192,21287,1,0,0:0:0:0:
264,192,21993,1,8,0:0:0:0:
256,192,22346,1,8,0:0:0:0:
255,191,22699,1,0,0:0:0:0:
256,192,23405,5,4,0:0:0:0:
256,192,24111,1,0,0:0:0:0:
256,192,24464,1,0,0:0:0:0:
256,192,24816,1,0,0:0:0:0:
256,192,25522,1,8,0:0:0:0:
256,192,26228,5,0,0:0:0:0:
256,192,26934,1,0,0:0:0:0:
256,192,27287,1,0,0:0:0:0:
256,192,27640,1,8,0:0:0:0:
256,192,29052,5,4,0:0:0:0:
256,192,29758,1,0,0:0:0:0:
256,192,30111,1,0,0:0:0:0:
256,192,30464,1,0,0:0:0:0:
256,192,31169,1,8,0:0:0:0:
260,196,31875,5,0,0:0:0:0:
260,196,32228,1,8,0:0:0:0:
260,196,32581,1,0,0:0:0:0:
260,196,32934,1,8,0:0:0:0:
252,196,33993,1,12,0:0:0:0:
256,200,34699,5,0,0:0:0:0:
256,192,35405,1,8,0:0:0:0:
256,192,36111,1,0,0:0:0:0:
256,192,36464,1,0,0:0:0:0:
256,192,36816,1,8,0:0:0:0:
252,200,37522,5,0,0:0:0:0:
252,200,38228,1,0,0:0:0:0:
252,200,38934,1,8,0:0:0:0:
256,200,40346,5,0,0:0:0:0:
256,200,41052,1,8,0:0:0:0:
256,200,41758,1,0,0:0:0:0:
256,200,42111,1,0,0:0:0:0:
262,193,42464,1,8,0:0:0:0:
252,196,43169,5,0,0:0:0:0:
256,192,43522,1,8,0:0:0:0:
259,198,44228,1,8,0:0:0:0:
256,196,44581,1,0,0:0:0:0:
256,200,45993,5,0,0:0:0:0:
256,192,46699,1,8,0:0:0:0:
256,192,47405,1,0,0:0:0:0:
256,192,47758,1,0,0:0:0:0:
256,192,48111,1,8,0:0:0:0:
252,200,48816,5,0,0:0:0:0:
252,200,49522,1,0,0:0:0:0:
252,200,50228,1,8,0:0:0:0:
256,200,51640,5,0,0:0:0:0:
256,200,52346,1,8,0:0:0:0:
256,200,53052,1,0,0:0:0:0:
256,200,53405,1,0,0:0:0:0:
256,200,53758,1,8,0:0:0:0:
260,193,54111,1,8,0:0:0:0:
256,196,55875,5,0,0:0:0:0:
256,196,56228,1,0,0:0:0:0:
256,196,56581,1,8,0:0:0:0:
256,196,57287,5,4,0:0:0:0:
252,188,58346,1,8,0:0:0:0:
256,196,58699,1,0,0:0:0:0:
256,196,59758,1,8,0:0:0:0:
256,200,60111,5,0,0:0:0:0:
256,192,60816,1,0,0:0:0:0:
256,200,61522,1,8,0:0:0:0:
256,200,61875,1,0,0:0:0:0:
256,200,62228,1,8,0:0:0:0:
256,192,62934,5,4,0:0:0:0:
273,198,63993,1,8,0:0:0:0:
276,192,64346,1,0,0:0:0:0:
258,209,65052,1,8,0:0:0:0:
258,209,65405,1,8,0:0:0:0:
256,192,65758,8,0,67169,0:0:0:0:
256,196,69993,5,0,0:0:0:0:
256,192,71405,1,0,0:0:0:0:
256,192,72816,5,8,0:0:0:0:
256,196,73522,5,0,0:0:0:0:
256,196,74228,5,12,0:0:0:0:
260,188,75640,5,0,0:0:0:0:
260,188,75993,1,8,0:0:0:0:
252,200,76346,1,0,0:0:0:0:
256,192,76875,12,0,77934,0:0:0:0:
260,188,78464,5,8,0:0:0:0:
260,188,78816,1,0,0:0:0:0:
252,200,79169,1,8,0:0:0:0:
256,192,79699,12,0,80758,0:0:0:0:
256,192,81287,5,8,0:0:0:0:
256,192,81993,1,0,0:0:0:0:
256,192,82699,1,12,0:0:0:0:
256,192,83052,1,4,0:0:0:0:
256,192,83405,1,4,0:0:0:0:
256,192,84111,5,0,0:0:0:0:
256,192,84464,1,0,0:0:0:0:
256,192,84816,1,8,0:0:0:0:
249,192,85169,1,0,0:0:0:0:
248,196,86228,1,12,0:0:0:0:
260,188,86934,5,0,0:0:0:0:
252,200,87287,1,0,0:0:0:0:
259,195,87640,1,8,0:0:0:0:
256,192,88169,12,0,89228,0:0:0:0:
260,188,89758,5,8,0:0:0:0:
248,198,90111,1,8,0:0:0:0:
252,200,90464,1,0,0:0:0:0:
256,192,90993,12,0,92052,0:0:0:0:
256,192,92581,5,8,0:0:0:0:
256,192,93287,1,0,0:0:0:0:
256,192,93993,1,12,0:0:0:0:
256,192,94346,1,4,0:0:0:0:
256,192,94699,1,4,0:0:0:0:
256,192,95405,5,0,0:0:0:0:
256,192,98228,5,0,0:0:0:0:
256,192,98934,5,0,0:0:0:0:
256,192,99640,5,8,0:0:0:0:
256,192,99993,1,8,0:0:0:0:
252,195,100346,5,0,0:0:0:0:
256,192,100875,8,0,102287,0:0:0:0:
252,192,103875,5,0,0:0:0:0:
252,192,104581,5,8,0:0:0:0:
260,196,105287,5,0,0:0:0:0:
260,196,105640,1,0,0:0:0:0:
260,196,105993,1,0,0:0:0:0:
256,192,106699,5,4,0:0:0:0:
256,192,107405,1,0,0:0:0:0:
256,192,107758,1,0,0:0:0:0:
256,192,108111,1,0,0:0:0:0:
256,192,108816,1,8,0:0:0:0:
256,192,109522,5,0,0:0:0:0:
256,192,110228,1,0,0:0:0:0:
256,192,110581,1,0,0:0:0:0:
256,192,110934,1,8,0:0:0:0:
256,192,112346,5,4,0:0:0:0:
256,192,113052,1,0,0:0:0:0:
256,192,113405,1,0,0:0:0:0:
256,192,113758,1,0,0:0:0:0:
256,192,114464,1,8,0:0:0:0:
260,196,115169,5,0,0:0:0:0:
254,197,115522,1,8,0:0:0:0:
260,196,115875,1,0,0:0:0:0:
260,196,116228,1,8,0:0:0:0:
252,196,117287,1,12,0:0:0:0:
256,200,117993,5,0,0:0:0:0:
253,193,118522,1,0,0:0:0:0:
261,190,119581,5,12,0:0:0:0:
256,192,120111,5,12,0:0:0:0:
