osu file format v14

[General]
AudioFilename: audio.mp3
AudioLeadIn: 0
PreviewTime: 148826
Countdown: 0
SampleSet: Soft
StackLeniency: 0.4
Mode: 0
LetterboxInBreaks: 0
WidescreenStoryboard: 1

[Editor]
Bookmarks: 10976,32192,56059,69319,90534,115728,138269,148877,159484,188656,196612
DistanceSpacing: 1.3
BeatDivisor: 8
GridSize: 16
TimelineZoom: 2.1

[Metadata]
Title:Mada Ikemasu
TitleUnicode:まだいけます
Artist:Abe Mao
ArtistUnicode:阿部真央
Creator:Big Sis
Version:Irohas' EX
Source:
Tags:mugiwarasekai irohas midorijeon didah sayumana alevi japanese rock j-rock vaporfly red crewmate god haachama
BeatmapID:3880817
BeatmapSetID:1884638

[Difficulty]
HPDrainRate:5
CircleSize:4.1
OverallDifficulty:8.5
ApproachRate:9.2
SliderMultiplier:1.6
SliderTickRate:1

[Events]
//Background and Video events
0,0,"guitar.jpg",0,0
//Break Periods
2,138269,148339
//Storyboard Layer 0 (Background)
//Storyboard Layer 1 (Fail)
//Storyboard Layer 2 (Pass)
//Storyboard Layer 3 (Foreground)
//Storyboard Layer 4 (Overlay)
//Storyboard Sound Samples

[TimingPoints]
-925,331.491712707183,4,2,2,65,1,0
235,-100,4,2,30,65,0,0
400,-125,4,2,30,65,0,0
5207,-125,4,2,31,65,0,0
5704,-142.857142857143,4,2,31,65,0,0
5786,-142.857142857143,4,2,32,40,0,0
6036,-142.857142857143,4,2,32,65,0,0
6118,-142.857142857143,4,2,32,40,0,0
6367,-111.111111111111,4,2,32,65,0,0
6449,-111.111111111111,4,2,32,40,0,0
6699,-111.111111111111,4,2,32,65,0,0
6781,-111.111111111111,4,2,32,40,0,0
7030,-111.111111111111,4,2,32,65,0,0
7196,-111.111111111111,4,2,32,40,0,0
7362,-111.111111111111,4,2,32,65,0,0
7528,-111.111111111111,4,2,32,40,0,0
7693,-111.111111111111,4,2,32,65,0,0
7859,-111.111111111111,4,2,32,40,0,0
8025,-111.111111111111,4,2,32,65,0,0
8108,-111.111111111111,4,2,32,40,0,0
8356,-83.3333333333333,4,2,32,65,0,0
8438,-83.3333333333333,4,2,32,40,0,0
8688,-83.3333333333333,4,2,32,65,0,0
8770,-83.3333333333333,4,2,32,40,0,0
9019,-83.3333333333333,4,2,32,65,0,0
9102,-83.3333333333333,4,2,32,40,0,0
9351,-83.3333333333333,4,2,32,65,0,0
9516,-83.3333333333333,4,2,32,75,0,0
10677,-200,4,2,32,75,0,0
10718,-200,4,2,32,5,0,0
11008,-100,4,2,30,70,0,0
15483,-100,4,2,31,70,0,0
16312,-100,4,2,30,70,0,0
20787,-100,4,2,31,70,0,0
21284,-100,4,2,32,70,0,0
21616,-100,4,2,30,70,0,0
26091,-100,4,2,31,70,0,0
26920,-100,4,2,30,70,0,0
30732,-90.9090909090909,4,2,30,70,0,0
31063,-76.9230769230769,4,2,30,70,0,0
31145,-76.9230769230769,4,2,30,5,0,0
31229,-76.9230769230769,4,2,30,70,0,0
31311,-76.9230769230769,4,2,30,5,0,0
31395,-76.9230769230769,4,2,30,70,0,0
31477,-76.9230769230769,4,2,30,5,0,0
31561,-83.3333333333333,4,2,30,70,0,0
31643,-83.3333333333333,4,2,30,5,0,0
31892,-83.3333333333333,4,2,30,70,0,0
31933,-83.3333333333333,4,2,30,5,0,0
32224,-95.2380952380952,4,2,30,80,0,1
32389,-95.2380952380952,4,2,30,80,0,0
32555,-100,4,2,30,80,0,0
34876,-100,4,2,31,80,0,0
35124,-100,4,2,31,5,0,0
35207,-83.3333333333333,4,2,31,80,0,0
35289,-83.3333333333333,4,2,31,5,0,0
35539,-100,4,2,31,80,0,0
35787,-100,4,2,31,5,0,0
35870,-83.3333333333333,4,2,31,80,0,0
35952,-83.3333333333333,4,2,31,5,0,0
36202,-83.3333333333333,4,2,31,80,0,0
36533,-100,4,2,31,80,0,0
37528,-90.9090909090909,4,2,30,80,0,0
37859,-100,4,2,30,80,0,0
40179,-100,4,2,31,80,0,0
40511,-50,4,2,31,80,0,0
40552,-50,4,2,31,5,0,0
40842,-50,4,2,31,80,0,0
41215,-50,4,2,31,5,0,0
41340,-50,4,2,31,80,0,0
42831,-100,4,2,30,80,0,0
45483,-100,4,2,31,80,0,0
45731,-100,4,2,31,5,0,0
45815,-83.3333333333333,4,2,31,80,0,0
45897,-83.3333333333333,4,2,31,5,0,0
46146,-100,4,2,31,80,0,0
46394,-100,4,2,31,5,0,0
46478,-83.3333333333333,4,2,31,80,0,0
46560,-83.3333333333333,4,2,31,5,0,0
46809,-83.3333333333333,4,2,31,80,0,0
47141,-90.9090909090909,4,2,31,80,0,0
47389,-90.9090909090909,4,2,31,5,0,0
47472,-66.6666666666667,4,2,32,80,0,0
47720,-66.6666666666667,4,2,32,5,0,0
47804,-50,4,2,32,80,0,0
48052,-50,4,2,32,5,0,0
48135,-100,4,2,30,80,0,0
50456,-100,4,2,31,80,0,0
50787,-100,4,2,30,80,0,0
53439,-100,4,2,31,80,0,0
55428,-100,4,2,30,80,0,0
55760,-100,4,2,31,80,0,0
56091,-100,4,2,30,75,0,1
56257,-100,4,2,30,75,0,0
58743,-100,4,2,31,75,0,0
61395,-100,4,2,30,75,0,0
63881,-100,4,2,31,75,0,0
64047,-100,4,2,30,75,0,0
66699,-100,4,2,31,75,0,0
68356,-100,4,2,30,75,0,0
69019,-100,4,2,31,75,0,0
69351,-125,4,2,30,65,0,0
74737,-125,4,2,32,45,0,0
74986,-125,4,2,32,65,0,0
75069,-125,4,2,32,45,0,0
75318,-125,4,2,32,65,0,0
75400,-125,4,2,32,45,0,0
75649,-83.3333333333333,4,2,32,65,0,0
75731,-83.3333333333333,4,2,32,45,0,0
75981,-83.3333333333333,4,2,32,65,0,0
76063,-83.3333333333333,4,2,32,45,0,0
76312,-83.3333333333333,4,2,32,65,0,0
76395,-83.3333333333333,4,2,32,45,0,0
76644,-83.3333333333333,4,2,32,65,0,0
76726,-83.3333333333333,4,2,32,45,0,0
76975,-83.3333333333333,4,2,32,65,0,0
77058,-83.3333333333333,4,2,32,45,0,0
77307,-66.6666666666667,4,2,32,65,0,0
77389,-66.6666666666667,4,2,32,45,0,0
77638,-66.6666666666667,4,2,32,65,0,0
77720,-66.6666666666667,4,2,32,45,0,0
77970,-66.6666666666667,4,2,32,65,0,0
78052,-66.6666666666667,4,2,32,45,0,0
78301,-66.6666666666667,4,2,32,65,0,0
78467,-55.5555555555556,4,2,32,75,0,0
78549,-55.5555555555556,4,2,32,5,0,0
78798,-55.5555555555556,4,2,32,75,0,0
78880,-55.5555555555556,4,2,32,5,0,0
78964,-55.5555555555556,4,2,32,75,0,0
79046,-55.5555555555556,4,2,32,5,0,0
79130,-55.5555555555556,4,2,32,75,0,0
79709,-55.5555555555556,4,2,32,5,0,0
79793,-55.5555555555556,4,2,31,75,0,0
79958,-100,4,2,30,70,0,0
84434,-100,4,2,31,70,0,0
85262,-100,4,2,30,70,0,0
89406,-76.9230769230769,4,2,30,70,0,0
90566,-100,4,2,30,80,0,1
90732,-100,4,2,30,80,0,0
93218,-100,4,2,31,80,0,0
93466,-100,4,2,31,5,0,0
93550,-100,4,2,31,80,0,0
93632,-100,4,2,31,5,0,0
93881,-100,4,2,31,80,0,0
94129,-100,4,2,31,5,0,0
94213,-100,4,2,31,80,0,0
94295,-100,4,2,31,5,0,0
94544,-100,4,2,31,80,0,0
94876,-83.3333333333333,4,2,31,80,0,0
95124,-83.3333333333333,4,2,31,5,0,0
95207,-83.3333333333333,4,2,31,80,0,0
95455,-83.3333333333333,4,2,31,5,0,0
95539,-83.3333333333333,4,2,32,80,0,0
95870,-83.3333333333333,4,2,30,80,0,0
96202,-100,4,2,30,80,0,0
98522,-100,4,2,31,80,0,0
98770,-100,4,2,31,5,0,0
98854,-100,4,2,31,80,0,0
98936,-100,4,2,31,5,0,0
99185,-100,4,2,31,80,0,0
99433,-100,4,2,31,5,0,0
99516,-100,4,2,31,80,0,0
99598,-100,4,2,31,5,0,0
99848,-100,4,2,31,80,0,0
100345,-100,4,2,33,80,0,0
100511,-100,4,2,30,80,0,0
100842,-100,4,2,31,80,0,0
101174,-100,4,2,30,80,0,0
103826,-100,4,2,31,80,0,0
104074,-100,4,2,31,5,0,0
104157,-100,4,2,31,80,0,0
104239,-100,4,2,31,5,0,0
104489,-100,4,2,31,80,0,0
104737,-100,4,2,31,5,0,0
104820,-100,4,2,31,80,0,0
104902,-100,4,2,31,5,0,0
105152,-100,4,2,31,80,0,0
105815,-100,4,2,32,80,0,0
106478,-100,4,2,30,80,0,0
108964,-100,4,2,31,80,0,0
109130,-100,4,2,30,80,0,0
111782,-100,4,2,31,80,0,0
115760,-100,4,2,30,75,0,0
121063,-125,4,2,31,75,0,0
123715,-95.2380952380952,4,2,32,75,0,0
124876,-74.0740740740741,4,2,32,75,0,0
126367,-74.0740740740741,4,2,30,75,0,0
126533,-100,4,2,30,75,0,0
126698,-100,4,2,31,75,0,0
130345,-100,4,2,30,75,0,0
130842,-100,4,2,31,75,0,0
131340,-100,4,2,32,75,0,0
131671,-100,4,2,30,75,0,0
134323,-100,4,2,31,75,0,0
135649,-100,4,2,30,75,0,0
135981,-100,4,2,31,75,0,0
136312,-76.9230769230769,4,2,31,75,0,0
136478,-66.6666666666667,4,2,31,75,0,0
136809,-232.558139534884,4,2,32,75,0,0
148909,-125,4,2,32,65,0,0
154213,-100,4,2,32,65,0,0
154295,-100,4,2,32,40,0,0
154544,-100,4,2,32,65,0,0
154626,-100,4,2,32,40,0,0
154876,-100,4,2,32,65,0,0
154958,-100,4,2,32,40,0,0
155207,-100,4,2,32,65,0,0
155289,-100,4,2,32,40,0,0
155539,-100,4,2,32,65,0,0
155621,-100,4,2,32,40,0,0
155870,-100,4,2,32,65,0,0
155953,-100,4,2,32,40,0,0
156202,-83.3333333333333,4,2,32,65,0,0
156284,-83.3333333333333,4,2,32,40,0,0
156533,-83.3333333333333,4,2,32,65,0,0
156616,-83.3333333333333,4,2,32,40,0,0
156865,-83.3333333333333,4,2,32,65,0,0
156947,-83.3333333333333,4,2,32,40,0,0
157196,-83.3333333333333,4,2,32,65,0,0
157279,-83.3333333333333,4,2,32,40,0,0
157528,-83.3333333333333,4,2,32,65,0,0
157610,-83.3333333333333,4,2,32,40,0,0
157859,-58.8235294117647,4,2,32,65,0,0
158025,-111.111111111111,4,2,32,75,0,0
158191,-111.111111111111,4,2,32,45,0,0
159516,-100,4,2,30,80,0,1
159682,-100,4,2,30,80,0,0
162416,-100,4,2,30,5,0,0
162500,-83.3333333333333,4,2,30,80,0,0
162582,-83.3333333333333,4,2,30,5,0,0
162831,-100,4,2,30,80,0,0
163079,-100,4,2,30,5,0,0
163163,-83.3333333333333,4,2,30,80,0,0
163245,-83.3333333333333,4,2,30,5,0,0
163494,-100,4,2,30,80,0,0
164820,-100,4,2,31,80,0,0
167472,-100,4,2,30,80,0,0
167720,-100,4,2,30,5,0,0
167804,-83.3333333333333,4,2,30,80,0,0
167886,-83.3333333333333,4,2,30,5,0,0
168135,-100,4,2,30,80,0,0
168383,-100,4,2,30,5,0,0
168467,-83.3333333333333,4,2,30,80,0,0
168549,-83.3333333333333,4,2,30,5,0,0
168798,-83.3333333333333,4,2,30,80,0,0
169461,-66.6666666666667,4,2,30,80,0,0
170124,-100,4,2,30,80,0,0
170455,-100,4,2,31,80,0,0
172776,-100,4,2,30,80,0,0
173024,-100,4,2,30,5,0,0
173108,-100,4,2,30,80,0,0
173190,-100,4,2,30,5,0,0
173439,-100,4,2,30,80,0,0
173687,-100,4,2,30,5,0,0
173771,-100,4,2,30,80,0,0
173853,-100,4,2,30,5,0,0
174102,-100,4,2,30,80,0,0
174765,-100,4,2,32,80,0,0
175428,-100,4,2,31,80,0,0
178080,-100,4,2,30,80,0,0
180400,-100,4,2,31,80,0,0
180732,-100,4,2,30,80,0,0
183384,-100,4,2,31,80,0,0
185041,-90.9090909090909,4,2,31,80,0,0
185373,-90.9090909090909,4,2,30,80,0,0
185704,-90.9090909090909,4,2,32,80,0,0
186036,-90.9090909090909,4,2,31,80,0,0
187362,-90.9090909090909,4,2,30,80,0,0
188522,-90.9090909090909,4,2,31,80,0,0
188688,-100,4,2,30,75,0,1
188854,-100,4,2,30,75,0,0
191340,-100,4,2,31,75,0,0
191671,-66.6666666666667,4,2,31,75,0,0
192997,-66.6666666666667,4,2,32,75,0,0
193079,-66.6666666666667,4,2,32,5,0,0
193163,-66.6666666666667,4,2,32,75,0,0
193577,-66.6666666666667,4,2,32,5,0,0
193660,-66.6666666666667,4,2,32,75,0,0
193992,-100,4,2,30,75,0,0
195318,-100,4,2,31,75,0,0
195649,-100,4,2,30,75,0,0
195981,-100,4,2,32,75,0,0
196644,-100,4,2,30,75,0,0
201616,-100,4,2,32,75,0,0
201947,-100,4,2,31,75,0,0
202610,-83.3333333333333,4,2,31,75,0,0
203936,-83.3333333333333,4,2,30,75,0,0
204268,-83.3333333333333,4,2,32,75,0,0
204599,-83.3333333333333,4,2,31,75,0,0
205097,-83.3333333333333,4,2,30,75,0,0
205594,-83.3333333333333,4,2,31,75,0,0
205925,-100,4,2,32,75,0,0
206007,-100,4,2,32,5,0,0
206091,-100,4,2,32,75,0,0
206173,-100,4,2,32,5,0,0
206257,-100,4,2,32,75,0,0
206339,-100,4,2,32,5,0,0
206423,-100,4,2,32,75,0,0
206464,-100,4,2,32,5,0,0
206920,-100,4,2,32,75,0,0
207002,-100,4,2,32,5,0,0
207086,-100,4,2,32,75,0,0
207168,-100,4,2,32,5,0,0
207251,-100,4,2,32,75,0,0
207333,-100,4,2,32,5,0,0
207417,-100,4,2,32,75,0,0
207458,-100,4,2,32,5,0,0
207914,-250,4,2,32,60,0,0
208329,-250,4,2,32,5,0,0

[Colours]
Combo1 : 34,145,255
Combo2 : 45,187,255

[HitObjects]
474,304,235,5,8,2:0:0:0:
474,304,318,1,8,2:0:0:0:
474,304,400,2,0,L|488:238,2,64,14|2|10,2:1|2:0|2:1,2:0:0:0:
377,341,898,2,0,P|332:315|258:320,1,128,0|0,2:0|2:0,2:0:0:0:
176,374,1395,1,10,2:1:0:0:
99,284,1561,2,0,L|123:149,2,128,10|10|0,2:0|2:0|2:0,2:0:0:0:
265,193,2389,5,10,2:1:0:0:
248,105,2555,1,2,2:0:0:0:
230,18,2721,1,10,2:1:0:0:
362,121,2887,5,8,2:0:0:0:
372,113,2970,1,8,2:0:0:0:
382,107,3052,2,0,P|427:116|520:137,1,128,10|10,2:0|2:1,2:0:0:0:
265,193,3550,2,0,P|210:165|138:180,1,128,0|0,2:0|2:0,2:0:0:0:
61,124,4047,1,10,2:1:0:0:
8,201,4213,2,0,L|21:269,1,64,10|8,2:0|2:1,2:0:0:0:
118,352,4544,2,0,P|123:315|132:278,1,64,10|10,2:3|2:1,2:0:0:0:
18,372,4876,1,8,2:3:0:0:
232,278,5041,1,10,2:1:0:0:
114,184,5207,5,10,2:3:0:0:
94,191,5373,1,10,2:1:0:0:
108,204,5539,1,2,2:0:0:0:
184,112,5704,6,0,L|176:75,3,28,14|8|10|8,2:1|2:3|2:3|2:3,2:0:0:0:
253,40,6036,2,0,L|245:3,3,28,10|8|8|8,2:0|2:3|2:3|2:3,2:0:0:0:
367,85,6367,6,0,L|358:128,3,36,10|8|10|8,2:0|2:3|2:3|2:3,2:0:0:0:
436,157,6699,2,0,L|427:201,3,36,10|8|10|8,2:0|2:3|2:3|2:3,2:0:0:0:
349,233,7030,1,8,2:0:0:0:
483,289,7196,5,10,2:3:0:0:
467,293,7279,1,8,2:3:0:0:
446,298,7362,1,10,2:0:0:0:
318,354,7528,1,8,2:3:0:0:
336,355,7610,1,8,2:3:0:0:
354,364,7693,1,10,2:0:0:0:
232,272,7859,5,10,2:3:0:0:
185,263,7942,1,8,2:3:0:0:
140,278,8025,1,10,2:0:0:0:
107,313,8108,5,8,2:3:0:0:
111,328,8191,1,8,2:3:0:0:
117,344,8273,1,8,2:3:0:0:
89,374,8356,6,0,L|40:366,3,48,10|8|10|8,2:0|2:3|2:3|2:3,2:0:0:0:
140,278,8688,2,0,L|189:286,3,48,10|8|8|8,2:0|2:3|2:3|2:3,2:0:0:0:
72,202,9019,5,10,2:0:0:0:
69,180,9102,1,8,2:3:0:0:
65,156,9185,1,10,2:3:0:0:
64,129,9268,1,8,2:3:0:0:
28,95,9351,5,10,2:0:0:0:
185,180,9516,1,10,2:0:0:0:
10,284,9682,1,0,2:0:0:0:
204,73,9848,5,10,2:0:0:0:
301,48,10014,1,10,2:0:0:0:
393,95,10179,1,10,2:1:0:0:
426,189,10345,2,0,L|418:222,1,24,10|0,2:0|2:0,2:0:0:0:
475,376,10677,6,0,L|479:364,1,10,2|0,2:1|2:0,2:0:0:0:
470,343,11008,6,0,P|410:303|320:318,1,160,14|10,2:1|2:0,2:0:0:0:
195,171,11505,1,2,2:0:0:0:
124,275,11671,2,0,L|216:259,1,80,10|8,2:1|2:1,2:0:0:0:
45,206,12003,1,8,2:0:0:0:
125,372,12168,1,2,2:0:0:0:
297,217,12334,6,0,L|324:51,1,160,8|10,2:1|2:0,2:0:0:0:
195,171,12831,1,0,2:0:0:0:
400,279,12997,2,0,P|443:270|486:267,1,80,10|8,2:1|2:1,2:0:0:0:
257,384,13329,2,0,L|271:305,1,80,8|0,2:0|2:0,2:0:0:0:
155,252,13660,6,0,B|74:234|82:288|-2:275,1,160,10|10,2:1|2:0,2:0:0:0:
252,120,14157,1,2,2:0:0:0:
118,40,14323,2,0,L|132:118,1,80,10|8,2:1|2:1,2:0:0:0:
207,0,14655,1,8,2:0:0:0:
20,95,14820,1,2,2:0:0:0:
255,218,14986,5,12,2:1:0:0:
357,196,15152,1,0,2:0:0:0:
455,176,15318,1,10,2:0:0:0:
298,311,15483,2,0,P|210:266|145:283,1,160,14|8,2:1|2:1,2:0:0:0:
14,163,15981,2,0,P|60:165|93:152,1,80,8|8,2:0|2:0,2:0:0:0:
224,25,16312,6,0,L|201:157,1,120,14|0,2:1|2:0,2:0:0:0:
290,202,16644,2,0,L|374:187,1,80,10|2,2:0|2:0,2:0:0:0:
155,332,16975,2,0,B|74:314|82:368|-2:355,1,160,10|8,2:1|2:0,2:0:0:0:
171,233,17472,1,2,2:0:0:0:
275,333,17638,6,0,P|325:347|382:291,1,120,8|0,2:1|2:0,2:0:0:0:
415,208,17970,2,0,P|364:219|316:230,1,80,10|0,2:0|2:0,2:0:0:0:
512,271,18301,1,10,2:1:0:0:
342,135,18467,1,8,2:1:0:0:
493,14,18633,5,8,2:0:0:0:
461,123,18798,1,0,2:0:0:0:
258,253,18964,5,10,2:1:0:0:
212,87,19130,1,2,2:0:0:0:
371,28,19295,1,10,2:0:0:0:
432,209,19461,1,2,2:0:0:0:
199,336,19627,2,0,P|139:308|82:317,1,120,10|0,2:1|2:0,2:0:0:0:
57,342,19958,1,8,2:0:0:0:
119,156,20124,1,2,2:0:0:0:
246,246,20290,5,12,2:1:0:0:
337,225,20456,1,2,2:0:0:0:
445,293,20621,5,10,2:0:0:0:
264,151,20787,1,14,2:1:0:0:
437,68,20953,2,0,P|429:113|422:153,1,80,2|8,2:0|2:1,2:0:0:0:
244,28,21284,2,0,L|328:13,1,80,12|8,2:0|2:0,2:0:0:0:
153,240,21616,6,0,P|92:196|2:211,1,160,14|10,2:1|2:0,2:0:0:0:
64,295,22113,1,2,2:0:0:0:
252,157,22279,2,0,P|260:99|279:-8,1,160,10|8,2:1|2:0,2:0:0:0:
156,119,22776,1,2,2:0:0:0:
376,266,22942,6,0,P|371:221|360:181,1,80,8|2,2:1|2:0,2:0:0:0:
476,76,23273,2,0,L|459:165,1,80,10|2,2:0|2:0,2:0:0:0:
236,286,23605,2,0,P|171:271|103:269,1,120,10|0,2:1|2:0,2:0:0:0:
23,196,23936,2,0,L|106:182,1,80,8|0,2:0|2:0,2:0:0:0:
185,89,24268,6,0,L|168:8,1,80,10|0,2:1|2:0,2:0:0:0:
295,132,24599,2,0,P|344:158|414:143,1,120,10|0,2:0|2:0,2:0:0:0:
475,80,24931,1,10,2:1:0:0:
433,266,25097,1,8,2:1:0:0:
475,80,25262,1,8,2:0:0:0:
350,196,25428,5,2,2:0:0:0:
344,198,25511,1,0,2:0:0:0:
338,202,25594,2,0,B|257:184|265:238|181:225,1,160,12|10,2:1|2:0,2:0:0:0:
0,123,26091,2,0,P|54:140|136:86,1,160,14|8,2:1|2:1,2:0:0:0:
49,30,26588,1,8,2:0:0:0:
103,236,26754,1,8,2:0:0:0:
215,137,26920,5,14,2:1:0:0:
193,40,27086,1,2,2:0:0:0:
329,150,27251,5,10,2:0:0:0:
221,253,27417,1,2,2:0:0:0:
325,323,27583,6,0,P|379:332|413:323,1,80,10|8,2:1|2:1,2:0:0:0:
110,252,27914,2,0,L|29:269,1,80,8|2,2:0|2:0,2:0:0:0:
125,360,28246,1,8,2:1:0:0:
221,253,28412,1,2,2:0:0:0:
129,169,28577,5,10,2:0:0:0:
149,82,28743,1,2,2:0:0:0:
172,0,28909,5,10,2:1:0:0:
33,90,29075,1,8,2:1:0:0:
227,171,29240,2,0,P|266:164|316:161,1,80,8|0,2:0|2:0,2:0:0:0:
430,89,29572,2,0,P|424:57|417:2,1,80,10|2,2:1|2:0,2:0:0:0:
347,236,29903,2,0,P|387:261|468:240,1,120,10|0,2:0|2:0,2:0:0:0:
476,206,30235,1,10,2:1:0:0:
420,384,30400,1,8,2:1:0:0:
476,206,30566,1,8,2:0:0:0:
269,304,30732,6,0,P|199:286|133:292,1,132,14|0,2:1|2:0,2:0:0:0:
55,253,31063,6,0,P|29:247|40:266,1,52,10|0,2:0|2:0,2:0:0:0:
103,159,31229,6,0,P|100:132|86:148,1,52,10|0,2:0|2:0,2:0:0:0:
186,203,31395,6,0,P|212:197|194:184,1,52,10|0,2:1|2:0,2:0:0:0:
140,290,31561,6,0,L|150:340,1,48,10|0,2:0|2:0,2:0:0:0:
363,384,31892,6,0,L|369:351,1,24,2|0,2:0|2:0,2:0:0:0:
389,336,32224,6,0,P|324:345|258:359,1,126,14|0,2:1|2:0,2:0:0:0:
177,255,32555,2,0,L|266:269,1,80,10|0,2:0|2:0,2:0:0:0:
44,363,32887,6,0,P|25:323|50:249,1,120,10|0,2:1|2:0,2:0:0:0:
112,193,33218,2,0,P|105:158|93:106,1,80,10|0,2:0|2:0,2:0:0:0:
202,114,33550,1,10,2:1:0:0:
0,183,33715,1,0,2:0:0:0:
153,264,33881,1,10,2:0:0:0:
79,60,34047,1,0,2:0:0:0:
333,195,34213,5,10,2:1:0:0:
429,205,34378,1,0,2:0:0:0:
496,136,34544,1,10,2:0:0:0:
486,47,34710,1,2,2:0:0:0:
480,40,34793,1,0,2:0:0:0:
469,35,34876,6,0,P|404:46|349:56,1,120,14|0,2:1|2:0,2:0:0:0:
264,84,35207,2,0,L|276:24,1,48,8|0,2:0|2:0,2:0:0:0:
0,186,35539,6,0,P|65:197|120:207,1,120,10|0,2:1|2:0,2:0:0:0:
205,235,35870,2,0,L|193:175,1,48,8|0,2:0|2:0,2:0:0:0:
496,203,36202,5,10,2:1:0:0:
411,227,36367,1,2,2:0:0:0:
322,255,36533,2,0,L|330:218,1,20,10|0,2:0|2:0,2:0:0:0:
0,114,36865,5,10,2:1:0:0:
85,90,37030,1,0,2:0:0:0:
174,62,37196,2,0,L|166:99,1,20,10|0,2:0|2:0,2:0:0:0:
20,292,37362,5,8,2:0:0:0:
25,295,37445,1,8,2:0:0:0:
29,300,37528,2,0,B|87:309|101:271|165:283,1,132,14|0,2:1|2:0,2:0:0:0:
231,367,37859,2,0,P|190:378|142:367,1,80,10|0,2:0|2:0,2:0:0:0:
371,281,38191,2,0,P|417:272|485:318,1,120,10|0,2:1|2:0,2:0:0:0:
448,191,38522,2,0,P|454:159|467:105,1,80,10|0,2:0|2:0,2:0:0:0:
317,0,38854,6,0,L|335:92,1,80,10|0,2:1|2:0,2:0:0:0:
230,72,39185,1,10,2:0:0:0:
414,12,39351,1,0,2:0:0:0:
246,179,39516,2,0,P|204:167|165:169,1,80,10|0,2:1|2:0,2:0:0:0:
16,93,39848,2,0,P|62:88|105:80,1,80,10|2,2:0|2:0,2:0:0:0:
195,274,40179,5,14,2:1:0:0:
110,300,40345,1,0,2:0:0:0:
25,328,40511,2,0,P|11:329|22:345,1,40,8|0,2:0|2:0,2:0:0:0:
217,93,40842,5,10,2:1:0:0:
132,67,41008,1,0,2:0:0:0:
47,39,41174,2,0,P|33:38|44:22,1,40,8|0,2:0|2:0,2:0:0:0:
127,210,41340,5,2,2:0:0:0:
106,192,41423,1,0,2:0:0:0:
130,183,41505,1,10,2:1:0:0:
259,327,41671,5,10,2:0:0:0:
261,346,41754,1,8,2:0:0:0:
263,365,41837,1,10,2:1:0:0:
334,248,42003,5,8,2:0:0:0:
351,254,42086,1,8,2:0:0:0:
369,261,42168,1,10,2:1:0:0:
324,126,42334,5,8,2:0:0:0:
342,129,42417,1,8,2:0:0:0:
361,131,42500,5,8,2:0:0:0:
380,92,42583,1,8,2:0:0:0:
411,81,42666,1,8,2:0:0:0:
447,87,42749,1,8,2:0:0:0:
476,114,42831,6,0,L|458:209,1,80,14|0,2:1|2:0,2:0:0:0:
386,325,43163,2,0,P|429:317|474:314,1,80,10|0,2:0|2:0,2:0:0:0:
284,234,43494,2,0,P|234:261|164:247,1,120,10|0,2:1|2:0,2:0:0:0:
217,165,43826,1,10,2:0:0:0:
246,349,43992,1,0,2:0:0:0:
94,219,44157,6,0,P|101:172|112:131,1,80,10|0,2:1|2:0,2:0:0:0:
7,27,44489,2,0,L|23:111,1,80,10|0,2:0|2:0,2:0:0:0:
245,240,44820,6,0,B|326:222|318:276|402:263,1,160,10|10,2:1|2:0,2:0:0:0:
512,117,45318,1,2,2:0:0:0:
419,146,45483,6,0,P|356:112|299:123,1,120,14|0,2:1|2:0,2:0:0:0:
237,56,45815,2,0,L|250:-7,1,48,8|0,2:0|2:0,2:0:0:0:
0,281,46146,6,0,P|63:247|120:258,1,120,10|0,2:1|2:0,2:0:0:0:
212,187,46478,2,0,L|199:250,1,48,8|0,2:0|2:0,2:0:0:0:
363,381,46809,5,8,2:1:0:0:
435,170,46975,1,2,2:0:0:0:
500,316,47141,6,0,P|445:274|373:285,1,132,10|0,2:0|2:0,2:0:0:0:
277,210,47472,6,0,B|232:171|233:108|270:88|312:89|324:139,1,180,14|0,2:1|2:0,2:0:0:0:
155,269,47804,6,0,B|29:233|29:233|44:280|44:280|30:279|30:279|-12:325,1,240,14|0,2:0|2:0,2:0:0:0:
99,384,48135,6,0,P|144:352|214:358,1,120,14|0,2:1|2:0,2:0:0:0:
309,324,48467,2,0,P|339:330|398:344,1,80,10|0,2:0|2:0,2:0:0:0:
222,221,48798,2,0,P|228:188|245:98,1,120,10|0,2:1|2:0,2:0:0:0:
136,16,49130,2,0,L|153:105,1,80,10|0,2:0|2:0,2:0:0:0:
79,182,49461,6,0,P|42:196|-2:188,1,80,10|0,2:1|2:0,2:0:0:0:
254,59,49793,2,0,L|341:74,1,80,10|0,2:0|2:0,2:0:0:0:
503,163,50124,1,10,2:1:0:0:
318,221,50290,1,8,2:1:0:0:
443,69,50456,5,14,2:0:0:0:
414,188,50621,1,2,2:0:0:0:
387,328,50787,6,0,B|335:291|290:296|290:296|272:326|236:324,1,160,14|8,2:1|2:0,2:0:0:0:
166,369,51284,1,2,2:0:0:0:
119,193,51450,6,0,P|129:146|154:23,1,160,10|8,2:1|2:0,2:0:0:0:
18,170,51947,1,2,2:0:0:0:
188,250,52113,1,10,2:1:0:0:
93,73,52279,1,10,2:1:0:0:
239,171,52445,1,10,2:0:0:0:
48,318,52610,1,8,2:1:0:0:
180,383,52776,5,10,2:0:0:0:
125,175,52942,1,8,2:1:0:0:
180,383,53108,1,8,2:0:0:0:
125,175,53273,1,2,2:0:0:0:
299,279,53439,6,0,B|380:261|372:315|456:302,1,160,14|8,2:1|2:0,2:0:0:0:
323,362,53936,1,2,2:0:0:0:
178,249,54102,6,0,P|104:290|27:268,1,160,10|8,2:1|2:0,2:0:0:0:
102,184,54599,1,2,2:0:0:0:
269,286,54765,1,10,2:1:0:0:
107,383,54931,1,10,2:1:0:0:
237,123,55097,1,10,2:0:0:0:
385,373,55262,5,8,2:1:0:0:
165,247,55428,1,14,2:0:0:0:
373,147,55594,1,8,2:1:0:0:
294,266,55760,6,0,L|301:300,6,20,14|0|0|0|0|0|0,2:0|2:0|2:0|2:0|2:0|2:0|2:0,2:0:0:0:
313,304,56091,6,0,L|391:290,1,80,14|0,2:1|2:0,2:0:0:0:
143,159,56423,2,0,P|66:176|16:181,1,120,10|0,2:0|2:0,2:0:0:0:
128,265,56754,2,0,L|113:355,1,80,10|0,2:1|2:0,2:0:0:0:
224,215,57086,1,10,2:0:0:0:
16,285,57251,1,0,2:0:0:0:
209,384,57417,2,0,P|269:344|359:359,1,160,10|10,2:1|2:0,2:0:0:0:
435,310,57914,1,0,2:0:0:0:
356,178,58080,6,0,L|386:18,1,160,10|10,2:1|2:0,2:0:0:0:
462,188,58577,1,0,2:0:0:0:
406,351,58743,5,12,2:1:0:0:
314,328,58909,1,2,2:0:0:0:
220,304,59075,2,0,L|228:341,1,20,10|0,2:0|2:0,2:0:0:0:
0,228,59406,5,8,2:1:0:0:
92,205,59572,1,2,2:0:0:0:
186,181,59737,2,0,L|178:218,1,20,10|0,2:0|2:0,2:0:0:0:
462,151,60069,5,8,2:1:0:0:
370,128,60235,1,2,2:0:0:0:
276,104,60400,2,0,L|284:141,1,20,10|0,2:0|2:0,2:0:0:0:
13,68,60732,5,8,2:1:0:0:
105,45,60898,1,2,2:0:0:0:
199,21,61063,2,0,L|191:58,1,20,14|0,2:0|2:0,2:0:0:0:
132,278,61229,1,0,2:0:0:0:
0,206,61395,6,0,B|77:212|78:167|154:176,1,160,14|10,2:1|2:0,2:0:0:0:
254,228,61892,1,0,2:0:0:0:
343,161,62058,2,0,P|335:117|327:74,1,80,10|0,2:1|2:0,2:0:0:0:
439,194,62389,1,10,2:0:0:0:
333,282,62555,1,0,2:0:0:0:
432,350,62721,6,0,P|480:340|530:337,1,80,10|0,2:1|2:0,2:0:0:0:
254,228,63052,1,10,2:0:0:0:
295,384,63218,1,0,2:0:0:0:
355,170,63384,5,10,2:1:0:0:
153,305,63550,1,8,2:0:0:0:
146,332,63633,1,8,2:0:0:0:
140,358,63715,1,10,2:0:0:0:
249,315,63881,1,8,2:3:0:0:
84,227,64047,6,0,P|41:234|-7:245,1,80,12|2,2:1|2:0,2:0:0:0:
151,110,64378,2,0,P|203:143|300:117,1,160,10|8,2:0|2:1,2:0:0:0:
432,0,64876,1,10,2:1:0:0:
493,97,65041,2,0,L|412:84,1,80,10|0,2:0|2:0,2:0:0:0:
246,222,65373,2,0,P|292:223|331:207,1,80,8|10,2:1|2:1,2:0:0:0:
295,1,65704,1,10,2:0:0:0:
258,116,65870,1,8,2:1:0:0:
462,283,66036,5,10,2:0:0:0:
372,160,66202,1,8,2:1:0:0:
360,366,66367,5,10,2:0:0:0:
465,93,66533,1,0,2:0:0:0:
264,213,66699,2,0,P|215:208|169:203,1,80,12|2,2:1|2:0,2:0:0:0:
13,312,67030,2,0,P|80:298|157:369,1,160,10|8,2:0|2:1,2:0:0:0:
14,207,67528,1,10,2:1:0:0:
95,130,67693,2,0,P|86:90|75:40,1,80,10|0,2:0|2:0,2:0:0:0:
264,213,68025,2,0,P|272:175|283:120,1,80,8|10,2:1|2:1,2:0:0:0:
166,245,68356,5,14,2:0:0:0:
269,369,68522,1,8,2:0:0:0:
274,348,68605,1,8,2:0:0:0:
278,330,68688,1,8,2:0:0:0:
365,277,68854,5,8,2:3:0:0:
167,384,69019,2,0,P|107:355|48:362,1,120,8|0,2:3|2:0,2:0:0:0:
28,337,69351,6,0,P|38:285|54:199,2,128,14|10|10,2:1|2:1|2:1,2:0:0:0:
306,217,70345,2,0,L|232:229,1,64,8|2,2:1|2:0,2:0:0:0:
162,180,70677,6,0,P|170:143|178:106,2,64,8|2|10,2:1|2:0|2:1,2:0:0:0:
82,242,71174,1,2,2:0:0:0:
151,314,71340,2,0,P|203:288|275:299,1,128,10|8,2:1|2:1,2:0:0:0:
341,353,71837,1,0,2:0:0:0:
416,280,72003,6,0,P|408:237|402:206,1,64,10|2,2:1|2:0,2:0:0:0:
454,157,72334,2,0,P|446:200|440:231,1,64,10|2,2:1|2:0,2:0:0:0:
359,71,72666,2,0,P|403:40|477:48,1,128,10|10,2:1|2:1,2:0:0:0:
329,161,73163,1,2,2:0:0:0:
229,108,73329,6,0,P|187:117|98:132,1,128,8|10,2:1|2:1,2:0:0:0:
0,232,73826,2,0,P|53:259|123:245,1,128,2|0,2:0|2:0,2:0:0:0:
253,264,74323,2,0,P|250:232|235:194,1,64,8|0,2:1|2:0,2:0:0:0:
146,300,74655,5,10,2:1:0:0:
139,312,74737,1,8,2:3:0:0:
137,327,74820,1,10,2:3:0:0:
139,340,74903,1,8,2:3:0:0:
119,369,74986,5,10,2:1:0:0:
131,362,75069,1,8,2:3:0:0:
145,361,75152,1,10,2:3:0:0:
158,361,75235,1,8,2:3:0:0:
185,378,75318,5,10,2:1:0:0:
214,373,75400,1,8,2:3:0:0:
240,369,75483,1,8,2:3:0:0:
267,364,75566,1,8,2:3:0:0:
298,341,75649,6,0,L|287:288,1,48,8|8,2:1|2:3,2:0:0:0:
435,384,75815,2,0,P|439:358|448:331,1,48,10|8,2:3|2:3,2:0:0:0:
499,249,75981,5,8,2:1:0:0:
466,283,76063,1,8,2:3:0:0:
420,292,76146,1,10,2:3:0:0:
376,274,76229,1,8,2:3:0:0:
351,227,76312,5,10,2:1:0:0:
353,212,76395,1,8,2:3:0:0:
356,198,76478,1,10,2:3:0:0:
359,184,76561,1,8,2:3:0:0:
324,153,76644,5,10,2:1:0:0:
334,138,76726,1,8,2:3:0:0:
339,120,76809,1,8,2:3:0:0:
336,101,76892,1,8,2:3:0:0:
362,81,76975,5,8,2:1:0:0:
357,52,77058,1,8,2:3:0:0:
326,32,77141,1,8,2:3:0:0:
283,39,77224,1,8,2:3:0:0:
250,70,77307,6,0,L|187:60,3,60,10|8|10|8,2:1|2:3|2:3|2:3,2:0:0:0:
94,0,77638,6,0,L|31:10,3,60,10|8|10|8,2:1|2:3|2:3|2:3,2:0:0:0:
168,143,77970,2,0,L|182:74,1,60,10|8,2:1|2:3,2:0:0:0:
37,160,78135,2,0,L|48:218,1,60,8|8,2:3|2:3,2:0:0:0:
154,330,78301,2,0,L|165:271,1,60,10|0,2:0|2:0,2:0:0:0:
56,348,78467,6,0,P|35:335|44:364,1,71.9999999999999,10|0,2:0|2:0,2:0:0:0:
439,344,78798,6,0,P|454:320|427:327,1,71.9999999999999,10|0,2:0|2:0,2:0:0:0:
370,207,78964,6,0,P|351:185|351:213,1,71.9999999999999,10|0,2:0|2:0,2:0:0:0:
255,262,79130,6,0,P|228:270|254:281,1,71.9999999999999,10|8,2:0|2:0,2:0:0:0:
327,381,79295,6,0,L|342:304,1,71.9999999999999,10|8,2:1|2:0,2:0:0:0:
215,155,79461,2,0,L|230:78,1,71.9999999999999,8|8,2:0|2:0,2:0:0:0:
318,25,79627,6,0,B|315:3|315:3|302:-21|301:6|320:27,1,71.9999999999999,10|0,2:0|2:0,2:0:0:0:
396,73,79793,1,8,2:3:0:0:
215,155,79958,6,0,B|134:137|142:191|58:178,1,160,14|10,2:1|2:0,2:0:0:0:
235,279,80456,1,2,2:0:0:0:
137,379,80621,2,0,L|121:296,1,80,10|8,2:1|2:1,2:0:0:0:
298,198,80953,2,0,P|341:204|390:212,1,80,8|2,2:0|2:0,2:0:0:0:
503,66,81284,6,0,P|454:105|360:89,1,160,8|10,2:1|2:0,2:0:0:0:
257,15,81782,1,0,2:0:0:0:
182,98,81947,2,0,L|198:178,1,80,10|8,2:1|2:1,2:0:0:0:
317,286,82279,2,0,P|327:232|318:204,1,80,8|0,2:0|2:0,2:0:0:0:
160,310,82610,6,0,P|99:297|-2:290,1,160,10|10,2:1|2:0,2:0:0:0:
143,208,83108,1,2,2:0:0:0:
291,370,83273,6,0,B|368:376|369:331|445:340,1,160,10|8,2:1|2:0,2:0:0:0:
508,272,83771,1,2,2:0:0:0:
420,157,83936,6,0,P|430:110|455:-16,1,160,12|10,2:1|2:0,2:0:0:0:
316,115,84434,2,0,P|269:148|169:132,1,160,14|8,2:1|2:1,2:0:0:0:
21,54,84931,2,0,P|83:42|118:39,1,80,8|8,2:0|2:0,2:0:0:0:
72,232,85262,6,0,L|54:145,2,80,14|2|10,2:1|2:0|2:0,2:0:0:0:
163,294,85760,1,2,2:0:0:0:
72,361,85925,5,8,2:1:0:0:
277,251,86091,1,8,2:1:0:0:
155,172,86257,1,8,2:0:0:0:
229,384,86423,1,2,2:0:0:0:
277,251,86588,6,0,P|274:209|261:163,1,80,8|2,2:1|2:0,2:0:0:0:
390,43,86920,2,0,L|372:139,1,80,10|2,2:0|2:0,2:0:0:0:
177,48,87251,5,10,2:1:0:0:
275,27,87417,1,8,2:1:0:0:
486,234,87583,5,8,2:0:0:0:
388,213,87749,1,0,2:0:0:0:
253,304,87914,6,0,P|245:256|237:219,1,80,10|2,2:1|2:0,2:0:0:0:
361,349,88246,2,0,P|409:361|447:351,1,80,10|2,2:0|2:0,2:0:0:0:
139,278,88577,2,0,P|75:268|-3:328,1,160,8|8,2:1|2:0,2:0:0:0:
208,172,89075,6,0,P|198:124|182:42,1,120,14|0,2:1|2:0,2:0:0:0:
281,51,89406,6,0,L|337:63,1,52,10|0,2:0|2:0,2:0:0:0:
455,173,89572,2,0,L|404:162,1,52,10|0,2:0|2:0,2:0:0:0:
439,10,89737,6,0,L|451:60,1,52,10|0,2:1|2:0,2:0:0:0:
314,236,89903,2,0,L|301:185,1,52,10|0,2:0|2:0,2:0:0:0:
402,311,90069,2,0,P|401:292|411:310,1,52,8|0,2:1|2:0,2:0:0:0:
458,375,90235,2,0,P|397:349|304:350,1,156,2|0,2:0|2:0,2:0:0:0:
224,304,90566,6,0,P|175:313|53:336,1,160,14|10,2:1|2:0,2:0:0:0:
218,177,91063,1,0,2:0:0:0:
80,127,91229,2,0,L|101:215,1,80,10|0,2:1|2:0,2:0:0:0:
302,69,91561,2,0,L|213:55,1,80,10|0,2:0|2:0,2:0:0:0:
361,195,91892,6,0,P|425:158|509:172,2,160,10|10|10,2:1|2:0|2:1,2:0:0:0:
199,294,92721,1,0,2:0:0:0:
292,357,92887,2,0,P|296:312|302:277,1,80,10|2,2:0|2:0,2:0:0:0:
155,197,93218,6,0,P|96:209|32:222,1,120,14|0,2:1|2:0,2:0:0:0:
4,252,93550,2,0,L|51:257,1,40,8|0,2:0|2:0,2:0:0:0:
158,57,93881,6,0,P|99:69|35:82,1,120,10|0,2:1|2:0,2:0:0:0:
7,112,94213,2,0,L|54:117,1,40,8|0,2:0|2:0,2:0:0:0:
232,209,94544,6,0,P|276:201|327:197,1,80,10|0,2:1|2:0,2:0:0:0:
512,324,94876,6,0,P|460:282|392:292,1,144,10|0,2:0|2:0,2:0:0:0:
311,197,95207,6,0,B|344:163|328:116|328:116|327:151|362:159,1,144,10|0,2:1|2:0,2:0:0:0:
444,128,95539,5,14,2:0:0:0:
258,314,95704,1,8,2:0:0:0:
253,335,95787,1,8,2:0:0:0:
248,356,95870,1,14,2:1:0:0:
356,275,96036,1,0,2:0:0:0:
145,172,96202,2,0,L|161:258,1,80,10|0,2:0|2:0,2:0:0:0:
79,335,96533,6,0,P|28:326|-12:323,1,80,10|0,2:1|2:0,2:0:0:0:
266,223,96865,2,0,L|345:238,1,80,10|0,2:0|2:0,2:0:0:0:
500,66,97196,1,10,2:1:0:0:
334,132,97362,1,0,2:0:0:0:
436,218,97528,5,10,2:0:0:0:
464,297,97693,1,0,2:0:0:0:
387,363,97859,5,10,2:1:0:0:
496,147,98025,1,0,2:0:0:0:
304,266,98191,1,10,2:0:0:0:
291,277,98356,1,2,2:0:0:0:
251,350,98522,6,0,P|244:295|231:210,1,120,14|0,2:1|2:0,2:0:0:0:
306,169,98854,2,0,P|318:158|304:166,1,40,8|0,2:0|2:0,2:0:0:0:
120,0,99185,6,0,P|127:55|140:140,1,120,10|0,2:1|2:0,2:0:0:0:
57,160,99516,2,0,P|45:149|59:157,1,40,8|0,2:0|2:0,2:0:0:0:
176,304,99848,5,10,2:1:0:0:
202,276,99931,1,8,2:0:0:0:
241,268,100014,1,10,2:0:0:0:
280,277,100097,1,8,2:0:0:0:
313,306,100179,5,10,2:0:0:0:
334,302,100262,1,8,2:0:0:0:
352,297,100345,1,8,2:3:0:0:
368,296,100428,1,8,2:3:0:0:
391,313,100511,6,0,L|379:365,3,40,10|8|8|8,2:3|2:3|2:3|2:3,2:0:0:0:
268,381,100842,5,8,2:3:0:0:
485,263,101008,1,8,2:3:0:0:
490,287,101091,1,8,2:3:0:0:
497,315,101174,1,14,2:1:0:0:
334,211,101340,1,0,2:0:0:0:
433,153,101505,6,0,P|477:161|528:174,1,80,10|0,2:0|2:0,2:0:0:0:
293,2,101837,2,0,L|311:89,1,80,10|0,2:1|2:0,2:0:0:0:
217,235,102168,2,0,P|161:222|93:220,1,120,10|0,2:0|2:0,2:0:0:0:
61,192,102500,6,0,P|43:136|99:54,2,160,10|10|10,2:1|2:0|2:1,2:0:0:0:
217,235,103329,1,0,2:0:0:0:
128,356,103494,2,0,L|115:275,1,80,10|2,2:0|2:0,2:0:0:0:
483,327,103826,6,0,P|427:338|347:354,1,120,14|0,2:1|2:0,2:0:0:0:
287,297,104157,2,0,L|278:343,1,40,8|0,2:0|2:0,2:0:0:0:
0,224,104489,6,0,P|56:235|136:251,1,120,10|0,2:1|2:0,2:0:0:0:
196,194,104820,2,0,L|205:240,1,40,8|0,2:0|2:0,2:0:0:0:
319,67,105152,6,0,P|310:113|300:163,1,80,10|2,2:1|2:0,2:0:0:0:
512,295,105483,2,0,P|472:251|397:264,1,120,10|0,2:0|2:0,2:0:0:0:
336,292,105815,1,14,2:1:0:0:
321,291,105898,1,0,2:0:0:0:
304,289,105981,5,8,2:0:0:0:
265,271,106063,1,8,2:0:0:0:
220,288,106146,1,10,2:0:0:0:
208,322,106229,1,8,2:0:0:0:
221,357,106312,1,8,2:0:0:0:
254,378,106395,1,8,2:0:0:0:
288,341,106478,6,0,P|279:293|257:174,2,160,14|10|10,2:1|2:0|2:1,2:0:0:0:
494,206,107307,1,0,2:0:0:0:
404,122,107472,2,0,L|389:204,1,80,10|0,2:0|2:0,2:0:0:0:
331,31,107804,5,10,2:1:0:0:
510,114,107970,1,0,2:0:0:0:
298,211,108135,1,10,2:0:0:0:
390,124,108301,5,0,2:0:0:0:
346,338,108467,1,10,2:1:0:0:
149,264,108633,1,8,2:0:0:0:
177,259,108715,1,8,2:0:0:0:
206,254,108798,1,10,2:0:0:0:
184,353,108964,1,10,2:3:0:0:
84,188,109130,6,0,P|94:132|115:18,1,160,14|8,2:1|2:0,2:0:0:0:
204,181,109627,1,2,2:0:0:0:
144,286,109793,2,0,P|87:247|-19:272,1,160,10|8,2:1|2:0,2:0:0:0:
204,181,110290,1,2,2:0:0:0:
344,284,110456,1,10,2:1:0:0:
194,381,110621,1,10,2:1:0:0:
338,162,110787,1,10,2:0:0:0:
338,162,110953,1,8,2:1:0:0:
456,336,111119,5,10,2:0:0:0:
218,254,111284,1,8,2:1:0:0:
457,224,111450,5,8,2:0:0:0:
194,381,111616,1,2,2:0:0:0:
344,284,111782,6,0,P|361:184|375:124,1,160,14|8,2:1|2:0,2:0:0:0:
457,224,112279,1,2,2:0:0:0:
228,271,112445,2,0,B|144:251|144:251|119:284|72:280,1,160,10|8,2:1|2:0,2:0:0:0:
0,194,112942,1,2,2:0:0:0:
86,136,113108,6,0,P|134:146|178:155,1,80,10|10,2:1|2:1,2:0:0:0:
303,20,113439,2,0,L|211:39,1,80,10|8,2:0|2:1,2:0:0:0:
394,159,113771,2,0,P|448:146|524:140,1,120,10|0,2:0|2:0,2:0:0:0:
432,238,114102,6,0,P|364:198|282:206,1,160,14|8,2:0|2:1,2:0:0:0:
190,257,114599,1,10,2:0:0:0:
95,233,114765,1,10,2:0:0:0:
0,155,114931,5,10,2:0:0:0:
89,132,115097,1,10,2:0:0:0:
189,158,115262,5,10,2:0:0:0:
57,367,115428,1,10,2:0:0:0:
190,257,115594,5,10,2:0:0:0:
69,37,115760,5,14,2:1:0:0:
169,73,115925,1,2,2:0:0:0:
256,19,116091,1,10,2:0:0:0:
415,113,116340,5,2,2:0:0:0:
428,120,116423,2,0,L|513:109,1,80,10|2,2:1|2:0,2:0:0:0:
419,13,116754,1,8,2:0:0:0:
477,212,116920,1,2,2:0:0:0:
311,153,117086,6,0,P|318:116|326:69,1,80,8|2,2:1|2:0,2:0:0:0:
172,217,117417,1,8,2:0:0:0:
263,301,117583,2,0,P|313:265|408:276,1,160,2|2,2:0|2:0,2:0:0:0:
172,217,118080,2,0,P|124:227|80:236,1,80,8|2,2:0|2:0,2:0:0:0:
175,326,118412,1,8,2:1:0:0:
101,131,118577,2,0,P|107:94|107:44,1,80,2|10,2:0|2:0,2:0:0:0:
264,180,118992,5,2,2:0:0:0:
278,185,119075,2,0,B|355:191|356:146|432:155,1,160,10|10,2:1|2:0,2:0:0:0:
510,297,119572,5,2,2:0:0:0:
501,293,119655,1,0,2:0:0:0:
493,288,119737,2,0,B|428:268|428:268|390:280|397:320,1,120,8|0,2:1|2:0,2:0:0:0:
454,380,120069,1,8,2:0:0:0:
265,261,120235,1,2,2:0:0:0:
411,168,120400,1,8,2:1:0:0:
320,384,120566,1,2,2:0:0:0:
405,284,120732,1,12,2:0:0:0:
223,83,120898,1,2,2:0:0:0:
0,250,121063,6,0,B|58:203|165:277|165:277|193:148|321:161,1,384,14|8,2:1|2:0,2:0:0:0:
512,289,122224,1,2,2:0:0:0:
388,384,122389,6,0,P|394:343|427:194,1,192,10|0,2:1|2:0,2:0:0:0:
324,6,123052,2,0,B|270:39|265:109|265:109|302:125|308:166,1,192,10|8,2:1|2:0,2:0:0:0:
192,251,123715,6,0,B|130:328|27:291|27:291|71:297|98:263,1,252,14|2,2:1|2:0,2:0:0:0:
278,363,124295,1,2,2:0:0:0:
288,372,124378,2,0,P|339:323|476:331,1,210,14|0,2:1|2:0,2:0:0:0:
337,160,124876,2,0,L|324:224,1,54,10|10,2:0|2:0,2:0:0:0:
466,143,125041,1,10,2:1:0:0:
252,30,125207,5,8,2:0:0:0:
240,57,125290,1,8,2:0:0:0:
244,84,125373,1,8,2:1:0:0:
419,287,125539,1,10,2:0:0:0:
431,260,125621,1,10,2:0:0:0:
427,233,125704,1,10,2:1:0:0:
232,216,125870,1,8,2:0:0:0:
216,222,125953,1,8,2:0:0:0:
200,231,126036,5,10,2:0:0:0:
154,224,126119,1,8,2:0:0:0:
106,216,126202,1,8,2:0:0:0:
60,207,126284,1,8,2:0:0:0:
39,214,126367,5,12,2:1:0:0:
210,384,126533,2,0,P|216:348|226:291,1,80,2|14,2:0|2:0,2:0:0:0:
74,10,126865,2,0,P|68:46|58:103,1,80,2|10,2:0|2:1,2:0:0:0:
210,186,127196,2,0,P|272:141|358:152,1,160,2|2,2:0|2:0,2:0:0:0:
473,59,127693,2,0,L|449:181,1,120,10|0,2:1|2:0,2:0:0:0:
501,244,128025,1,10,2:0:0:0:
347,326,128191,6,0,B|258:301|258:301|233:333|193:328,1,160,2|2,2:0|2:0,2:0:0:0:
125,268,128605,1,0,2:0:0:0:
116,256,128688,2,0,L|126:212,3,40,10|0|2|0,2:0|2:0|2:0|2:0,2:0:0:0:
38,308,129019,5,12,2:1:0:0:
211,240,129185,2,0,P|255:250|298:262,1,80,2|10,2:0|2:0,2:0:0:0:
109,161,129516,2,0,L|21:184,1,80,2|10,2:0|2:1,2:0:0:0:
178,0,129848,2,0,P|214:9|222:123,1,160,2|2,2:0|2:0,2:0:0:0:
448,222,130345,1,14,2:1:0:0:
339,276,130511,2,0,P|344:234|355:190,1,80,2|10,2:0|2:0,2:0:0:0:
175,288,130842,6,0,B|98:278|101:336|13:325,1,160,14|10,2:1|2:1,2:0:0:0:
260,115,131340,2,0,L|245:198,1,80,14|0,2:0|2:0,2:0:0:0:
157,75,131671,1,14,2:1:0:0:
356,167,131837,1,2,2:0:0:0:
364,172,131920,1,0,2:0:0:0:
371,176,132003,2,0,L|419:168,3,40,10|0|2|0,2:0|2:0|2:0|2:0,2:0:0:0:
469,98,132334,5,10,2:1:0:0:
317,254,132500,1,2,2:0:0:0:
305,262,132583,1,0,2:0:0:0:
297,280,132666,5,10,2:0:0:0:
302,305,132749,1,0,2:0:0:0:
307,328,132831,1,2,2:0:0:0:
314,359,132914,1,0,2:0:0:0:
286,384,132997,6,0,L|234:376,3,40,10|0|2|0,2:1|2:0|2:0|2:0,2:0:0:0:
172,314,133329,2,0,L|120:322,3,40,10|0|2|0,2:0|2:0|2:0|2:0,2:0:0:0:
59,369,133660,2,0,P|32:372|4:268,1,160,10|8,2:1|2:0,2:0:0:0:
69,101,134157,5,8,2:0:0:0:
80,106,134240,1,8,2:0:0:0:
91,110,134323,2,0,B|181:86|181:86|133:240,1,240,14|2,2:1|2:0,2:0:0:0:
271,327,134986,2,0,L|403:307,1,120,8|0,2:1|2:0,2:0:0:0:
478,343,135318,1,8,2:0:0:0:
291,189,135483,1,2,2:0:0:0:
452,68,135649,5,14,2:1:0:0:
422,150,135815,1,2,2:0:0:0:
317,34,135981,5,14,2:0:0:0:
512,184,136146,1,2,2:0:0:0:
300,284,136312,2,0,L|311:226,1,52,10|0,2:0|2:0,2:0:0:0:
190,141,136478,6,0,P|197:179|200:214,1,60,10|0,2:0|2:0,2:0:0:0:
396,342,136644,2,0,P|399:312|410:281,1,60,10|0,2:0|2:0,2:0:0:0:
209,304,136809,2,0,P|147:290|7:390,1,240.8,14|0,2:0|2:0,2:0:0:0:
369,266,148909,6,0,L|382:196,2,64,10|2|10,2:1|2:0|2:1,2:0:0:0:
475,373,149406,2,0,P|498:329|470:243,1,128,2|2,2:0|2:0,2:0:0:0:
362,356,149903,1,10,2:1:0:0:
261,318,150069,6,0,L|133:339,1,128,2|2,2:0|2:0,2:0:0:0:
21,255,150566,2,0,P|63:256|89:264,1,64,10|2,2:1|2:0,2:0:0:0:
214,162,150898,2,0,P|179:172|148:171,1,64,10|2,2:1|2:0,2:0:0:0:
51,96,151229,2,0,L|67:163,1,64,10|2,2:1|2:0,2:0:0:0:
247,270,151561,6,0,P|297:241|379:248,1,128,10|8,2:1|2:1,2:0:0:0:
468,294,152058,1,2,2:0:0:0:
425,174,152224,6,0,P|435:129|455:30,1,128,10|8,2:1|2:1,2:0:0:0:
337,94,152721,1,2,2:0:0:0:
247,72,152887,1,10,2:1:0:0:
153,48,153052,1,2,2:0:0:0:
59,141,153218,6,0,L|130:125,1,64,10|0,2:1|2:0,2:0:0:0:
34,233,153550,6,0,L|105:217,1,64,10|0,2:1|2:0,2:0:0:0:
0,331,153881,6,0,L|71:315,1,64,10|0,2:1|2:0,2:0:0:0:
171,266,154213,6,0,L|160:310,3,40,10|8|8|8,2:0|2:3|2:3|2:3,2:0:0:0:
235,366,154544,2,0,L|243:322,3,40,10|8|8|8,2:0|2:3|2:3|2:3,2:0:0:0:
336,269,154876,6,0,L|347:313,3,40,10|8|8|8,2:0|2:3|2:3|2:3,2:0:0:0:
438,354,155207,2,0,L|430:310,3,40,10|8|8|8,2:0|2:3|2:3|2:3,2:0:0:0:
512,228,155539,5,10,2:0:0:0:
476,244,155621,1,8,2:3:0:0:
434,237,155704,1,8,2:3:0:0:
404,203,155787,1,8,2:3:0:0:
376,168,155870,5,10,2:0:0:0:
381,146,155953,1,8,2:3:0:0:
386,127,156036,1,8,2:3:0:0:
390,108,156119,1,8,2:3:0:0:
361,75,156202,6,0,L|349:20,3,48,10|8|8|8,2:0|2:3|2:3|2:3,2:0:0:0:
229,107,156533,5,10,2:0:0:0:
203,102,156616,1,8,2:3:0:0:
179,99,156699,1,10,2:3:0:0:
154,94,156782,1,8,2:3:0:0:
118,61,156865,5,10,2:0:0:0:
82,57,156947,1,8,2:3:0:0:
54,78,157030,1,8,2:3:0:0:
53,115,157113,1,8,2:3:0:0:
23,154,157196,5,8,2:0:0:0:
33,173,157279,1,8,2:3:0:0:
37,195,157362,1,10,2:3:0:0:
35,216,157445,1,8,2:3:0:0:
64,230,157528,5,10,2:0:0:0:
56,267,157610,1,8,2:3:0:0:
45,305,157693,1,8,2:3:0:0:
38,335,157776,1,8,2:3:0:0:
64,366,157859,6,0,L|141:352,1,68,10|0,2:0|2:0,2:0:0:0:
237,300,158025,6,4,P|279:308|320:317,1,72.0000000000001,14|0,2:1|2:0,2:0:0:0:
325,299,159516,6,0,P|316:251|294:132,2,160,14|10|10,2:1|2:0|2:1,2:0:0:0:
423,238,160345,1,0,2:0:0:0:
222,380,160511,2,0,L|236:297,1,80,10|0,2:0|2:0,2:0:0:0:
154,228,160842,6,0,B|73:210|81:264|-3:251,2,160,10|10|10,2:1|2:0|2:1,2:0:0:0:
284,110,161671,1,0,2:0:0:0:
170,18,161837,2,0,L|184:101,1,80,10|2,2:0|2:0,2:0:0:0:
312,232,162168,6,0,P|361:206|424:213,1,120,10|0,2:1|2:0,2:0:0:0:
507,139,162500,2,0,L|448:130,1,48,8|0,2:0|2:0,2:0:0:0:
210,310,162831,6,0,P|157:283|98:290,1,120,10|0,2:1|2:0,2:0:0:0:
15,217,163163,2,0,L|62:209,1,48,8|0,2:0|2:0,2:0:0:0:
230,77,163494,6,0,P|225:124|216:164,1,80,10|2,2:1|2:0,2:0:0:0:
372,242,163826,2,0,L|353:163,1,80,10|0,2:0|2:0,2:0:0:0:
286,283,164157,5,10,2:1:0:0:
464,351,164323,1,0,2:0:0:0:
308,384,164489,5,10,2:0:0:0:
461,254,164655,1,8,2:0:0:0:
254,168,164820,6,0,P|192:131|96:149,2,160,14|10|10,2:1|2:0|2:1,2:0:0:0:
75,282,165649,1,0,2:0:0:0:
191,344,165815,2,0,P|184:297|178:261,1,80,10|0,2:0|2:0,2:0:0:0:
354,216,166146,6,0,P|404:229|521:248,1,160,10|10,2:1|2:0,2:0:0:0:
443,136,166644,1,0,2:0:0:0:
277,296,166809,2,0,P|319:310|361:306,1,80,10|0,2:1|2:0,2:0:0:0:
152,229,167141,2,0,L|60:248,1,80,12|2,2:0|2:0,2:0:0:0:
265,175,167472,6,0,P|274:126|289:48,1,120,14|0,2:1|2:0,2:0:0:0:
188,6,167804,2,0,L|200:59,1,48,8|0,2:0|2:0,2:0:0:0:
412,280,168135,6,0,P|403:231|388:153,1,120,10|0,2:1|2:0,2:0:0:0:
489,111,168467,2,0,L|477:164,1,48,8|0,2:0|2:0,2:0:0:0:
303,280,168798,5,10,2:1:0:0:
269,259,168881,1,8,2:0:0:0:
229,252,168964,1,10,2:0:0:0:
191,262,169047,1,8,2:0:0:0:
156,236,169130,5,10,2:1:0:0:
160,220,169213,1,8,2:0:0:0:
165,204,169295,1,8,2:0:0:0:
169,189,169378,1,8,2:0:0:0:
142,153,169461,6,0,L|76:166,1,60,10|8,2:1|2:0,2:0:0:0:
0,286,169627,6,0,L|58:274,1,60,8|8,2:0|2:0,2:0:0:0:
222,47,169793,2,0,L|156:60,1,60,8|8,2:1|2:0,2:0:0:0:
315,197,169958,2,0,L|374:188,1,60,8|8,2:0|2:0,2:0:0:0:
464,159,170124,6,0,P|494:92|443:17,2,160,14|14|10,2:1|2:0|2:1,2:0:0:0:
317,264,170953,1,0,2:0:0:0:
433,341,171119,2,0,P|481:335|521:332,1,80,10|0,2:0|2:0,2:0:0:0:
320,136,171450,6,0,L|336:44,1,80,10|0,2:1|2:0,2:0:0:0:
131,203,171782,2,0,L|115:111,1,80,10|0,2:0|2:0,2:0:0:0:
265,315,172113,2,0,L|281:223,1,80,10|0,2:1|2:0,2:0:0:0:
51,384,172445,2,0,L|35:292,1,80,10|2,2:0|2:0,2:0:0:0:
347,346,172776,6,0,P|411:318|468:331,1,120,14|0,2:1|2:0,2:0:0:0:
512,253,173108,2,0,L|503:208,1,40,8|0,2:0|2:0,2:0:0:0:
197,345,173439,6,0,P|133:317|76:330,1,120,10|0,2:1|2:0,2:0:0:0:
32,252,173771,2,0,L|41:207,1,40,8|0,2:0|2:0,2:0:0:0:
303,49,174102,5,8,2:1:0:0:
175,83,174268,1,2,2:0:0:0:
210,211,174434,1,10,2:0:0:0:
344,183,174599,1,0,2:0:0:0:
51,260,174765,5,14,2:1:0:0:
251,324,174931,1,0,2:0:0:0:
75,382,175097,5,14,2:0:0:0:
210,211,175262,1,8,2:0:0:0:
358,305,175428,6,0,B|439:287|431:341|515:328,2,160,14|10|10,2:1|2:0|2:1,2:0:0:0:
262,366,176257,1,0,2:0:0:0:
180,298,176423,2,0,P|188:248|199:208,1,80,10|0,2:0|2:0,2:0:0:0:
74,84,176754,2,0,L|90:165,1,80,10|0,2:1|2:0,2:0:0:0:
286,211,177086,6,0,P|324:205|365:200,1,80,10|0,2:0|2:0,2:0:0:0:
512,80,177417,1,10,2:1:0:0:
406,298,177583,1,8,2:1:0:0:
311,88,177749,1,14,2:0:0:0:
512,199,177914,1,2,2:0:0:0:
302,346,178080,6,0,B|250:309|205:314|205:314|187:344|151:342,1,160,14|8,2:1|2:0,2:0:0:0:
37,128,178577,1,2,2:0:0:0:
0,227,178743,2,0,B|77:233|78:188|154:197,1,160,10|8,2:1|2:0,2:0:0:0:
328,85,179240,1,2,2:0:0:0:
210,12,179406,2,0,P|219:62|226:98,1,80,10|10,2:1|2:1,2:0:0:0:
312,175,179737,1,10,2:0:0:0:
174,249,179903,1,8,2:1:0:0:
327,368,180069,5,14,2:0:0:0:
421,173,180235,1,8,2:1:0:0:
426,291,180400,5,12,2:0:0:0:
340,57,180566,1,2,2:0:0:0:
174,249,180732,6,0,P|82:287|18:267,1,160,14|8,2:1|2:0,2:0:0:0:
87,183,181229,1,2,2:0:0:0:
281,324,181395,6,0,P|355:281|436:295,1,160,10|8,2:1|2:0,2:0:0:0:
377,373,181892,1,2,2:0:0:0:
259,207,182058,6,0,L|278:117,1,80,10|10,2:1|2:1,2:0:0:0:
160,269,182389,1,14,2:0:0:0:
368,174,182555,1,8,2:1:0:0:
219,60,182721,5,10,2:0:0:0:
289,314,182887,1,8,2:1:0:0:
219,60,183052,1,8,2:0:0:0:
289,314,183218,1,10,2:1:0:0:
35,223,183384,5,14,2:0:0:0:
213,168,183550,1,8,2:1:0:0:
395,346,183715,5,8,2:0:0:0:
176,286,183881,1,10,2:1:0:0:
320,168,184047,5,10,2:0:0:0:
211,384,184213,1,8,2:1:0:0:
194,74,184378,5,8,2:0:0:0:
300,283,184544,1,10,2:1:0:0:
364,77,184710,5,10,2:0:0:0:
113,205,184876,1,10,2:1:0:0:
402,357,185041,2,0,P|415:306|408:259,1,88,10|8,2:0|2:1,2:0:0:0:
205,0,185373,2,0,P|186:49|196:102,1,88,14|8,2:0|2:1,2:0:0:0:
2,330,185704,2,0,P|43:286|119:294,1,132,12|0,2:0|2:0,2:0:0:0:
214,308,186036,5,12,2:0:0:0:
70,384,186202,1,8,2:1:0:0:
325,289,186367,5,8,2:0:0:0:
83,200,186533,1,10,2:1:0:0:
296,384,186699,5,10,2:0:0:0:
236,156,186865,1,8,2:1:0:0:
422,272,187030,5,8,2:0:0:0:
486,22,187196,1,10,2:1:0:0:
349,157,187362,5,14,2:1:0:0:
476,363,187528,1,10,2:0:0:0:
449,328,187610,1,8,2:0:0:0:
409,312,187693,1,10,2:1:0:0:
366,319,187776,1,8,2:0:0:0:
329,296,187859,5,8,2:0:0:0:
313,298,187942,1,8,2:0:0:0:
297,302,188025,1,10,2:1:0:0:
263,337,188108,5,8,2:0:0:0:
224,328,188191,1,8,2:0:0:0:
185,320,188273,1,8,2:0:0:0:
151,283,188356,5,8,2:3:0:0:
111,279,188439,5,8,2:3:0:0:
78,305,188522,5,8,2:3:0:0:
83,351,188605,5,8,2:3:0:0:
119,367,188688,6,0,P|104:295|93:239,1,120,14|0,2:1|2:0,2:0:0:0:
42,165,189019,2,0,P|85:159|128:151,1,80,10|0,2:0|2:0,2:0:0:0:
344,302,189351,2,0,P|309:306|255:318,1,80,10|0,2:1|2:0,2:0:0:0:
406,124,189682,2,0,P|461:117|514:158,1,120,10|0,2:0|2:0,2:0:0:0:
437,205,190014,6,0,P|447:155|482:42,2,160,10|10|10,2:1|2:0|2:1,2:0:0:0:
264,246,190842,1,0,2:0:0:0:
346,384,191008,2,0,P|355:335|362:300,1,80,10|8,2:0|2:0,2:0:0:0:
0,252,191340,5,12,2:1:0:0:
86,236,191505,1,2,2:0:0:0:
150,298,191671,2,0,L|143:327,1,30,10|0,2:0|2:0,2:0:0:0:
505,250,192003,5,8,2:1:0:0:
419,234,192168,1,2,2:0:0:0:
355,296,192334,2,0,L|362:327,1,30,10|0,2:0|2:0,2:0:0:0:
254,0,192666,5,8,2:1:0:0:
234,84,192831,1,2,2:0:0:0:
213,195,192997,6,0,P|203:183|221:194,1,60,14|0,2:0|2:0,2:0:0:0:
281,259,193163,1,0,2:0:0:0:
172,327,193329,6,0,B|100:401|20:367|34:313|96:312|102:400,1,180,12|0,2:1|2:0,2:0:0:0:
394,278,193660,6,0,B|493:252|544:323|503:362|450:329|491:252,1,180,14|8,2:0|2:0,2:0:0:0:
252,179,193992,6,0,P|239:106|223:34,1,120,14|0,2:1|2:0,2:0:0:0:
316,0,194323,2,0,P|339:43|334:79,1,80,10|0,2:0|2:0,2:0:0:0:
155,241,194655,2,0,B|74:223|82:277|-2:264,1,160,10|10,2:1|2:0,2:0:0:0:
147,145,195152,1,0,2:0:0:0:
318,279,195318,5,14,2:1:0:0:
414,255,195483,1,0,2:0:0:0:
509,235,195649,1,14,2:0:0:0:
363,109,195815,5,8,2:0:0:0:
356,131,195898,1,8,2:0:0:0:
360,161,195981,1,14,2:1:0:0:
216,337,196146,1,8,2:0:0:0:
216,312,196229,1,8,2:0:0:0:
209,292,196312,5,10,2:0:0:0:
180,319,196395,1,8,2:0:0:0:
142,329,196478,1,8,2:0:0:0:
104,317,196561,1,8,2:0:0:0:
67,276,196644,5,14,2:1:0:0:
88,186,196809,1,2,2:0:0:0:
109,93,196975,1,10,2:0:0:0:
0,39,197141,5,2,2:0:0:0:
6,49,197224,1,0,2:0:0:0:
11,57,197307,2,0,P|63:65|152:-2,1,160,10|10,2:1|2:0,2:0:0:0:
304,80,197804,6,0,B|372:85|391:36|474:54,1,160,2|10,2:0|2:1,2:0:0:0:
241,216,198301,2,0,P|191:210|155:211,1,80,10|10,2:0|2:1,2:0:0:0:
225,118,198633,5,10,2:0:0:0:
131,306,198798,1,10,2:1:0:0:
114,68,198964,5,10,2:0:0:0:
215,367,199130,1,0,2:0:0:0:
361,285,199295,6,0,P|404:254|530:269,1,160,14|10,2:1|2:0,2:0:0:0:
336,159,199793,1,2,2:0:0:0:
332,153,199876,1,0,2:0:0:0:
331,147,199958,2,0,P|342:92|366:-32,1,160,10|10,2:1|2:0,2:0:0:0:
441,122,200456,1,2,2:0:0:0:
247,210,200621,2,0,P|193:200|161:205,1,80,8|10,2:1|2:1,2:0:0:0:
42,109,200953,2,0,L|62:193,1,80,10|10,2:0|2:1,2:0:0:0:
66,335,201284,5,14,2:0:0:0:
179,116,201450,1,10,2:1:0:0:
185,274,201616,5,14,2:0:0:0:
85,17,201782,1,8,2:1:0:0:
313,170,201947,5,14,2:0:0:0:
67,241,202113,1,10,2:1:0:0:
372,256,202279,5,10,2:0:0:0:
27,145,202445,1,10,2:1:0:0:
269,384,202610,6,0,P|274:337|291:281,1,96,10|10,2:0|2:1,2:0:0:0:
158,51,202942,2,0,L|175:145,1,96,10|10,2:0|2:1,2:0:0:0:
249,0,203273,1,8,2:0:0:0:
27,145,203439,1,10,2:1:0:0:
254,234,203605,1,10,2:0:0:0:
83,0,203771,1,10,2:1:0:0:
457,175,203936,5,14,2:0:0:0:
59,370,204268,1,14,2:0:0:0:
227,80,204599,5,14,2:1:0:0:
301,162,204765,5,10,2:0:0:0:
297,183,204848,1,8,2:0:0:0:
294,199,204931,1,10,2:0:0:0:
289,217,205014,1,8,2:0:0:0:
254,234,205097,5,14,2:1:0:0:
259,252,205179,1,8,2:0:0:0:
262,268,205262,1,10,2:0:0:0:
266,289,205345,1,8,2:0:0:0:
306,313,205428,5,10,2:0:0:0:
310,326,205511,1,8,2:0:0:0:
296,358,205594,5,14,2:1:0:0:
268,324,205677,1,8,2:0:0:0:
227,308,205760,1,10,2:0:0:0:
184,315,205842,1,8,2:0:0:0:
162,340,205925,6,0,L|155:379,1,40,14|0,2:1|2:0,2:0:0:0:
48,227,206091,6,0,L|41:266,1,40,10|0,2:0|2:0,2:0:0:0:
184,162,206257,6,0,L|177:201,1,40,10|0,2:0|2:0,2:0:0:0:
116,62,206423,6,0,L|112:89,1,20,10|0,2:1|2:0,2:0:0:0:
471,261,206920,6,0,L|510:254,1,40,10|0,2:0|2:0,2:0:0:0:
337,153,207086,6,0,L|376:146,1,40,10|0,2:1|2:0,2:0:0:0:
320,344,207251,6,0,L|359:337,1,40,10|0,2:0|2:0,2:0:0:0:
199,254,207417,6,0,L|230:248,1,20,10|0,2:1|2:0,2:0:0:0:
16,361,207914,6,0,B|14:334|-5:313|-5:313|19:317|16:332,1,80,2|0,2:3|2:0,2:0:0:0:
