osu file format v14

[General]
AudioFilename: audio.mp3
AudioLeadIn: 0
PreviewTime: 148826
Countdown: 0
SampleSet: Soft
StackLeniency: 0.7
Mode: 0
LetterboxInBreaks: 0
WidescreenStoryboard: 0

[Editor]
DistanceSpacing: 0.4
BeatDivisor: 4
GridSize: 4
TimelineZoom: 1

[Metadata]
Title:Mada Ikemasu
TitleUnicode:まだいけます
Artist:Abe Mao
ArtistUnicode:阿部真央
Creator:Big Sis
Version:Insane
Source:
Tags:mugiwarasekai irohas midorijeon didah sayumana alevi japanese rock j-rock vaporfly red crewmate god haachama
BeatmapID:3880336
BeatmapSetID:1884638

[Difficulty]
HPDrainRate:4.7
CircleSize:4.5
OverallDifficulty:8
ApproachRate:9
SliderMultiplier:1.7
SliderTickRate:1

[Events]
//Background and Video events
0,0,"guitar.jpg",0,0
//Break Periods
2,138501,148309
//Storyboard Layer 0 (Background)
//Storyboard Layer 1 (Fail)
//Storyboard Layer 2 (Pass)
//Storyboard Layer 3 (Foreground)
//Storyboard Layer 4 (Overlay)
//Storyboard Sound Samples

[TimingPoints]
-925,331.491712707183,4,2,2,65,1,0
235,-100,4,2,30,65,0,0
898,-125,4,2,30,65,0,0
5206,-125,4,2,31,65,0,0
5704,-111.111111111111,4,2,31,65,0,0
5787,-111.111111111111,4,2,32,40,0,0
6036,-111.111111111111,4,2,31,65,0,0
6119,-111.111111111111,4,2,32,40,0,0
6367,-111.111111111111,4,2,31,65,0,0
6449,-111.111111111111,4,2,32,40,0,0
6699,-111.111111111111,4,2,31,65,0,0
6781,-111.111111111111,4,2,32,40,0,0
7030,-111.111111111111,4,2,31,65,0,0
7113,-111.111111111111,4,2,32,40,0,0
7362,-111.111111111111,4,2,31,65,0,0
7445,-111.111111111111,4,2,32,40,0,0
7693,-111.111111111111,4,2,31,65,0,0
7775,-111.111111111111,4,2,32,40,0,0
8025,-111.111111111111,4,2,31,65,0,0
8107,-111.111111111111,4,2,32,40,0,0
8356,-111.111111111111,4,2,31,65,0,0
8439,-111.111111111111,4,2,32,40,0,0
8522,-99.9999999999999,4,2,32,40,0,0
8688,-99.9999999999999,4,2,31,65,0,0
8771,-99.9999999999999,4,2,32,40,0,0
9019,-99.9999999999999,4,2,31,65,0,0
9102,-99.9999999999999,4,2,32,40,0,0
9351,-99.9999999999999,4,2,31,65,0,0
9516,-99.9999999999999,4,2,31,75,0,0
10718,-99.9999999999999,4,2,31,75,0,0
10925,-99.9999999999999,4,2,31,5,0,0
11008,-125,4,2,30,70,0,0
15483,-125,4,2,31,70,0,0
16312,-125,4,2,30,70,0,0
20786,-125,4,2,31,70,0,0
21284,-125,4,2,32,70,0,0
21616,-125,4,2,30,70,0,0
26091,-125,4,2,31,70,0,0
26920,-125,4,2,30,70,0,0
30732,-111.111111111111,4,2,30,70,0,0
31892,-111.111111111111,4,2,30,70,0,0
32057,-111.111111111111,4,2,30,5,0,0
32224,-90.9090909090909,4,2,30,80,0,0
34876,-90.9090909090909,4,2,31,80,0,0
37528,-90.9090909090909,4,2,30,80,0,0
40179,-90.9090909090909,4,2,31,80,0,0
42831,-90.9090909090909,4,2,30,80,0,0
45483,-90.9090909090909,4,2,31,80,0,0
47472,-90.9090909090909,4,2,32,80,0,0
48135,-90.9090909090909,4,2,30,80,0,0
50456,-90.9090909090909,4,2,31,80,0,0
50787,-90.9090909090909,4,2,30,80,0,0
53439,-90.9090909090909,4,2,31,80,0,0
55428,-90.9090909090909,4,2,30,80,0,0
55760,-90.9090909090909,4,2,31,80,0,0
56091,-90.9090909090909,4,2,30,75,0,0
58743,-90.9090909090909,4,2,31,75,0,0
61395,-90.9090909090909,4,2,30,75,0,0
63881,-90.9090909090909,4,2,31,75,0,0
64047,-90.9090909090909,4,2,30,75,0,0
66699,-90.9090909090909,4,2,31,75,0,0
68356,-90.9090909090909,4,2,30,75,0,0
69019,-90.9090909090909,4,2,31,75,0,0
69351,-142.857142857143,4,2,30,65,0,0
74655,-125,4,2,30,65,0,0
74737,-125,4,2,32,45,0,0
74986,-125,4,2,30,65,0,0
75068,-125,4,2,32,45,0,0
75318,-125,4,2,30,65,0,0
75400,-125,4,2,32,45,0,0
75649,-125,4,2,30,65,0,0
75731,-125,4,2,32,45,0,0
75981,-125,4,2,30,65,0,0
76063,-125,4,2,32,45,0,0
76312,-125,4,2,30,65,0,0
76395,-125,4,2,32,45,0,0
76644,-125,4,2,30,65,0,0
76726,-125,4,2,32,45,0,0
76975,-125,4,2,30,65,0,0
77057,-125,4,2,32,45,0,0
77307,-125,4,2,30,65,0,0
77389,-125,4,2,32,45,0,0
77638,-125,4,2,30,65,0,0
77721,-125,4,2,32,45,0,0
77970,-125,4,2,30,65,0,0
78052,-125,4,2,32,45,0,0
78301,-125,4,2,30,65,0,0
78467,-111.111111111111,4,2,32,75,0,0
79793,-111.111111111111,4,2,31,75,0,0
79958,-111.111111111111,4,2,30,70,0,0
84433,-111.111111111111,4,2,31,70,0,0
85262,-111.111111111111,4,2,30,70,0,0
90566,-90.9090909090908,4,2,30,80,0,0
93218,-90.9090909090908,4,2,31,80,0,0
95455,-90.9090909090908,4,2,31,5,0,0
95539,-90.9090909090908,4,2,32,80,0,0
95870,-90.9090909090908,4,2,30,80,0,0
98522,-90.9090909090908,4,2,31,80,0,0
100344,-90.9090909090908,4,2,33,80,0,0
100511,-90.9090909090908,4,2,30,80,0,0
100842,-90.9090909090908,4,2,31,80,0,0
101174,-90.9090909090908,4,2,30,80,0,0
103826,-90.9090909090908,4,2,31,80,0,0
105815,-90.9090909090908,4,2,32,80,0,0
106478,-90.9090909090908,4,2,30,80,0,0
108964,-90.9090909090908,4,2,31,80,0,0
109130,-90.9090909090908,4,2,30,80,0,0
111782,-90.9090909090908,4,2,31,80,0,0
115760,-100,4,2,30,75,0,0
121063,-100,4,2,31,75,0,0
123715,-100,4,2,32,75,0,0
126367,-100,4,2,30,75,0,0
126699,-100,4,2,31,75,0,0
130345,-100,4,2,30,75,0,0
130842,-100,4,2,31,75,0,0
131340,-100,4,2,32,75,0,0
131671,-100,4,2,30,75,0,0
134323,-100,4,2,31,75,0,0
135649,-100,4,2,30,75,0,0
135981,-100,4,2,31,75,0,0
136809,-100,4,2,32,75,0,0
138301,-100,4,2,30,60,0,0
148909,-125,4,2,30,65,0,0
154213,-111.111111111111,4,2,30,65,0,0
154295,-111.111111111111,4,2,32,40,0,0
154544,-111.111111111111,4,2,30,65,0,0
154626,-111.111111111111,4,2,32,40,0,0
154876,-111.111111111111,4,2,30,65,0,0
154958,-111.111111111111,4,2,32,40,0,0
155207,-111.111111111111,4,2,30,65,0,0
155289,-111.111111111111,4,2,32,40,0,0
155539,-111.111111111111,4,2,30,65,0,0
155621,-111.111111111111,4,2,32,40,0,0
155870,-111.111111111111,4,2,30,65,0,0
155952,-111.111111111111,4,2,32,40,0,0
156202,-111.111111111111,4,2,30,65,0,0
156284,-111.111111111111,4,2,32,40,0,0
156533,-111.111111111111,4,2,30,65,0,0
156615,-111.111111111111,4,2,32,40,0,0
156865,-111.111111111111,4,2,30,65,0,0
156947,-111.111111111111,4,2,32,40,0,0
157030,-100,4,2,32,40,0,0
157196,-100,4,2,30,65,0,0
157279,-100,4,2,32,40,0,0
157528,-100,4,2,30,65,0,0
157610,-100,4,2,32,40,0,0
157859,-100,4,2,30,65,0,0
158025,-100,4,2,30,75,0,0
159516,-90.9090909090909,4,2,30,80,0,0
163079,-90.9090909090909,4,2,30,5,0,0
163163,-90.9090909090909,4,2,30,80,0,0
164820,-90.9090909090909,4,2,31,80,0,0
167472,-90.9090909090909,4,2,30,80,0,0
170455,-90.9090909090909,4,2,31,80,0,0
172776,-90.9090909090909,4,2,30,80,0,0
174765,-90.9090909090909,4,2,32,80,0,0
175428,-90.9090909090909,4,2,31,80,0,0
178080,-90.9090909090909,4,2,30,80,0,0
180400,-90.9090909090909,4,2,31,80,0,0
180732,-90.9090909090909,4,2,30,80,0,0
183384,-90.9090909090909,4,2,31,80,0,0
185373,-90.9090909090909,4,2,30,80,0,0
185704,-90.9090909090909,4,2,32,80,0,0
186036,-90.9090909090909,4,2,31,80,0,0
187362,-90.9090909090909,4,2,30,80,0,0
188521,-90.9090909090909,4,2,31,80,0,0
188688,-90.9090909090909,4,2,30,75,0,0
191340,-90.9090909090909,4,2,31,75,0,0
192997,-90.9090909090909,4,2,32,75,0,0
193992,-90.9090909090909,4,2,30,75,0,0
195318,-90.9090909090909,4,2,31,75,0,0
195649,-90.9090909090909,4,2,30,75,0,0
195981,-90.9090909090909,4,2,32,75,0,0
196644,-100,4,2,30,75,0,0
201616,-100,4,2,32,75,0,0
201947,-100,4,2,31,75,0,0
203936,-100,4,2,30,75,0,0
204268,-100,4,2,32,75,0,0
204599,-100,4,2,31,75,0,0
205097,-100,4,2,30,75,0,0
205594,-100,4,2,31,75,0,0
205925,-100,4,2,32,75,0,0
207914,-200,4,2,32,60,0,0
208329,-200,4,2,32,5,0,0

[Colours]
Combo1 : 34,145,255
Combo2 : 45,187,255

[HitObjects]
384,229,235,5,8,2:2:0:0:
384,229,318,1,8,2:2:0:0:
384,229,400,1,14,2:1:0:0:
437,279,566,1,2,2:2:0:0:
507,256,732,1,10,2:1:0:0:
385,364,898,6,0,P|345:330|262:341,1,136
266,338,1395,1,10,2:1:0:0:
114,126,1561,6,0,B|133:150|150:163|150:163|129:223|121:258,1,136,10|10,2:2|2:2,0:0:0:0:
175,308,2058,2,0,P|139:331|105:322,1,68,10|0,2:1|0:0,0:0:0:0:
227,203,2389,2,0,P|260:214|297:223,1,68,10|2,2:1|2:2,0:0:0:0:
424,125,2721,2,0,P|386:123|358:144,1,68,10|8,2:1|2:2,0:0:0:0:
362,138,2970,5,8,2:2:0:0:
362,138,3052,1,10,2:2:0:0:
297,108,3218,1,2,2:2:0:0:
323,43,3384,1,10,2:1:0:0:
441,200,3550,6,0,P|423:259|403:337,1,136
404,330,4047,1,10,2:1:0:0:
291,228,4213,2,0,B|227:241|243:267|154:287,1,136,10|10,2:2|2:3,0:0:0:0:
91,327,4710,1,10,2:1:0:0:
216,220,4876,1,8,2:3:0:0:
103,155,5041,2,0,P|114:188|123:225,1,68,10|10,2:1|2:3,0:0:0:0:
23,130,5373,1,10,2:1:0:0:
165,47,5539,5,2,2:2:0:0:
165,47,5621,1,2,2:2:0:0:
165,47,5704,2,0,P|202:58|240:66,1,76.5000000000001,14|10,2:1|2:3,0:0:0:0:
316,153,6036,2,0,P|352:142|390:134,1,76.5000000000001,10|8,2:2|2:3,0:0:0:0:
347,263,6367,6,0,L|336:227,3,38.25,10|8|10|8,2:2|2:3|2:3|2:3,0:0:0:0:
274,276,6699,2,0,L|286:313,3,38.25,10|8|10|8,2:2|2:3|2:3|2:3,0:0:0:0:
233,378,7030,5,8,2:2:0:0:
233,378,7113,1,8,2:3:0:0:
233,378,7196,2,0,L|196:366,1,38.25,10|8,2:3|2:3,0:0:0:0:
132,319,7362,1,10,2:2:0:0:
132,319,7445,1,8,2:3:0:0:
132,319,7528,2,0,L|95:330,1,38.25,8|8,2:3|2:3,0:0:0:0:
42,275,7693,6,0,L|55:232,3,38.25,10|8|10|8,2:2|2:3|2:3|2:3,0:0:0:0:
114,189,8025,2,0,L|125:152,3,38.25,10|8|8|8,2:2|2:3|2:3|2:3,0:0:0:0:
87,81,8356,5,10,2:2:0:0:
87,81,8439,1,8,2:3:0:0:
87,81,8522,2,0,L|127:68,1,42.5,10|8,2:3|2:3,0:0:0:0:
208,136,8688,1,10,2:2:0:0:
208,136,8771,1,8,2:3:0:0:
208,136,8854,2,0,L|248:148,1,42.5,8|8,2:3|2:3,0:0:0:0:
313,206,9019,5,10,2:2:0:0:
335,175,9102,1,8,2:3:0:0:
367,155,9185,1,10,2:3:0:0:
405,150,9268,1,8,2:3:0:0:
442,161,9351,1,10,2:2:0:0:
337,295,9516,6,0,B|393:304|393:304|426:349|426:349|484:359,1,170,10|10,2:2|2:2,0:0:0:0:
421,287,10014,1,10,2:2:0:0:
311,373,10179,1,10,2:1:0:0:
231,238,10345,1,10,2:2:0:0:
231,238,10677,2,0,P|186:276|106:257,1,127.5,2|0,2:1|0:0,0:0:0:0:
60,314,11008,6,0,P|25:266|57:182,1,136,14|10,2:1|2:2,0:0:0:0:
134,58,11505,1,2,2:2:0:0:
185,121,11671,2,0,P|174:153|166:186,1,68,10|8,2:1|2:1,0:0:0:0:
95,129,12003,1,8,2:2:0:0:
247,213,12168,6,0,P|312:225|371:194,1,136,2|0,2:2|0:0,0:0:0:0:
332,68,12666,2,0,P|323:101|313:133,1,68,10|0,2:2|0:0,0:0:0:0:
437,244,12997,2,0,P|455:216|455:178,1,68,10|8,2:1|2:1,0:0:0:0:
326,308,13329,2,0,P|273:322|219:346,1,102,8|0,2:2|0:0,0:0:0:0:
151,327,13660,6,0,B|143:363|143:363|166:385,1,68,10|0,2:1|0:0,0:0:0:0:
265,279,13992,1,10,2:2:0:0:
229,340,14157,1,2,2:2:0:0:
151,216,14323,2,0,P|119:224|85:233,1,68,10|8,2:1|2:1,0:0:0:0:
13,285,14655,1,8,2:2:0:0:
116,145,14820,1,2,2:2:0:0:
47,71,14986,6,0,P|38:104|28:136,1,68,12|0,2:1|0:0,0:0:0:0:
163,73,15318,1,10,2:2:0:0:
137,3,15483,2,0,P|147:35|155:68,1,68,14|2,2:1|2:2,0:0:0:0:
267,165,15815,1,8,2:1:0:0:
324,119,15981,1,8,2:2:0:0:
293,50,16146,1,8,2:2:0:0:
198,201,16312,6,0,P|255:192|313:246,1,136,14|10,2:1|2:2,0:0:0:0:
472,177,16809,1,2,2:2:0:0:
409,271,16975,2,0,P|401:237|390:205,1,68,10|8,2:1|2:1,0:0:0:0:
493,278,17307,1,8,2:2:0:0:
366,357,17472,6,0,B|295:373|305:317|222:339,1,136,2|0,2:2|0:0,0:0:0:0:
112,306,17970,2,0,P|75:318|50:360,1,68,10|0,2:2|0:0,0:0:0:0:
189,263,18301,2,0,P|217:226|210:194,1,68,10|8,2:1|2:1,0:0:0:0:
39,120,18633,2,0,L|66:222,1,102,8|0,2:2|0:0,0:0:0:0:
62,227,18964,5,10,2:1:0:0:
136,187,19130,1,2,2:2:0:0:
100,55,19295,1,10,2:2:0:0:
180,103,19461,1,2,2:2:0:0:
291,16,19627,6,0,L|257:163,1,136,10|8,2:1|2:2,0:0:0:0:
329,234,20124,1,2,2:2:0:0:
329,234,20207,1,0,0:0:0:0:
329,234,20290,2,0,P|364:210|411:218,1,68,12|2,2:1|2:2,0:0:0:0:
298,336,20621,2,0,P|265:325|232:317,1,68,10|14,2:2|2:1,0:0:0:0:
157,357,20953,1,2,2:2:0:0:
38,239,21119,5,8,2:1:0:0:
106,265,21284,1,12,2:2:0:0:
48,313,21450,1,8,2:2:0:0:
100,186,21616,6,0,P|88:137|71:69,1,102,14|0,2:1|0:0,0:0:0:0:
82,78,21947,1,10,2:2:0:0:
4,147,22113,1,2,2:2:0:0:
181,211,22279,2,0,P|219:181|315:194,1,136,10|8,2:1|2:2,0:0:0:0:
226,141,22776,1,2,2:2:0:0:
315,30,22942,6,0,P|304:63|296:107,1,68,8|2,2:1|2:2,0:0:0:0:
406,213,23273,2,0,P|416:179|425:136,1,68,10|2,2:2|2:2,0:0:0:0:
388,73,23605,1,10,2:1:0:0:
502,171,23771,1,8,2:1:0:0:
320,237,23936,2,0,P|265:253|208:277,1,102,8|0,2:2|0:0,0:0:0:0:
153,236,24268,6,0,P|186:197|218:199,1,68,10|0,2:1|0:0,0:0:0:0:
67,301,24599,2,0,P|21:284|9:257,1,68,10|2,2:2|2:2,0:0:0:0:
127,117,24931,1,10,2:1:0:0:
127,117,25097,1,8,2:1:0:0:
57,155,25262,2,0,P|67:188|76:232,1,68,8|2,2:2|2:2,0:0:0:0:
221,61,25594,6,0,P|177:28|114:42,1,102,12|0,2:1|0:0,0:0:0:0:
130,37,25925,1,10,2:2:0:0:
266,158,26091,6,0,L|373:137,1,102,14|0,2:1|0:0,0:0:0:0:
371,143,26423,1,8,2:1:0:0:
473,252,26588,2,0,P|435:233|405:235,1,68,8|8,2:2|2:2,0:0:0:0:
286,288,26920,5,14,2:1:0:0:
322,349,27086,1,2,2:2:0:0:
394,332,27251,1,10,2:2:0:0:
206,253,27417,2,0,P|172:263|129:272,1,68,2|10,2:2|2:1,0:0:0:0:
140,270,27666,1,0,0:0:0:0:
140,270,27749,1,8,2:1:0:0:
25,213,27914,1,8,2:2:0:0:
160,105,28080,1,2,2:2:0:0:
103,204,28246,6,0,P|97:171|86:139,1,68,8|2,2:1|2:2,0:0:0:0:
49,62,28577,1,10,2:2:0:0:
220,163,28743,1,2,2:2:0:0:
177,32,28909,2,0,P|170:65|159:97,1,68,10|8,2:1|2:1,0:0:0:0:
258,242,29240,2,0,P|224:248|192:259,1,68,8|0,2:2|0:0,0:0:0:0:
344,118,29572,5,10,2:1:0:0:
320,189,29737,1,2,2:2:0:0:
430,306,29903,1,10,2:2:0:0:
360,272,30069,2,0,B|429:290|419:234|490:250,1,136,2|8,2:2|2:1,0:0:0:0:
489,250,30566,1,8,2:2:0:0:
290,384,30732,6,0,P|252:350|176:360,1,114.75,14|0,2:1|0:0,0:0:0:0:
190,351,31063,5,10,2:2:0:0:
164,263,31229,1,10,2:2:0:0:
139,176,31395,1,10,2:1:0:0:
193,102,31561,6,0,P|229:112|267:120,1,76.5000000000001,10|0,2:2|0:0,0:0:0:0:
75,243,31892,6,0,P|38:232|0:224,1,76.5000000000001,2|0,2:2|0:0,0:0:0:0:
190,351,32224,6,0,B|289:337|260:284|355:271,1,187,14|10,2:1|2:2,0:0:0:0:
502,203,32721,1,0,0:0:0:0:
393,130,32887,2,0,P|406:173|418:225,1,93.5,10|0,2:1|0:0,0:0:0:0:
340,38,33218,1,10,2:2:0:0:
477,90,33384,1,0,0:0:0:0:
320,183,33550,6,0,P|247:192|174:150,1,140.25,10|0,2:1|0:0,0:0:0:0:
130,215,33881,2,0,P|99:168|111:123,1,93.5,10|0,2:2|0:0,0:0:0:0:
254,226,34213,2,0,P|240:270|229:316,1,93.5,10|0,2:1|0:0,0:0:0:0:
344,281,34544,1,10,2:2:0:0:
158,373,34710,5,2,2:2:0:0:
158,373,34793,1,0,0:0:0:0:
158,373,34876,2,0,P|112:324|0:337,1,187,14|8,2:1|2:2,0:0:0:0:
130,215,35373,1,2,2:2:0:0:
5,135,35539,6,0,P|18:179|29:225,1,93.5,10|0,2:1|0:0,0:0:0:0:
163,76,35870,1,8,2:2:0:0:
62,26,36036,1,2,2:2:0:0:
199,156,36202,6,0,P|257:141|350:130,1,140.25,10|0,2:1|0:0,0:0:0:0:
397,178,36533,2,0,B|423:135|423:135|401:85,1,93.5,10|0,2:2|0:0,0:0:0:0:
307,304,36865,6,0,P|355:351|432:343,1,140.25,10|0,2:1|0:0,0:0:0:0:
429,351,37196,1,10,2:2:0:0:
218,254,37362,5,8,2:2:0:0:
218,254,37445,1,8,2:2:0:0:
218,254,37528,2,0,P|153:314|51:296,1,187,14|10,2:1|2:2,0:0:0:0:
16,234,38025,1,0,0:0:0:0:
156,128,38191,2,0,P|142:172|131:218,1,93.5,10|0,2:1|0:0,0:0:0:0:
279,378,38522,2,0,P|292:333|303:287,1,93.5,10|0,2:2|0:0,0:0:0:0:
452,126,38854,6,0,B|353:140|382:193|287:206,1,187,10|10,2:1|2:2,0:0:0:0:
452,126,39351,1,0,0:0:0:0:
368,46,39516,2,0,P|344:85|351:130,1,93.5,10|0,2:1|0:0,0:0:0:0:
469,46,39848,1,10,2:2:0:0:
281,0,40014,5,2,2:2:0:0:
281,0,40097,1,0,0:0:0:0:
281,0,40179,2,0,P|189:23|91:43,1,187,14|8,2:1|2:2,0:0:0:0:
189,226,40677,1,2,2:2:0:0:
258,179,40842,6,0,P|267:130|279:82,1,93.5,10|0,2:1|0:0,0:0:0:0:
152,153,41174,1,8,2:2:0:0:
312,266,41340,1,2,2:2:0:0:
453,152,41505,6,0,P|384:154|367:181,1,93.5,10|10,2:1|2:2,0:0:0:0:
372,168,41754,1,8,2:2:0:0:
372,168,41837,1,10,2:1:0:0:
483,309,42003,1,8,2:2:0:0:
499,287,42086,1,8,2:2:0:0:
496,258,42168,1,10,2:1:0:0:
286,343,42334,1,8,2:2:0:0:
286,343,42417,1,8,2:2:0:0:
286,343,42500,2,0,P|312:349|346:359,3,46.75,8|8|8|8,2:2|2:2|2:2|2:2,0:0:0:0:
416,369,42831,6,0,P|405:324|397:278,1,93.5,14|0,2:1|0:0,0:0:0:0:
287,146,43163,2,0,P|259:189|267:237,1,93.5,10|0,2:2|0:0,0:0:0:0:
405,86,43494,2,0,P|379:36|329:21,1,93.5,10|0,2:1|0:0,0:0:0:0:
102,148,43826,2,0,P|138:190|224:172,1,140.25,10|0,2:2|0:0,0:0:0:0:
287,146,44157,6,0,P|276:100|267:54,1,93.5,10|0,2:1|0:0,0:0:0:0:
129,222,44489,2,0,P|139:267|148:313,1,93.5,10|0,2:2|0:0,0:0:0:0:
216,179,44820,1,10,2:1:0:0:
55,277,44986,1,0,0:0:0:0:
228,364,45152,2,0,P|281:324|326:333,1,93.5,10|2,2:2|2:2,0:0:0:0:
387,380,45400,5,0,0:0:0:0:
387,380,45483,2,0,B|416:347|445:328|445:328|409:276|394:209,1,187,14|8,2:1|2:2,0:0:0:0:
479,54,45981,1,2,2:2:0:0:
374,133,46146,6,0,P|420:141|465:152,1,93.5,10|0,2:1|0:0,0:0:0:0:
337,42,46478,1,8,2:2:0:0:
262,196,46644,1,2,2:2:0:0:
197,137,46809,6,0,P|188:92|173:46,1,93.5,8|2,2:1|2:2,0:0:0:0:
333,243,47141,2,0,P|318:287|309:333,1,93.5,10|0,2:2|0:0,0:0:0:0:
175,215,47472,1,14,2:1:0:0:
80,370,47638,1,0,0:0:0:0:
222,315,47804,2,0,P|176:306|130:294,1,93.5,14|8,2:2|2:2,0:0:0:0:
333,243,48135,6,0,P|376:288|449:276,1,140.25,14|0,2:1|0:0,0:0:0:0:
510,234,48467,2,0,P|452:198|429:204,1,93.5,10|0,2:2|0:0,0:0:0:0:
308,144,48798,1,10,2:1:0:0:
452,62,48964,1,0,0:0:0:0:
348,0,49130,2,0,P|362:44|371:90,1,93.5,10|0,2:2|0:0,0:0:0:0:
231,219,49461,6,0,P|177:187|95:206,1,140.25,10|0,2:1|0:0,0:0:0:0:
30,179,49793,2,0,P|12:135|35:87,1,93.5,10|0,2:2|0:0,0:0:0:0:
157,288,50124,2,0,P|145:333|136:379,1,93.5,10|8,2:1|2:1,0:0:0:0:
51,290,50456,1,14,2:2:0:0:
231,219,50621,5,2,2:2:0:0:
231,219,50704,1,0,0:0:0:0:
231,219,50787,2,0,B|284:226|311:262|311:262|352:229|423:244,1,187,14|8,2:1|2:2,0:0:0:0:
471,295,51284,1,2,2:2:0:0:
374,155,51450,6,0,P|330:182|319:222,1,93.5,10|8,2:1|2:1,0:0:0:0:
348,300,51782,1,8,2:2:0:0:
484,191,51947,1,2,2:2:0:0:
345,58,52113,6,0,P|359:102|368:148,1,93.5,10|10,2:1|2:1,0:0:0:0:
512,105,52445,2,0,P|477:69|428:79,1,93.5,10|8,2:2|2:1,0:0:0:0:
269,172,52776,2,0,P|327:184|413:217,1,140.25,10|0,2:2|0:0,0:0:0:0:
402,212,53108,1,8,2:2:0:0:
257,44,53273,5,2,2:2:0:0:
257,44,53356,1,0,0:0:0:0:
257,44,53439,2,0,P|189:98|77:79,1,187,14|8,2:1|2:2,0:0:0:0:
170,16,53936,1,2,2:2:0:0:
71,165,54102,6,0,P|28:148|5:108,1,93.5,10|8,2:1|2:1,0:0:0:0:
160,143,54434,1,8,2:2:0:0:
69,329,54599,1,2,2:2:0:0:
0,264,54765,6,0,P|45:255|90:240,1,93.5,10|10,2:1|2:1,0:0:0:0:
224,362,55097,2,0,P|178:370|133:385,1,93.5,10|8,2:2|2:1,0:0:0:0:
289,170,55428,2,0,P|238:207|248:285,1,140.25,14|0,2:2|0:0,0:0:0:0:
249,282,55760,1,14,2:2:0:0:
454,170,56091,6,0,P|465:104|414:47,1,140.25,14|0,2:1|0:0,0:0:0:0:
339,39,56423,2,0,P|353:83|361:129,1,93.5,10|0,2:2|0:0,0:0:0:0:
502,277,56754,2,0,P|443:252|357:232,1,140.25,10|0,2:1|0:0,0:0:0:0:
302,277,57086,2,0,P|334:312|383:313,1,93.5,10|0,2:2|0:0,0:0:0:0:
234,164,57417,6,0,B|134:179|178:231|56:249,2,187,10|10|10,2:1|2:2|2:1,0:0:0:0:
165,300,58246,1,0,0:0:0:0:
46,158,58412,2,0,P|91:150|133:189,1,93.5,10|0,2:2|0:0,0:0:0:0:
338,65,58743,5,12,2:1:0:0:
272,25,58909,1,2,2:2:0:0:
211,73,59075,2,0,P|225:117|233:163,1,93.5,10|0,2:2|0:0,0:0:0:0:
382,352,59406,5,8,2:1:0:0:
418,285,59572,1,2,2:2:0:0:
348,246,59737,2,0,P|304:260|258:268,1,93.5,10|0,2:2|0:0,0:0:0:0:
8,301,60069,6,0,P|71:292|122:358,1,140.25,8|0,2:1|0:0,0:0:0:0:
178,298,60400,2,0,P|200:344|173:407,1,93.5,10|0,2:2|0:0,0:0:0:0:
71,255,60732,6,0,P|56:189|31:111,1,140.25,8|0,2:1|0:0,0:0:0:0:
84,64,61063,2,0,B|48:31|48:31|-5:50,1,93.5,14|0,2:2|0:0,0:0:0:0:
146,179,61395,6,0,P|203:202|280:166,1,140.25,14|0,2:1|0:0,0:0:0:0:
336,236,61726,2,0,P|349:181|367:140,1,93.5,10|0,2:2|0:0,0:0:0:0:
467,315,62058,6,0,P|408:306|348:376,1,140.25,10|0,2:1|0:0,0:0:0:0:
275,362,62389,2,0,P|240:321|246:268,1,93.5,10|0,2:2|0:0,0:0:0:0:
28,284,62721,6,0,P|94:270|162:377,2,187,10|10|10,2:1|2:2|2:1,0:0:0:0:
147,193,63550,1,8,2:2:0:0:
147,193,63633,1,8,2:2:0:0:
147,193,63715,1,10,2:2:0:0:
81,129,63881,1,8,2:3:0:0:
204,13,64047,5,12,2:1:0:0:
163,109,64213,1,2,2:2:0:0:
23,58,64378,2,0,P|72:46|116:24,1,93.5,10|0,2:2|0:0,0:0:0:0:
341,174,64710,5,8,2:1:0:0:
250,95,64876,1,10,2:1:0:0:
359,9,65041,2,0,P|339:55|331:104,1,93.5,10|0,2:2|0:0,0:0:0:0:
390,329,65373,6,0,P|427:288|399:209,1,140.25,8|0,2:1|0:0,0:0:0:0:
341,174,65704,2,0,P|295:194|246:202,1,93.5,10|8,2:2|2:1,0:0:0:0:
89,289,66036,6,0,P|156:281|216:336,1,140.25,10|0,2:2|0:0,0:0:0:0:
304,295,66367,2,0,P|285:338|277:384,1,93.5,10|0,2:2|0:0,0:0:0:0:
143,147,66699,5,12,2:1:0:0:
166,247,66865,1,2,2:2:0:0:
2,180,67030,2,0,P|47:189|90:208,1,93.5,10|0,2:2|0:0,0:0:0:0:
279,48,67362,5,8,2:1:0:0:
256,148,67528,1,10,2:1:0:0:
420,81,67693,2,0,P|374:89|331:108,1,93.5,10|0,2:2|0:0,0:0:0:0:
175,33,68025,6,0,P|133:66|153:156,1,140.25,8|0,2:1|0:0,0:0:0:0:
143,147,68356,1,14,2:2:0:0:
315,299,68522,1,8,2:2:0:0:
315,299,68605,1,8,2:2:0:0:
315,299,68688,2,0,P|350:258|344:205,1,93.5,8|8,2:2|2:3,0:0:0:0:
256,148,69019,2,0,P|234:219|207:286,1,140.25,8|0,2:3|0:0,0:0:0:0:
140,319,69351,6,0,P|187:312|250:370,3,119,14|10|10|8,2:1|2:1|2:1|2:1,0:0:0:0:
315,299,70677,2,0,P|346:295|371:271,1,59.4999999999999,8|2,2:1|2:2,0:0:0:0:
431,312,71008,2,0,P|448:286|446:254,1,59.4999999999999,10|2,2:1|2:2,0:0:0:0:
287,116,71340,2,0,P|273:167|318:214,1,119,10|8,2:1|2:1,0:0:0:0:
494,171,72003,6,0,P|437:157|377:133,3,119,10|10|10|10,2:1|2:1|2:1|2:1,0:0:0:0:
272,58,73329,2,0,P|280:89|290:130,1,59.4999999999999,8|2,2:1|2:2,0:0:0:0:
352,58,73660,2,0,P|359:29|367:1,1,59.4999999999999,10|2,2:1|2:2,0:0:0:0:
209,138,73992,2,0,P|257:152|323:186,1,119,10|8,2:1|2:1,0:0:0:0:
49,29,74655,6,0,P|55:50|63:81,3,34,10|8|10|8,2:1|2:3|2:3|2:3,0:0:0:0:
135,81,74986,2,0,P|128:102|121:133,3,34,10|8|10|8,2:1|2:3|2:3|2:3,0:0:0:0:
63,150,75318,2,0,P|69:171|77:202,3,34,10|8|8|8,2:1|2:3|2:3|2:3,0:0:0:0:
123,238,75649,2,0,P|116:259|109:290,1,34,8|8,2:1|2:3,0:0:0:0:
127,245,75815,2,0,P|120:266|113:297,1,34,10|8,2:3|2:3,0:0:0:0:
184,351,75981,5,8,2:1:0:0:
184,351,76063,1,8,2:3:0:0:
184,351,76146,2,0,L|151:361,1,34,10|8,2:3|2:3,0:0:0:0:
294,338,76312,5,10,2:1:0:0:
294,338,76395,1,8,2:3:0:0:
294,338,76478,2,0,L|319:361,1,34,10|8,2:3|2:3,0:0:0:0:
227,261,76644,5,10,2:1:0:0:
227,261,76726,1,8,2:3:0:0:
227,261,76809,2,0,L|234:228,1,34,8|8,2:3|2:3,0:0:0:0:
183,165,76975,2,0,L|175:132,1,34,8|8,2:1|2:3,0:0:0:0:
173,161,77141,2,0,L|165:128,1,34,8|8,2:3|2:3,0:0:0:0:
228,63,77307,5,10,2:1:0:0:
254,48,77389,1,8,2:3:0:0:
285,50,77472,1,10,2:3:0:0:
311,67,77555,1,8,2:3:0:0:
327,98,77638,1,10,2:1:0:0:
354,121,77721,1,8,2:3:0:0:
384,131,77804,1,10,2:3:0:0:
415,126,77887,1,8,2:3:0:0:
439,111,77970,6,0,L|446:78,1,34,10|8,2:1|2:3,0:0:0:0:
378,33,78135,2,0,L|370:0,1,34,8|8,2:3|2:3,0:0:0:0:
439,111,78301,1,10,2:2:0:0:
264,171,78467,6,0,B|182:188|203:218|120:238,1,153,10|10,2:2|2:2,0:0:0:0:
58,274,78964,1,10,2:2:0:0:
96,107,79130,5,10,2:2:0:0:
96,107,79213,1,8,2:2:0:0:
96,107,79295,2,0,L|104:146,3,38.25,10|8|8|8,2:1|2:2|2:2|2:2,0:0:0:0:
40,193,79627,1,10,2:2:0:0:
175,80,79793,1,8,2:3:0:0:
81,20,79958,6,0,P|41:1|-10:14,1,76.5000000000001,14|0,2:1|0:0,0:0:0:0:
195,160,80290,2,0,P|232:161|266:143,1,76.5000000000001,10|2,2:2|2:2,0:0:0:0:
343,80,80621,2,0,B|318:103|292:116|292:116|313:150|334:205,1,153,10|8,2:1|2:2,0:0:0:0:
376,356,81119,1,2,2:2:0:0:
293,308,81284,6,0,P|286:345|276:382,1,76.5000000000001,8|0,2:1|0:0,0:0:0:0:
226,240,81616,2,0,P|201:274|208:311,1,76.5000000000001,10|0,2:2|0:0,0:0:0:0:
376,356,81947,2,0,B|458:339|437:309|520:289,1,153,10|8,2:1|2:2,0:0:0:0:
416,108,82610,6,0,P|436:151|399:219,1,114.75,10|0,2:1|0:0,0:0:0:0:
335,186,82942,2,0,P|328:148|318:111,1,76.5000000000001,10|2,2:2|2:2,0:0:0:0:
218,8,83273,2,0,P|196:42|241:148,1,153,10|8,2:1|2:2,0:0:0:0:
228,140,83771,1,2,2:2:0:0:
81,243,83936,6,0,P|136:257|198:289,1,114.75,12|0,2:1|0:0,0:0:0:0:
195,289,84268,2,0,P|229:259|228:218,1,76.5000000000001,10|14,2:2|2:1,0:0:0:0:
153,101,84599,2,0,P|95:125|-3:149,1,153,2|8,2:2|2:2,0:0:0:0:
153,101,85097,1,8,2:2:0:0:
79,158,85262,5,14,2:1:0:0:
240,75,85428,1,2,2:2:0:0:
114,19,85594,1,10,2:2:0:0:
221,173,85760,2,0,P|295:190|366:219,1,153,2|8,2:2|2:1,0:0:0:0:
505,70,86257,1,8,2:2:0:0:
426,114,86423,2,0,P|438:148|449:185,1,76.5000000000001,2|8,2:2|2:1,0:0:0:0:
512,332,86754,5,2,2:2:0:0:
457,279,86920,1,10,2:2:0:0:
381,297,87086,1,2,2:2:0:0:
345,365,87251,2,0,P|307:372|270:384,1,76.5000000000001,10|8,2:1|2:1,0:0:0:0:
156,310,87583,2,0,P|132:340|139:384,1,76.5000000000001,8|0,2:2|0:0,0:0:0:0:
249,283,87914,5,10,2:1:0:0:
230,209,88080,1,2,2:2:0:0:
211,135,88246,1,10,2:2:0:0:
305,165,88412,1,2,2:2:0:0:
140,227,88577,2,0,P|103:215|65:209,1,76.5000000000001,8|8,2:1|2:1,0:0:0:0:
4,147,88909,1,8,2:2:0:0:
153,33,89075,6,0,P|208:23|261:63,1,114.75,14|0,2:1|0:0,0:0:0:0:
255,53,89406,5,10,2:2:0:0:
336,2,89572,2,0,P|366:37|362:74,1,76.5000000000001,10|10,2:2|2:1,0:0:0:0:
229,208,89903,2,0,P|218:171|204:136,1,76.5000000000001,10|8,2:2|2:1,0:0:0:0:
305,165,90235,2,0,P|360:161|403:197,1,114.75
482,200,90566,6,0,B|387:213|416:266|317:280,1,187,14|10,2:1|2:2,0:0:0:0:
142,368,91063,1,0,0:0:0:0:
157,284,91229,2,0,P|200:300|245:312,1,93.5000000000001,10|0,2:1|0:0,0:0:0:0:
85,206,91561,2,0,P|41:236|39:295,1,93.5000000000001,10|0,2:2|0:0,0:0:0:0:
208,197,91892,6,0,P|244:102|192:31,2,187,10|10|10,2:1|2:2|2:1,0:0:0:0:
277,62,92721,1,0,0:0:0:0:
72,96,92887,2,0,P|117:107|161:124,1,93.5000000000001,10|2,2:2|2:2,0:0:0:0:
328,209,93218,6,0,B|314:308|261:279|248:374,1,187,14|8,2:1|2:2,0:0:0:0:
237,290,93715,1,2,2:2:0:0:
422,338,93881,6,0,P|376:349|332:366,1,93.5000000000001,10|0,2:1|0:0,0:0:0:0:
410,237,94213,2,0,P|455:232|489:263,1,93.5000000000001,8|2,2:2|2:2,0:0:0:0:
248,373,94544,6,0,P|181:353|98:340,1,140.25,10|0,2:1|0:0,0:0:0:0:
50,384,94876,2,0,P|19:349|29:291,1,93.5000000000001,10|0,2:2|0:0,0:0:0:0:
141,154,95207,2,0,P|181:200|151:272,1,140.25,10|0,2:1|0:0,0:0:0:0:
156,268,95539,1,14,2:2:0:0:
34,142,95704,5,8,2:2:0:0:
34,142,95787,1,8,2:2:0:0:
34,142,95870,2,0,P|104:128|219:89,1,187,14|10,2:1|2:2,0:0:0:0:
292,135,96367,1,0,0:0:0:0:
165,0,96533,2,0,P|134:36|137:89,1,93.5000000000001,10|0,2:1|0:0,0:0:0:0:
347,43,96865,2,0,P|297:31|246:13,1,93.5000000000001,10|0,2:2|0:0,0:0:0:0:
111,154,97196,6,0,B|125:253|178:224|191:319,1,187,10|10,2:1|2:2,0:0:0:0:
155,384,97693,1,0,0:0:0:0:
51,295,97859,2,0,P|91:256|152:265,1,93.5000000000001,10|0,2:1|0:0,0:0:0:0:
203,167,98191,2,0,P|242:181|264:236,1,93.5000000000001,10|2,2:2|2:2,0:0:0:0:
193,321,98439,5,0,0:0:0:0:
193,321,98522,2,0,P|245:254|338:273,1,187,14|8,2:1|2:2,0:0:0:0:
394,338,99019,1,2,2:2:0:0:
505,215,99185,6,0,P|492:264|484:313,1,93.5000000000001,10|0,2:1|0:0,0:0:0:0:
365,178,99516,1,8,2:2:0:0:
481,112,99682,1,2,2:2:0:0:
352,34,99848,5,10,2:1:0:0:
322,16,99931,1,8,2:2:0:0:
287,12,100014,1,10,2:2:0:0:
253,22,100097,1,8,2:2:0:0:
228,51,100179,2,0,L|244:103,3,46.7500000000001,10|8|8|8,2:2|2:2|2:3|2:3,0:0:0:0:
226,174,100511,2,0,L|242:226,3,46.7500000000001,10|8|8|8,2:3|2:3|2:3|2:3,0:0:0:0:
313,292,100842,1,8,2:3:0:0:
313,292,100925,1,8,2:3:0:0:
313,292,101008,1,8,2:3:0:0:
313,292,101091,1,8,2:3:0:0:
313,292,101174,6,0,P|353:253|414:262,1,93.5000000000001,14|0,2:1|0:0,0:0:0:0:
254,384,101505,2,0,P|210:367|165:354,1,93.5000000000001,10|0,2:2|0:0,0:0:0:0:
37,274,101837,2,0,P|3:305|1:350,1,93.5000000000001,10|0,2:1|0:0,0:0:0:0:
156,267,102168,2,0,P|175:199|200:134,1,140.25,10|0,2:2|0:0,0:0:0:0:
136,70,102500,6,0,P|180:57|224:40,1,93.5000000000001,10|0,2:1|0:0,0:0:0:0:
378,192,102831,2,0,P|334:175|289:162,1,93.5000000000001,10|0,2:2|0:0,0:0:0:0:
463,100,103163,1,10,2:1:0:0:
322,37,103329,1,0,0:0:0:0:
378,192,103494,2,0,P|394:235|407:280,1,93.5000000000001,10|2,2:2|2:2,0:0:0:0:
484,315,103743,5,0,0:0:0:0:
484,315,103826,2,0,P|426:300|348:390,1,187,14|8,2:1|2:2,0:0:0:0:
436,381,104323,1,2,2:2:0:0:
287,260,104489,6,0,P|259:308|269:356,1,93.5000000000001,10|0,2:1|0:0,0:0:0:0:
378,192,104820,2,0,P|343:148|297:143,1,93.5000000000001,8|2,2:2|2:2,0:0:0:0:
95,258,105152,6,0,P|145:302|211:286,1,140.25,10|0,2:1|0:0,0:0:0:0:
204,208,105483,2,0,P|216:163|233:119,1,93.5000000000001,10|0,2:2|0:0,0:0:0:0:
112,174,105815,1,14,2:1:0:0:
287,260,105981,1,8,2:2:0:0:
287,260,106063,1,8,2:2:0:0:
287,260,106146,2,0,P|308:252|338:245,3,46.7500000000001,10|8|8|8,2:2|2:2|2:2|2:2,0:0:0:0:
393,318,106478,6,0,P|405:273|422:229,1,93.5000000000001,14|0,2:1|0:0,0:0:0:0:
317,68,106809,2,0,P|333:111|345:156,1,93.5000000000001,10|0,2:2|0:0,0:0:0:0:
380,0,107141,2,0,P|425:-5|469:30,1,93.5000000000001,10|0,2:1|0:0,0:0:0:0:
242,137,107472,2,0,P|182:120|87:108,1,140.25,10|0,2:2|0:0,0:0:0:0:
42,56,107804,6,0,B|55:151|108:122|122:221,2,187,10|10|10,2:1|2:2|2:1,0:0:0:0:
127,13,108633,1,8,2:2:0:0:
127,13,108715,1,8,2:2:0:0:
127,13,108798,1,10,2:2:0:0:
24,194,108964,5,10,2:3:0:0:
24,194,109047,1,8,2:3:0:0:
24,194,109130,2,0,P|69:206|113:223,1,93.5000000000001,14|0,2:1|0:0,0:0:0:0:
196,275,109461,1,8,2:2:0:0:
105,108,109627,1,2,2:2:0:0:
294,156,109793,6,0,P|248:168|205:184,1,93.5000000000001,10|8,2:1|2:1,0:0:0:0:
112,222,110124,1,8,2:2:0:0:
210,51,110290,1,2,2:2:0:0:
16,79,110456,6,0,P|61:91|104:107,1,93.5000000000001,10|10,2:1|2:1,0:0:0:0:
292,28,110787,2,0,P|248:23|203:63,1,93.5000000000001,10|8,2:2|2:1,0:0:0:0:
415,136,111119,2,0,P|456:96|444:8,1,140.25,10|0,2:2|0:0,0:0:0:0:
444,15,111450,1,8,2:2:0:0:
294,156,111616,5,2,2:2:0:0:
294,156,111699,1,0,0:0:0:0:
294,156,111782,2,0,P|323:245|342:351,1,187,14|8,2:1|2:2,0:0:0:0:
363,211,112279,1,2,2:2:0:0:
247,297,112445,6,0,P|235:350|251:388,1,93.5000000000001,10|8,2:1|2:1,0:0:0:0:
340,336,112776,1,8,2:2:0:0:
161,213,112942,1,2,2:2:0:0:
205,127,113108,6,0,P|248:143|293:155,1,93.5000000000001,10|10,2:1|2:1,0:0:0:0:
84,255,113439,2,0,P|52:222|56:165,1,93.5000000000001,10|8,2:2|2:1,0:0:0:0:
247,297,113771,2,0,P|199:288|130:360,1,140.25,10|0,2:2|0:0,0:0:0:0:
133,343,114102,1,14,2:2:0:0:
434,224,114434,6,0,P|470:180|466:131,1,93.5000000000001,8|10,2:1|2:2,0:0:0:0:
381,8,114765,2,0,P|367:52|350:96,1,93.5000000000001,10|10,2:2|2:2,0:0:0:0:
144,151,115097,5,10,2:2:0:0:
194,13,115262,1,10,2:2:0:0:
136,70,115428,1,10,2:2:0:0:
278,27,115594,1,10,2:2:0:0:
147,158,115760,6,0,B|79:146|104:118|30:105,1,127.5,14|2,2:1|2:2,0:0:0:0:
26,111,116091,2,0,P|8:150|45:204,1,85,10|2,2:2|2:2,0:0:0:0:
21,187,116340,1,2,2:2:0:0:
21,187,116423,1,10,2:1:0:0:
103,271,116588,2,0,P|49:287|7:308,1,85,2|8,2:2|2:2,0:0:0:0:
147,158,116920,6,0,P|185:174|226:185,1,85,2|8,2:2|2:1,0:0:0:0:
322,290,117251,1,2,2:2:0:0:
180,378,117417,1,8,2:2:0:0:
225,274,117583,6,0,P|241:312|252:353,1,85,2|8,2:2|2:1,0:0:0:0:
453,240,117914,1,2,2:2:0:0:
401,317,118080,2,0,P|362:300|321:289,1,85,8|2,2:2|2:2,0:0:0:0:
321,289,118329,5,0,0:0:0:0:
321,289,118412,1,8,2:1:0:0:
227,185,118577,1,2,2:2:0:0:
309,116,118743,2,0,P|328:152|321:199,1,85,10|2,2:2|2:2,0:0:0:0:
322,194,118992,1,2,0:0:0:0:
322,194,119075,1,10,2:1:0:0:
396,75,119240,2,0,P|437:63|475:47,1,85,2|10,2:2|2:2,0:0:0:0:
227,185,119572,6,0,P|188:168|147:157,1,85,2|8,2:2|2:1,0:0:0:0:
40,213,119903,1,2,2:2:0:0:
144,291,120069,1,8,2:2:0:0:
62,380,120235,6,0,P|40:341|52:299,1,85,2|8,2:2|2:1,0:0:0:0:
264,344,120566,2,0,P|222:355|184:371,1,85,2|12,2:2|2:2,0:0:0:0:
144,291,120898,1,2,2:2:0:0:
327,203,121063,6,0,B|375:213|410:256|410:256|446:237|476:240,2,170,14|8|8,2:1|2:2|2:1,0:0:0:0:
414,68,121892,1,0,0:0:0:0:
414,68,122058,2,0,P|439:113|432:146,1,85,8|2,2:2|2:2,0:0:0:0:
225,198,122389,6,0,P|246:144|360:126,1,170,10|8,2:1|2:2,0:0:0:0:
225,198,122887,1,0,0:0:0:0:
151,80,123052,2,0,P|189:96|230:107,1,85,10|0,2:1|0:0,0:0:0:0:
336,257,123384,2,0,P|294:268|256:284,1,85,8|8,2:2|2:2,0:0:0:0:
192,352,123633,5,8,2:2:0:0:
192,352,123715,2,0,B|135:336|95:314|95:314|72:340|35:363,1,170,14|12,2:1|2:2,0:0:0:0:
104,210,124213,1,2,2:2:0:0:
104,210,124295,1,2,2:2:0:0:
104,210,124378,2,0,P|114:251|131:290,1,85,14|0,2:1|0:0,0:0:0:0:
19,262,124710,1,12,2:2:0:0:
180,153,124876,5,10,2:2:0:0:
180,153,124958,1,10,2:2:0:0:
180,153,125041,2,0,P|228:145|267:170,1,85,10|8,2:1|2:2,0:0:0:0:
335,132,125290,1,8,2:2:0:0:
335,132,125373,2,0,P|363:101|361:57,1,85,8|10,2:1|2:2,0:0:0:0:
362,59,125621,1,10,2:2:0:0:
362,59,125704,1,10,2:1:0:0:
489,200,125870,5,8,2:2:0:0:
453,179,125953,1,8,2:2:0:0:
410,186,126036,1,10,2:2:0:0:
383,216,126119,1,8,2:2:0:0:
380,256,126202,2,0,P|386:276|390:297,1,42.5,8|8,2:2|2:2,0:0:0:0:
335,362,126367,1,12,2:1:0:0:
201,230,126533,5,2,2:2:0:0:
273,280,126699,2,0,P|256:318|245:360,1,85,14|2,2:2|2:2,0:0:0:0:
97,258,127030,1,10,2:1:0:0:
67,360,127196,2,0,P|105:343|147:332,1,85,2|8,2:2|2:2,0:0:0:0:
245,360,127528,1,2,2:2:0:0:
97,257,127693,5,10,2:1:0:0:
201,145,127859,1,2,2:2:0:0:
67,92,128025,1,10,2:2:0:0:
201,230,128191,2,0,P|256:252|357:203,1,170,2|2,2:2|2:2,0:0:0:0:
313,73,128688,2,0,P|287:119|299:160,1,85,10|2,2:2|2:2,0:0:0:0:
418,266,129019,5,12,2:1:0:0:
348,366,129185,2,0,P|332:320|315:285,1,85,2|10,2:2|2:2,0:0:0:0:
455,182,129516,2,0,P|436:220|423:260,1,85,2|10,2:2|2:1,0:0:0:0:
247,374,129848,2,0,B|164:360|188:322|78:308,1,170,2|2,2:2|2:2,0:0:0:0:
39,380,130345,5,14,2:1:0:0:
174,295,130511,1,2,2:2:0:0:
68,187,130677,1,10,2:2:0:0:
177,192,130842,6,0,P|115:212|15:253,1,170,14|10,2:1|2:1,0:0:0:0:
129,101,131340,2,0,P|89:90|43:73,1,85,14|0,2:2|0:0,0:0:0:0:
184,195,131671,5,14,2:1:0:0:
194,188,131754,1,0,0:0:0:0:
206,183,131837,1,2,2:2:0:0:
217,179,131920,1,0,0:0:0:0:
229,177,132003,2,0,P|251:169|271:164,3,42.5,10|0|2|0,2:2|0:0|2:2|0:0,0:0:0:0:
362,90,132334,2,0,L|348:130,3,42.5,10|0|2|0,2:1|0:0|2:2|0:0,0:0:0:0:
451,178,132666,2,0,L|436:132,3,42.5,10|0|2|0,2:2|0:0|2:2|0:0,0:0:0:0:
367,214,132997,5,10,2:1:0:0:
337,246,133080,1,0,0:0:0:0:
334,288,133163,1,2,2:2:0:0:
360,324,133246,1,0,0:0:0:0:
399,338,133329,2,0,L|412:297,3,42.5,10|0|2|0,2:2|0:0|2:2|0:0,0:0:0:0:
334,288,133660,6,0,B|251:302|275:340|165:354,1,170,10|8,2:1|2:2,0:0:0:0:
33,238,134157,5,8,2:2:0:0:
33,238,134240,1,8,2:2:0:0:
33,238,134323,2,0,P|47:277|58:318,1,85,14|0,2:1|0:0,0:0:0:0:
175,223,134655,2,0,P|186:182|200:142,1,85,8|2,2:2|2:2,0:0:0:0:
133,62,134986,2,0,P|95:90|40:83,1,85,8|0,2:1|0:0,0:0:0:0:
277,205,135318,2,0,P|319:178|408:198,1,127.5,8|2,2:2|2:2,0:0:0:0:
398,194,135649,5,14,2:1:0:0:
483,131,135815,1,2,2:2:0:0:
376,18,135981,2,0,P|389:58|402:110,1,85,14|2,2:2|2:2,0:0:0:0:
316,317,136312,5,10,2:2:0:0:
449,263,136478,1,10,2:2:0:0:
277,205,136644,1,10,2:2:0:0:
488,375,136809,1,14,2:2:0:0:
256,192,136892,12,2,138301,2:2:0:0:
25,59,148909,6,0,P|93:48|139:113,2,136,10|10|10,2:1|2:1|2:1,0:0:0:0:
133,175,149903,2,0,P|89:188|59:200,1,68,10|0,2:1|0:0,0:0:0:0:
202,31,150235,6,0,P|248:50|335:77,2,136,10|10|10,2:1|2:1|2:1,0:0:0:0:
398,123,151229,2,0,P|423:86|420:56,1,68,10|2,2:1|2:2,0:0:0:0:
212,144,151561,6,0,B|207:216|248:203|243:273,1,136,10|8,2:1|2:1,0:0:0:0:
242,273,152058,1,2,2:2:0:0:
372,221,152224,2,0,P|324:177|258:209,1,136,10|8,2:1|2:1,0:0:0:0:
264,199,152721,1,2,2:2:0:0:
190,335,152887,6,0,P|236:316|323:289,2,136,10|10|10,2:1|2:1|2:1,0:0:0:0:
399,317,153881,2,0,P|408:349|419:381,1,68,10|0,2:1|0:0,0:0:0:0:
242,273,154213,6,0,L|228:230,3,38.25,10|8|8|8,2:2|2:3|2:3|2:3,0:0:0:0:
156,230,154544,2,0,L|167:193,3,38.25,10|8|8|8,2:2|2:3|2:3|2:3,0:0:0:0:
126,130,154876,2,0,L|162:118,3,38.25,10|8|8|8,2:2|2:3|2:3|2:3,0:0:0:0:
165,41,155207,2,0,L|201:52,3,38.25,10|8|8|8,2:2|2:3|2:3|2:3,0:0:0:0:
269,11,155539,5,10,2:2:0:0:
296,33,155621,1,8,2:3:0:0:
311,61,155704,1,8,2:3:0:0:
307,94,155787,1,8,2:3:0:0:
287,125,155870,2,0,L|250:136,3,38.25,10|8|8|8,2:2|2:3|2:3|2:3,0:0:0:0:
167,193,156202,5,10,2:2:0:0:
140,215,156284,1,8,2:3:0:0:
125,243,156367,1,8,2:3:0:0:
129,276,156450,1,8,2:3:0:0:
149,307,156533,2,0,L|185:318,3,38.25,10|8|10|8,2:2|2:3|2:3|2:3,0:0:0:0:
247,378,156865,5,10,2:2:0:0:
247,378,156947,1,8,2:3:0:0:
247,378,157030,2,0,L|262:326,1,42.5,8|8,2:3|2:3,0:0:0:0:
345,338,157196,5,8,2:2:0:0:
345,338,157279,1,8,2:3:0:0:
345,338,157362,2,0,L|330:286,1,42.5,10|8,2:3|2:3,0:0:0:0:
373,229,157528,5,10,2:2:0:0:
411,204,157610,1,8,2:3:0:0:
456,206,157693,1,8,2:3:0:0:
493,233,157776,1,8,2:3:0:0:
508,273,157859,1,10,2:2:0:0:
429,370,158025,1,10,2:2:0:0:
512,0,159516,6,0,P|472:52|353:38,1,187,14|10,2:1|2:2,0:0:0:0:
211,127,160014,1,0,0:0:0:0:
266,16,160179,2,0,P|278:61|296:105,1,93.5,10|0,2:1|0:0,0:0:0:0:
345,252,160511,2,0,P|375:212|363:163,1,93.5,10|0,2:2|0:0,0:0:0:0:
211,127,160842,6,0,P|147:151|64:170,1,140.25,10|0,2:1|0:0,0:0:0:0:
8,141,161174,2,0,B|-3:186|-3:186|31:229,1,93.5,10|0,2:2|0:0,0:0:0:0:
156,330,161505,1,10,2:1:0:0:
123,263,161671,1,0,0:0:0:0:
76,381,161837,1,10,2:2:0:0:
237,315,162003,5,2,2:2:0:0:
148,169,162168,2,0,P|135:214|118:257,1,93.5,10|0,2:1|0:0,0:0:0:0:
268,146,162500,1,8,2:2:0:0:
351,304,162666,1,2,2:2:0:0:
221,237,162831,6,0,P|283:225|365:206,1,140.25,10|0,2:1|0:0,0:0:0:0:
364,213,163163,1,8,2:2:0:0:
466,83,163329,1,2,2:2:0:0:
345,119,163494,6,0,P|402:139|438:162,1,93.5,10|2,2:1|2:2,0:0:0:0:
259,56,163826,2,0,P|297:20|354:27,1,93.5,10|0,2:2|0:0,0:0:0:0:
191,141,164157,2,0,P|137:166|45:139,1,140.25,10|0,2:1|0:0,0:0:0:0:
3,101,164489,2,0,P|26:60|40:15,1,93.5,10|8,2:2|2:2,0:0:0:0:
131,191,164820,6,0,P|98:262|61:370,1,187,14|10,2:1|2:2,0:0:0:0:
18,241,165318,1,0,0:0:0:0:
199,276,165483,2,0,P|154:290|113:313,1,93.5,10|0,2:1|0:0,0:0:0:0:
301,225,165815,2,0,P|260:201|215:187,1,93.5,10|0,2:2|0:0,0:0:0:0:
301,363,166146,6,0,P|341:314|428:336,1,140.25,10|0,2:1|0:0,0:0:0:0:
462,374,166478,2,0,P|495:334|480:287,1,93.5,10|0,2:2|0:0,0:0:0:0:
409,156,166809,2,0,P|376:196|391:243,1,93.5,10|0,2:1|0:0,0:0:0:0:
496,183,167141,1,12,2:2:0:0:
346,79,167307,5,2,2:2:0:0:
346,79,167389,1,0,0:0:0:0:
346,79,167472,2,0,B|246:102|286:146|177:165,1,187,14|8,2:1|2:2,0:0:0:0:
33,48,167970,1,2,2:2:0:0:
95,117,168135,6,0,P|77:160|65:205,1,93.5,10|0,2:1|0:0,0:0:0:0:
14,373,168467,1,8,2:2:0:0:
164,298,168633,1,10,2:2:0:0:
72,295,168798,5,10,2:1:0:0:
72,295,168881,1,8,2:2:0:0:
72,295,168964,2,0,P|80:317|89:347,1,46.75,10|8,2:2|2:2,0:0:0:0:
182,383,169130,5,10,2:1:0:0:
227,363,169213,1,8,2:2:0:0:
254,320,169295,1,8,2:2:0:0:
259,273,169378,1,8,2:2:0:0:
233,227,169461,2,0,P|210:220|184:211,3,46.75,10|8|8|8,2:1|2:2|2:2|2:2,0:0:0:0:
117,226,169793,5,8,2:1:0:0:
72,206,169876,1,8,2:2:0:0:
45,163,169958,1,8,2:2:0:0:
40,116,170041,1,8,2:2:0:0:
67,73,170124,6,0,B|164:72|135:130|248:137,1,187,14|14,2:1|2:2,0:0:0:0:
388,73,170621,1,0,0:0:0:0:
324,7,170787,2,0,P|294:43|306:93,1,93.5,10|0,2:1|0:0,0:0:0:0:
423,215,171119,2,0,P|453:179|441:129,1,93.5,10|0,2:2|0:0,0:0:0:0:
318,244,171450,6,0,P|391:240|459:328,2,187,10|10|10,2:1|2:2|2:1,0:0:0:0:
364,152,172279,1,0,0:0:0:0:
233,227,172445,1,10,2:2:0:0:
375,329,172610,1,2,2:2:0:0:
318,244,172776,6,0,P|253:270|131:301,1,187,14|8,2:1|2:2,0:0:0:0:
255,303,173273,1,2,2:2:0:0:
88,224,173439,6,0,P|70:272|49:314,1,93.5,10|0,2:1|0:0,0:0:0:0:
0,384,173771,1,8,2:2:0:0:
139,299,173936,1,2,2:2:0:0:
25,142,174102,6,0,P|-8:189|5:229,1,93.5,8|2,2:1|2:2,0:0:0:0:
114,76,174434,2,0,P|83:30|39:27,1,93.5,10|0,2:2|0:0,0:0:0:0:
145,169,174765,2,0,P|195:201|286:182,1,140.25,14|0,2:1|0:0,0:0:0:0:
327,246,175097,2,0,P|364:209|360:164,1,93.5,14|8,2:2|2:2,0:0:0:0:
269,69,175428,6,0,P|306:154|326:245,1,187,14|10,2:1|2:2,0:0:0:0:
362,170,175925,1,0,0:0:0:0:
248,279,176091,2,0,P|264:338|267:384,1,93.5,10|0,2:1|0:0,0:0:0:0:
407,268,176423,2,0,P|371:240|326:245,1,93.5,10|0,2:2|0:0,0:0:0:0:
173,341,176754,6,0,P|120:324|23:307,1,140.25,10|0,2:1|0:0,0:0:0:0:
33,315,177086,1,10,2:2:0:0:
171,231,177251,1,0,0:0:0:0:
28,128,177417,1,10,2:1:0:0:
136,169,177583,1,8,2:1:0:0:
66,195,177749,1,14,2:2:0:0:
165,74,177914,5,2,2:2:0:0:
165,74,177997,1,0,0:0:0:0:
165,74,178080,2,0,P|243:58|316:138,1,187,14|8,2:1|2:2,0:0:0:0:
472,42,178577,1,2,2:2:0:0:
364,12,178743,6,0,P|384:54|401:100,1,93.5,10|8,2:1|2:1,0:0:0:0:
496,200,179075,1,8,2:2:0:0:
359,296,179240,1,2,2:2:0:0:
402,187,179406,6,0,P|417:230|438:272,1,93.5,10|10,2:1|2:1,0:0:0:0:
318,372,179737,2,0,P|281:318|190:330,1,140.25,10|0,2:2|0:0,0:0:0:0:
207,321,180069,5,14,2:2:0:0:
318,224,180235,1,8,2:1:0:0:
257,139,180400,2,0,P|241:182|220:224,1,93.5,12|2,2:2|2:2,0:0:0:0:
84,360,180732,6,0,P|42:311|99:194,1,187,14|8,2:1|2:2,0:0:0:0:
197,53,181229,1,2,2:2:0:0:
115,91,181395,6,0,P|135:133|151:176,1,93.5,10|8,2:1|2:1,0:0:0:0:
197,53,181726,1,8,2:2:0:0:
66,10,181892,1,2,2:2:0:0:
257,139,182058,6,0,P|316:174|395:160,1,140.25,10|0,2:1|0:0,0:0:0:0:
436,110,182389,2,0,P|387:86|348:100,1,93.5,14|8,2:2|2:1,0:0:0:0:
219,224,182721,6,0,P|239:276|261:361,1,140.25,10|0,2:2|0:0,0:0:0:0:
334,383,183052,2,0,P|350:340|328:300,1,93.5,8|10,2:2|2:1,0:0:0:0:
128,277,183384,6,0,P|78:297|22:312,1,93.5,14|8,2:2|2:1,0:0:0:0:
145,360,183715,1,8,2:2:0:0:
0,231,183881,1,10,2:1:0:0:
117,114,184047,6,0,P|97:164|82:220,1,93.5,10|8,2:2|2:1,0:0:0:0:
176,28,184378,1,8,2:2:0:0:
38,73,184544,1,10,2:1:0:0:
185,192,184710,5,10,2:2:0:0:
317,45,184876,1,10,2:1:0:0:
205,117,185041,1,10,2:2:0:0:
284,120,185207,1,8,2:1:0:0:
176,28,185373,2,0,P|192:71|204:116,1,93.5,14|8,2:2|2:1,0:0:0:0:
420,244,185704,2,0,P|377:194|295:204,1,140.25000428009,12|0,2:2|0:0,0:0:0:0:
316,274,186036,6,0,P|333:317|344:362,1,93.5,12|8,2:2|2:1,0:0:0:0:
244,241,186367,1,8,2:2:0:0:
385,172,186533,1,10,2:1:0:0:
243,346,186699,2,0,P|198:357|155:374,1,93.5,10|8,2:2|2:1,0:0:0:0:
0,208,187030,1,8,2:2:0:0:
142,288,187196,1,10,2:1:0:0:
0,383,187362,5,14,2:1:0:0:
53,295,187528,1,10,2:2:0:0:
53,295,187610,1,8,2:2:0:0:
53,295,187693,2,0,P|65:319|75:347,3,46.75,10|8|8|8,2:1|2:2|2:2|2:2,0:0:0:0:
142,288,188025,5,10,2:1:0:0:
151,255,188108,1,8,2:2:0:0:
160,222,188191,1,8,2:2:0:0:
171,188,188273,1,8,2:2:0:0:
186,155,188356,2,0,P|194:133|205:112,3,46.75,8|8|8|8,2:3|2:3|2:3|2:3,0:0:0:0:
240,39,188688,6,0,P|189:93|83:69,2,187,14|10|10,2:1|2:2|2:1,0:0:0:0:
367,137,189516,1,0,0:0:0:0:
309,192,189682,2,0,P|282:146|303:93,1,93.5,10|0,2:2|0:0,0:0:0:0:
422,30,190014,6,0,P|462:81|434:162,1,140.25,10|0,2:1|0:0,0:0:0:0:
512,207,190345,2,0,P|454:224|414:242,1,93.5,10|0,2:2|0:0,0:0:0:0:
313,362,190677,2,0,P|330:318|343:273,1,93.5,10|0,2:1|0:0,0:0:0:0:
200,162,191008,2,0,P|217:205|230:250,1,93.5,10|8,2:2|2:2,0:0:0:0:
159,349,191340,5,12,2:1:0:0:
28,240,191505,1,2,2:2:0:0:
0,330,191671,2,0,P|43:312|88:299,1,93.5,10|0,2:2|0:0,0:0:0:0:
230,250,192003,5,8,2:1:0:0:
130,118,192168,1,2,2:2:0:0:
232,70,192334,2,0,P|214:113|201:158,1,93.5,10|0,2:2|0:0,0:0:0:0:
327,263,192666,5,8,2:1:0:0:
459,147,192831,1,2,2:2:0:0:
477,234,192997,2,0,P|434:216|389:203,1,93.5,14|0,2:2|0:0,0:0:0:0:
323,126,193329,6,0,P|321:80|356:42,1,93.5,12|2,2:1|2:2,0:0:0:0:
477,234,193660,2,0,P|478:279|444:318,1,93.5,14|8,2:2|2:2,0:0:0:0:
484,384,193909,5,8,2:2:0:0:
484,384,193992,2,0,P|447:339|318:355,2,187,14|10|10,2:1|2:2|2:1,0:0:0:0:
327,263,194820,1,0,0:0:0:0:
389,203,194986,2,0,P|433:215|477:234,1,93.5,10|0,2:2|0:0,0:0:0:0:
327,345,195318,6,0,P|267:361|197:309,1,140.25,14|0,2:1|0:0,0:0:0:0:
137,362,195649,2,0,P|124:317|106:274,1,93.5,14|8,2:2|2:2,0:0:0:0:
106,274,195898,1,8,2:2:0:0:
106,274,195981,1,14,2:1:0:0:
246,100,196146,1,8,2:2:0:0:
276,131,196229,1,8,2:2:0:0:
283,175,196312,1,10,2:2:0:0:
267,211,196395,1,8,2:2:0:0:
234,241,196478,2,0,P|211:231|188:226,1,46.75,8|8,2:2|2:2,0:0:0:0:
126,175,196644,6,0,P|74:196|15:206,1,85,14|2,2:1|2:2,0:0:0:0:
155,96,196975,1,10,2:2:0:0:
111,18,197141,2,0,P|76:52|83:98,1,85,2|10,2:2|2:1,0:0:0:0:
208,159,197472,1,10,2:1:0:0:
155,96,197638,1,10,2:2:0:0:
45,202,197804,6,0,B|62:289|91:265|114:355,1,170,2|10,2:2|2:1,0:0:0:0:
194,283,198301,2,0,P|147:257|106:269,1,85,10|10,2:2|2:1,0:0:0:0:
259,354,198633,2,0,P|304:355|341:320,1,85,10|10,2:2|2:1,0:0:0:0:
233,155,198964,2,0,P|258:214|275:275,1,127.5,10|0,2:2|0:0,0:0:0:0:
278,281,199295,6,0,P|288:239|305:200,1,85,14|2,2:1|2:2,0:0:0:0:
460,107,199627,1,10,2:2:0:0:
357,68,199793,2,0,P|373:106|384:148,1,85,2|10,2:2|2:1,0:0:0:0:
364,277,200124,1,10,2:1:0:0:
449,232,200290,1,10,2:2:0:0:
305,200,200456,6,0,B|218:217|242:246|151:269,1,170,2|10,2:2|2:1,0:0:0:0:
179,138,200953,2,0,P|212:178|205:215,1,85,10|10,2:2|2:1,0:0:0:0:
100,344,201284,2,0,P|67:304|74:267,1,85,14|10,2:2|2:1,0:0:0:0:
0,160,201616,2,0,P|55:181|140:198,1,127.5,14|0,2:2|0:0,0:0:0:0:
121,195,201947,5,14,2:2:0:0:
82,102,202113,1,10,2:1:0:0:
179,138,202279,5,10,2:2:0:0:
148,10,202445,1,10,2:1:0:0:
271,155,202610,5,10,2:2:0:0:
342,18,202776,1,10,2:1:0:0:
222,64,202942,5,10,2:2:0:0:
363,148,203108,2,0,P|410:163|513:112,1,170,10|10,2:1|2:1,0:0:0:0:
456,268,203605,2,0,P|426:229|426:188,1,85,10|10,2:2|2:1,0:0:0:0:
499,373,203936,2,0,P|440:348|378:333,1,127.5,14|0,2:2|0:0,0:0:0:0:
378,333,204268,1,14,2:2:0:0:
188,376,204599,5,14,2:1:0:0:
151,353,204682,1,8,2:2:0:0:
129,315,204765,1,10,2:2:0:0:
137,273,204848,1,8,2:2:0:0:
170,242,204931,1,10,2:2:0:0:
213,229,205014,1,8,2:2:0:0:
239,195,205097,1,14,2:1:0:0:
243,153,205179,1,8,2:2:0:0:
220,120,205262,6,0,P|201:127|178:132,3,42.5,10|8|10|8,2:2|2:2|2:2|2:2,0:0:0:0:
117,181,205594,2,0,P|98:173|75:169,3,42.5,14|8|10|8,2:1|2:2|2:2|2:2,0:0:0:0:
40,103,205925,5,14,2:1:0:0:
69,35,206091,1,10,2:2:0:0:
137,6,206257,1,10,2:2:0:0:
209,30,206423,1,10,2:1:0:0:
445,187,206920,5,10,2:2:0:0:
437,112,207086,1,10,2:1:0:0:
381,66,207251,1,10,2:2:0:0:
310,76,207417,1,10,2:1:0:0:
266,282,207914,6,0,P|283:330|292:388,1,106.25,2|0,2:3|0:0,0:0:0:0:
