osu file format v14

[General]
AudioFilename: audio.mp3
AudioLeadIn: 0
PreviewTime: 148826
Countdown: 0
SampleSet: Soft
StackLeniency: 0.7
Mode: 0
LetterboxInBreaks: 0
WidescreenStoryboard: 1

[Editor]
Bookmarks: 203,42799,79926,115728,126335,159484,188656
DistanceSpacing: 1.3
BeatDivisor: 4
GridSize: 16
TimelineZoom: 2.3

[Metadata]
Title:Mada Ikemasu
TitleUnicode:まだいけます
Artist:Abe Mao
ArtistUnicode:阿部真央
Creator:Big Sis
Version:Didah & Mana's Hard
Source:
Tags:mugiwarasekai irohas midorijeon didah sayumana alevi japanese rock j-rock vaporfly red crewmate god haachama
BeatmapID:3882258
BeatmapSetID:1884638

[Difficulty]
HPDrainRate:4
CircleSize:3.5
OverallDifficulty:6
ApproachRate:8
SliderMultiplier:1.4
SliderTickRate:1

[Events]
//Background and Video events
0,0,"guitar.jpg",0,0
//Break Periods
2,138501,148159
//Storyboard Layer 0 (Background)
//Storyboard Layer 1 (Fail)
//Storyboard Layer 2 (Pass)
//Storyboard Layer 3 (Foreground)
//Storyboard Layer 4 (Overlay)
//Storyboard Sound Samples

[TimingPoints]
-925,331.491712707183,4,2,2,65,1,0
235,-111.111111111111,4,2,30,65,0,0
5206,-111.111111111111,4,2,31,65,0,0
5787,-111.111111111111,4,2,32,40,0,0
6035,-111.111111111111,4,2,32,65,0,0
6202,-111.111111111111,4,2,32,40,0,0
6367,-111.111111111111,4,2,32,65,0,0
6450,-111.111111111111,4,2,32,40,0,0
6699,-111.111111111111,4,2,32,65,0,0
6865,-111.111111111111,4,2,32,40,0,0
7030,-111.111111111111,4,2,31,65,0,0
7113,-111.111111111111,4,2,32,40,0,0
7362,-111.111111111111,4,2,32,65,0,0
7445,-111.111111111111,4,2,32,40,0,0
7693,-111.111111111111,4,2,32,65,0,0
7776,-111.111111111111,4,2,32,40,0,0
8024,-111.111111111111,4,2,32,65,0,0
8438,-111.111111111111,4,2,32,40,0,0
8688,-111.111111111111,4,2,32,65,0,0
8770,-111.111111111111,4,2,32,40,0,0
9019,-111.111111111111,4,2,32,65,0,0
9102,-111.111111111111,4,2,32,40,0,0
9351,-111.111111111111,4,2,32,65,0,0
9516,-111.111111111111,4,2,32,75,0,0
11008,-100,4,2,30,70,0,0
15483,-100,4,2,31,70,0,0
16312,-100,4,2,30,70,0,0
20787,-100,4,2,31,70,0,0
21284,-100,4,2,32,70,0,0
21616,-100,4,2,30,70,0,0
26091,-100,4,2,31,70,0,0
26920,-100,4,2,30,70,0,0
32224,-95.2380952380952,4,2,30,80,0,1
32555,-95.2380952380952,4,2,30,80,0,0
34876,-95.2380952380952,4,2,31,80,0,0
37528,-95.2380952380952,4,2,30,80,0,0
40179,-95.2380952380952,4,2,31,80,0,0
42831,-95.2380952380952,4,2,30,80,0,0
45483,-95.2380952380952,4,2,31,80,0,0
47472,-95.2380952380952,4,2,32,80,0,0
48135,-95.2380952380952,4,2,30,80,0,0
50456,-95.2380952380952,4,2,31,80,0,0
50787,-95.2380952380952,4,2,30,80,0,0
53439,-95.2380952380952,4,2,31,80,0,0
55428,-95.2380952380952,4,2,30,80,0,0
55760,-95.2380952380952,4,2,31,80,0,0
56091,-95.2380952380952,4,2,30,75,0,0
58743,-95.2380952380952,4,2,31,75,0,0
61395,-95.2380952380952,4,2,30,75,0,0
63880,-95.2380952380952,4,2,31,75,0,0
64047,-95.2380952380952,4,2,30,75,0,0
66699,-95.2380952380952,4,2,31,75,0,0
68356,-95.2380952380952,4,2,30,75,0,0
69019,-95.2380952380952,4,2,31,75,0,0
69351,-111.111111111111,4,2,30,65,0,0
74737,-111.111111111111,4,2,32,45,0,0
74986,-111.111111111111,4,2,32,65,0,0
75152,-111.111111111111,4,2,32,45,0,0
75318,-111.111111111111,4,2,32,65,0,0
75400,-111.111111111111,4,2,32,45,0,0
75649,-111.111111111111,4,2,32,65,0,0
75815,-111.111111111111,4,2,32,45,0,0
75981,-111.111111111111,4,2,32,65,0,0
76063,-111.111111111111,4,2,32,45,0,0
76312,-111.111111111111,4,2,32,65,0,0
76394,-111.111111111111,4,2,32,45,0,0
76644,-111.111111111111,4,2,32,65,0,0
76726,-111.111111111111,4,2,32,45,0,0
76975,-111.111111111111,4,2,32,65,0,0
77141,-111.111111111111,4,2,32,45,0,0
77307,-111.111111111111,4,2,32,65,0,0
77389,-111.111111111111,4,2,32,45,0,0
77638,-111.111111111111,4,2,32,65,0,0
77804,-111.111111111111,4,2,32,45,0,0
77970,-111.111111111111,4,2,32,65,0,0
78052,-111.111111111111,4,2,32,45,0,0
78301,-111.111111111111,4,2,32,65,0,0
78467,-111.111111111111,4,2,32,75,0,0
79793,-111.111111111111,4,2,31,75,0,0
79958,-100,4,2,30,70,0,0
84434,-100,4,2,31,70,0,0
85262,-100,4,2,30,70,0,0
90566,-95.2380952380952,4,2,30,80,0,1
90898,-95.2380952380952,4,2,30,80,0,0
93218,-95.2380952380952,4,2,31,80,0,0
95539,-95.2380952380952,4,2,32,80,0,0
95870,-95.2380952380952,4,2,30,80,0,0
98522,-95.2380952380952,4,2,31,80,0,0
100344,-95.2380952380952,4,2,33,80,0,0
100511,-95.2380952380952,4,2,30,80,0,0
100842,-95.2380952380952,4,2,31,80,0,0
101174,-95.2380952380952,4,2,30,80,0,0
103826,-95.2380952380952,4,2,31,80,0,0
105815,-95.2380952380952,4,2,32,80,0,0
106478,-95.2380952380952,4,2,30,80,0,0
108963,-95.2380952380952,4,2,31,80,0,0
109130,-95.2380952380952,4,2,30,80,0,0
111782,-95.2380952380952,4,2,31,80,0,0
115760,-95.2380952380952,4,2,30,75,0,0
121063,-95.2380952380952,4,2,31,75,0,0
123715,-95.2380952380952,4,2,32,75,0,0
126367,-95.2380952380952,4,2,30,75,0,0
126699,-95.2380952380952,4,2,31,75,0,0
130345,-95.2380952380952,4,2,30,75,0,0
130842,-95.2380952380952,4,2,31,75,0,0
131340,-95.2380952380952,4,2,32,75,0,0
131671,-95.2380952380952,4,2,30,75,0,0
134323,-95.2380952380952,4,2,31,75,0,0
135649,-95.2380952380952,4,2,30,75,0,0
135981,-95.2380952380952,4,2,31,75,0,0
136809,-95.2380952380952,4,2,32,75,0,0
138301,-95.2380952380952,4,2,32,60,0,0
148909,-111.111111111111,4,2,32,65,0,0
154295,-111.111111111111,4,2,32,40,0,0
154544,-111.111111111111,4,2,32,65,0,0
154626,-111.111111111111,4,2,32,40,0,0
154876,-111.111111111111,4,2,32,65,0,0
154958,-111.111111111111,4,2,32,40,0,0
155207,-111.111111111111,4,2,32,65,0,0
155289,-111.111111111111,4,2,32,40,0,0
155539,-111.111111111111,4,2,32,65,0,0
155621,-111.111111111111,4,2,32,40,0,0
155870,-111.111111111111,4,2,32,65,0,0
156036,-111.111111111111,4,2,32,40,0,0
156202,-111.111111111111,4,2,32,65,0,0
156284,-111.111111111111,4,2,32,40,0,0
156533,-111.111111111111,4,2,32,65,0,0
156615,-111.111111111111,4,2,32,40,0,0
156865,-111.111111111111,4,2,32,65,0,0
156947,-111.111111111111,4,2,32,40,0,0
157196,-111.111111111111,4,2,32,65,0,0
157278,-111.111111111111,4,2,32,40,0,0
157528,-111.111111111111,4,2,32,65,0,0
157610,-111.111111111111,4,2,32,40,0,0
157859,-111.111111111111,4,2,32,65,0,0
158025,-111.111111111111,4,2,32,75,0,0
159516,-95.2380952380952,4,2,30,80,0,1
159848,-95.2380952380952,4,2,30,80,0,0
164820,-95.2380952380952,4,2,31,80,0,0
167472,-95.2380952380952,4,2,30,80,0,0
170456,-95.2380952380952,4,2,31,80,0,0
172776,-95.2380952380952,4,2,30,80,0,0
174765,-95.2380952380952,4,2,32,80,0,0
175428,-95.2380952380952,4,2,31,80,0,0
178080,-95.2380952380952,4,2,30,80,0,0
180400,-95.2380952380952,4,2,31,80,0,0
180732,-95.2380952380952,4,2,30,80,0,0
183384,-95.2380952380952,4,2,31,80,0,0
185373,-95.2380952380952,4,2,30,80,0,0
185704,-95.2380952380952,4,2,32,80,0,0
186036,-95.2380952380952,4,2,31,80,0,0
187362,-95.2380952380952,4,2,30,80,0,0
188521,-95.2380952380952,4,2,31,80,0,0
188688,-95.2380952380952,4,2,30,75,0,0
191340,-95.2380952380952,4,2,31,75,0,0
192997,-95.2380952380952,4,2,32,75,0,0
193992,-95.2380952380952,4,2,30,75,0,0
195318,-95.2380952380952,4,2,31,75,0,0
195649,-95.2380952380952,4,2,30,75,0,0
195981,-95.2380952380952,4,2,32,75,0,0
196644,-95.2380952380952,4,2,30,75,0,0
201616,-95.2380952380952,4,2,32,75,0,0
201947,-95.2380952380952,4,2,31,75,0,0
203936,-95.2380952380952,4,2,30,75,0,0
204268,-95.2380952380952,4,2,32,75,0,0
204599,-95.2380952380952,4,2,31,75,0,0
205096,-95.2380952380952,4,2,30,75,0,0
205594,-95.2380952380952,4,2,31,75,0,0
205925,-95.2380952380952,4,2,32,75,0,0

[Colours]
Combo1 : 34,145,255
Combo2 : 45,187,255

[HitObjects]
332,191,235,6,0,L|362:198,1,31.5,8|8,2:0|2:0,2:0:0:0:
398,177,400,2,0,P|439:148|522:167,2,126,14|10|10,2:1|2:1|2:1,2:0:0:0:
257,259,1395,1,10,2:1:0:0:
257,259,1561,2,0,L|240:181,1,63.0000000000001,10|8,2:0|2:1,2:0:0:0:
286,127,1892,2,0,L|140:95,1,126,10|0,2:0|2:0,2:0:0:0:
103,43,2389,2,0,P|85:68|81:99,1,63.0000000000001,10|2,2:1|2:0,2:0:0:0:
127,180,2721,2,0,P|144:205|148:236,1,63.0000000000001,10|8,2:1|2:0,2:0:0:0:
145,249,2970,1,8,2:0:0:0:
143,261,3052,6,0,L|116:384,2,126,10|10|10,2:0|2:1|2:1,2:0:0:0:
306,191,4047,1,10,2:1:0:0:
306,191,4213,2,0,L|385:168,1,63.0000000000001,10|8,2:0|2:1,2:0:0:0:
404,100,4544,2,0,L|464:117,2,63.0000000000001,10|10|8,2:3|2:1|2:3,2:0:0:0:
360,30,5041,2,0,P|328:29|301:43,1,63.0000000000001,10|10,2:1|2:3,2:0:0:0:
249,108,5373,2,0,P|217:108|190:94,1,63.0000000000001,10|2,2:1|2:0,2:0:0:0:
179,86,5621,1,2,2:0:0:0:
170,76,5704,6,0,L|154:7,2,63.0000000000001,14|10|10,2:1|2:3|2:0,2:0:0:0:
117,140,6202,1,8,2:3:0:0:
117,140,6367,2,0,L|55:125,1,63.0000000000001,10|10,2:0|2:3,2:0:0:0:
5,190,6699,1,10,2:0:0:0:
49,257,6865,2,0,P|111:264|164:231,1,126,10|10,2:3|2:3,2:0:0:0:
217,169,7362,2,0,P|236:193|245:223,1,63.0000000000001,10|8,2:0|2:3,2:0:0:0:
216,300,7693,2,0,P|196:324|187:354,2,63.0000000000001,10|10|10,2:0|2:3|2:0,2:0:0:0:
362,225,8356,6,0,L|412:238,3,31.5,10|8|10|8,2:0|2:3|2:3|2:3,2:0:0:0:
423,260,8688,2,0,L|453:252,3,31.5,10|8|8|8,2:0|2:3|2:3|2:3,2:0:0:0:
479,220,9019,2,0,L|501:136,1,63.0000000000001,10|10,2:0|2:3,2:0:0:0:
490,147,9268,1,8,2:3:0:0:
485,135,9351,1,10,2:0:0:0:
511,57,9516,6,0,P|449:62|406:106,1,126,10|10,2:0|2:0,2:0:0:0:
345,162,10014,2,0,L|275:144,1,63.0000000000001,10|10,2:0|2:1,2:0:0:0:
204,125,10345,1,10,2:0:0:0:
47,76,10677,2,0,P|16:110|13:157,1,94.5000000000001,2|0,2:1|2:0,2:0:0:0:
8,199,11008,6,0,B|43:226|87:211|87:211|105:171|157:173,1,140,14|10,2:1|2:0,2:0:0:0:
204,125,11505,1,2,2:0:0:0:
266,190,11671,2,0,L|226:342,1,140,10|8,2:1|2:0,2:0:0:0:
306,375,12168,2,0,P|373:385|430:347,1,140,2|0,2:0|2:0,2:0:0:0:
492,280,12666,2,0,L|509:212,1,70,10|0,2:0|2:0,2:0:0:0:
478,126,12997,2,0,B|430:135|430:135|396:165|396:165|350:173,1,140,10|8,2:1|2:0,2:0:0:0:
350,173,13660,6,0,L|282:156,1,70,10|0,2:1|2:0,2:0:0:0:
227,82,13992,1,10,2:0:0:0:
227,82,14157,1,2,2:0:0:0:
144,121,14323,2,0,P|121:153|150:253,1,140,10|8,2:1|2:0,2:0:0:0:
92,322,14820,1,2,2:0:0:0:
174,360,14986,6,0,B|265:351|217:386|332:379,1,140,12|10,2:1|2:0,2:0:0:0:
369,309,15483,2,0,B|378:218|343:266|350:151,1,140,14|8,2:1|2:1,2:0:0:0:
420,114,15981,2,0,P|377:89|339:90,1,70,8|8,2:0|2:0,2:0:0:0:
276,126,16312,6,0,P|218:164|150:157,1,140,14|10,2:1|2:0,2:0:0:0:
81,217,16809,1,2,2:0:0:0:
1,171,16975,2,0,L|38:28,1,140,10|8,2:1|2:0,2:0:0:0:
120,1,17472,2,0,B|211:-8|163:27|278:20,1,140,2|0,2:0|2:0,2:0:0:0:
329,73,17970,2,0,P|364:74|396:59,1,70,10|0,2:0|2:0,2:0:0:0:
487,57,18301,2,0,B|478:105|478:105|448:139|448:139|440:185,1,140,10|8,2:1|2:0,2:0:0:0:
440,184,18964,6,0,L|520:165,2,70,10|2|10,2:1|2:0|2:0,2:0:0:0:
369,242,19461,1,2,2:0:0:0:
441,297,19627,2,0,P|383:333|316:319,1,140,10|8,2:1|2:0,2:0:0:0:
230,348,20124,1,2,2:0:0:0:
181,270,20290,6,0,L|214:123,1,140,12|10,2:1|2:0,2:0:0:0:
201,42,20787,2,0,L|54:75,1,140,14|8,2:1|2:1,2:0:0:0:
22,153,21284,2,0,L|6:221,1,70,12|8,2:0|2:0,2:0:0:0:
54,301,21616,6,0,P|95:270|198:279,1,140,14|10,2:1|2:0,2:0:0:0:
238,340,22113,1,2,2:0:0:0:
319,299,22279,2,0,P|350:258|341:155,1,140,10|8,2:1|2:0,2:0:0:0:
418,111,22776,2,0,P|384:89|335:88,1,70,2|8,2:0|2:1,2:0:0:0:
271,122,23108,1,2,2:0:0:0:
209,188,23273,2,0,P|174:181|146:161,1,70,10|2,2:0|2:0,2:0:0:0:
61,127,23605,2,0,P|98:85|196:85,1,140,10|8,2:1|2:0,2:0:0:0:
178,76,24268,6,0,L|246:59,1,70,10|0,2:1|2:0,2:0:0:0:
319,5,24599,1,10,2:0:0:0:
319,5,24765,1,2,2:0:0:0:
374,77,24931,2,0,B|365:125|365:125|335:159|335:159|327:205,1,140,10|8,2:1|2:0,2:0:0:0:
386,273,25428,1,2,2:0:0:0:
329,344,25594,6,0,B|294:371|250:356|250:356|232:316|180:318,1,140,12|10,2:1|2:0,2:0:0:0:
127,361,26091,2,0,B|100:326|115:282|115:282|155:264|153:212,1,140,14|8,2:1|2:1,2:0:0:0:
207,169,26588,2,0,P|164:148|126:153,1,70,8|8,2:0|2:0,2:0:0:0:
67,200,26920,6,0,L|-16:229,2,70,14|2|10,2:1|2:0|2:0,2:0:0:0:
142,148,27417,1,2,2:0:0:0:
66,97,27583,2,0,P|110:64|206:84,1,140,10|8,2:1|2:0,2:0:0:0:
235,151,28080,2,0,P|279:184|375:164,1,140,2|2,2:0|2:0,2:0:0:0:
446,140,28577,1,10,2:0:0:0:
446,140,28743,1,2,2:0:0:0:
438,49,28909,2,0,B|392:57|392:57|358:87|358:87|310:96,1,140,10|8,2:1|2:0,2:0:0:0:
310,95,29572,6,0,L|230:70,2,70,10|2|10,2:1|2:0|2:0,2:0:0:0:
363,176,30069,1,2,2:0:0:0:
270,209,30235,2,0,L|290:275,1,70,10|8,2:1|2:1,2:0:0:0:
375,325,30566,1,8,2:0:0:0:
291,376,30732,6,0,P|230:385|155:318,1,140,14|10,2:1|2:0,2:0:0:0:
178,249,31229,1,10,2:0:0:0:
178,249,31395,1,10,2:1:0:0:
88,288,31561,1,10,2:0:0:0:
88,288,32224,6,0,P|65:250|73:179,1,110.25,14|0,2:1|2:0,2:0:0:0:
97,147,32555,2,0,L|188:171,1,73.5,10|0,2:0|2:0,2:0:0:0:
240,229,32887,2,0,L|311:210,1,73.5,10|0,2:1|2:0,2:0:0:0:
381,275,33218,2,0,P|406:229|398:184,1,73.5,10|0,2:0|2:0,2:0:0:0:
491,165,33550,6,0,P|459:131|359:133,1,147,10|10,2:1|2:0,2:0:0:0:
311,210,34047,1,0,2:0:0:0:
226,165,34213,2,0,L|244:92,1,73.5,10|0,2:1|2:0,2:0:0:0:
192,12,34544,2,0,L|119:30,1,73.5,10|2,2:0|2:0,2:0:0:0:
34,72,34876,6,0,L|-1:214,1,147,14|8,2:1|2:0,2:0:0:0:
73,274,35373,1,2,2:0:0:0:
18,352,35539,2,0,P|77:368|159:321,1,147,10|8,2:1|2:0,2:0:0:0:
232,281,36036,1,2,2:0:0:0:
275,366,36202,1,10,2:1:0:0:
275,366,36367,1,2,2:0:0:0:
355,314,36533,2,0,L|338:240,1,73.5,10|0,2:0|2:0,2:0:0:0:
282,163,36865,2,0,P|314:147|351:147,1,73.5,10|0,2:1|2:0,2:0:0:0:
429,92,37196,2,0,P|444:124|444:161,1,73.5,10|8,2:0|2:0,2:0:0:0:
441,175,37445,1,8,2:0:0:0:
436,189,37528,6,0,B|422:286|458:240|445:350,1,147,14|10,2:1|2:0,2:0:0:0:
364,382,38025,1,0,2:0:0:0:
296,313,38191,2,0,P|263:296|227:297,1,73.5,10|0,2:1|2:0,2:0:0:0:
163,368,38522,2,0,P|130:384|94:383,1,73.5,10|0,2:0|2:0,2:0:0:0:
19,322,38854,6,0,L|47:206,1,110.25,10|0,2:1|2:0,2:0:0:0:
80,182,39185,2,0,L|58:95,1,73.5,10|0,2:0|2:0,2:0:0:0:
7,31,39516,2,0,P|40:17|77:16,1,73.5,10|0,2:1|2:0,2:0:0:0:
149,80,39848,2,0,P|182:93|219:94,1,73.5,10|2,2:0|2:0,2:0:0:0:
304,50,40179,6,0,B|341:17|386:34|386:34|411:72|465:66,1,147,14|8,2:1|2:0,2:0:0:0:
502,132,40677,1,2,2:0:0:0:
428,192,40842,2,0,L|270:163,1,147,10|8,2:1|2:0,2:0:0:0:
219,94,41340,1,2,2:0:0:0:
129,126,41505,2,0,L|142:198,1,73.5,10|10,2:1|2:0,2:0:0:0:
152,209,41754,1,8,2:0:0:0:
162,219,41837,2,0,L|149:291,1,73.5,10|8,2:1|2:0,2:0:0:0:
175,383,42168,2,0,P|138:386|104:374,1,73.5,10|8,2:1|2:0,2:0:0:0:
92,366,42417,1,8,2:0:0:0:
81,355,42500,2,0,L|23:371,3,36.75,8|8|8|8,2:0|2:0|2:0|2:0,2:0:0:0:
6,336,42831,6,0,P|-19:265|16:204,1,147,14|10,2:1|2:0,2:0:0:0:
76,132,43329,1,0,2:0:0:0:
144,197,43494,2,0,L|223:179,1,73.5,10|0,2:1|2:0,2:0:0:0:
296,233,43826,2,0,P|314:195|305:150,1,73.5,10|0,2:0|2:0,2:0:0:0:
243,97,44157,6,0,P|252:26|303:2,1,110.25,10|0,2:1|2:0,2:0:0:0:
328,8,44489,2,0,L|407:26,1,73.5,10|0,2:0|2:0,2:0:0:0:
492,2,44820,2,0,P|497:43|484:73,1,73.5,10|0,2:1|2:0,2:0:0:0:
408,130,45152,2,0,P|403:171|416:201,1,73.5,10|2,2:0|2:0,2:0:0:0:
442,291,45483,6,0,B|345:305|391:269|281:282,1,147,14|8,2:1|2:0,2:0:0:0:
247,362,45981,1,2,2:0:0:0:
159,324,46146,2,0,L|192:170,1,147,10|8,2:1|2:0,2:0:0:0:
264,118,46644,1,2,2:0:0:0:
251,28,46809,1,8,2:1:0:0:
251,28,46975,1,2,2:0:0:0:
156,12,47141,2,0,P|113:10|57:64,1,110.25,10|0,2:0|2:0,2:0:0:0:
44,94,47472,2,0,L|61:180,1,73.5,14|0,2:1|2:0,2:0:0:0:
46,261,47804,2,0,P|82:262|114:245,1,73.5,14|8,2:0|2:0,2:0:0:0:
191,182,48135,6,0,B|228:149|273:166|273:166|298:204|352:198,1,147,14|10,2:1|2:0,2:0:0:0:
388,128,48633,1,0,2:0:0:0:
460,190,48798,2,0,L|448:262,1,73.5,10|0,2:1|2:0,2:0:0:0:
462,357,49130,2,0,P|425:358|393:342,1,73.5,10|0,2:0|2:0,2:0:0:0:
300,305,49461,6,0,L|321:190,1,110.25,10|0,2:1|2:0,2:0:0:0:
359,168,49793,2,0,L|347:96,1,73.5,10|0,2:0|2:0,2:0:0:0:
362,0,50124,2,0,P|325:0|292:15,1,73.5,10|8,2:1|2:1,2:0:0:0:
235,92,50456,2,0,P|198:92|165:76,1,73.5,14|2,2:0|2:0,2:0:0:0:
96,10,50787,6,0,P|29:20|3:101,1,147,14|8,2:1|2:0,2:0:0:0:
2,182,51284,1,2,2:0:0:0:
96,169,51450,2,0,B|193:155|147:191|257:178,1,147,10|8,2:1|2:0,2:0:0:0:
308,111,51947,1,2,2:0:0:0:
378,175,52113,2,0,P|373:211|366:258,1,73.5,10|10,2:1|2:1,2:0:0:0:
425,325,52445,2,0,P|396:343|309:329,1,110.25,10|0,2:0|2:0,2:0:0:0:
286,307,52776,2,0,L|200:324,1,73.5,10|8,2:0|2:1,2:0:0:0:
135,381,53108,1,8,2:0:0:0:
62,328,53273,5,2,2:0:0:0:
62,328,53439,2,0,B|76:231|40:277|53:167,1,147,14|8,2:1|2:0,2:0:0:0:
110,108,53936,1,2,2:0:0:0:
59,26,54102,2,0,P|128:11|187:52,1,147,10|8,2:1|2:0,2:0:0:0:
247,126,54599,1,2,2:0:0:0:
187,201,54765,2,0,P|192:237|199:284,1,73.5,10|10,2:1|2:1,2:0:0:0:
136,348,55097,2,0,P|165:366|252:352,1,110.25,10|0,2:0|2:0,2:0:0:0:
281,339,55428,2,0,L|367:356,1,73.5,14|8,2:0|2:1,2:0:0:0:
447,371,55760,2,0,P|459:337|454:301,1,73.5,14|0,2:0|2:0,2:0:0:0:
457,204,56091,6,0,B|409:214|409:214|377:242|377:242|320:254,1,147,14|10,2:1|2:0,2:0:0:0:
237,209,56588,1,0,2:0:0:0:
155,259,56754,2,0,P|143:225|148:189,1,73.5,10|0,2:1|2:0,2:0:0:0:
220,124,57086,2,0,P|232:90|227:54,1,73.5,10|0,2:0|2:0,2:0:0:0:
146,1,57417,6,0,P|90:2|46:46,1,110.25,10|0,2:1|2:0,2:0:0:0:
37,82,57749,2,0,P|42:118|47:154,1,73.5,10|0,2:0|2:0,2:0:0:0:
2,239,58080,2,0,P|38:254|75:249,1,73.5,10|0,2:1|2:0,2:0:0:0:
148,188,58412,2,0,P|184:173|221:178,1,73.5,10|0,2:0|2:0,2:0:0:0:
310,198,58743,6,0,L|296:276,1,73.5,12|2,2:1|2:0,2:0:0:0:
246,351,59075,2,0,P|315:365|374:324,1,147,10|8,2:0|2:1,2:0:0:0:
402,232,59572,1,2,2:0:0:0:
310,198,59737,2,0,B|262:208|262:208|230:236|230:236|173:248,1,147,10|8,2:0|2:1,2:0:0:0:
87,209,60235,1,2,2:0:0:0:
29,284,60400,2,0,P|-5:235|25:138,1,147,10|8,2:0|2:1,2:0:0:0:
30,59,60898,1,2,2:0:0:0:
122,80,61063,2,0,L|238:97,1,110.25,14|0,2:0|2:0,2:0:0:0:
278,101,61395,6,0,B|289:194|253:148|267:245,1,147,14|10,2:1|2:0,2:0:0:0:
231,334,61892,1,0,2:0:0:0:
317,375,62058,2,0,L|395:361,1,73.5,10|0,2:1|2:0,2:0:0:0:
482,383,62389,2,0,P|487:346|475:312,1,73.5,10|0,2:0|2:0,2:0:0:0:
390,267,62721,6,0,L|408:139,1,110.25,10|0,2:1|2:0,2:0:0:0:
444,129,63052,2,0,L|433:52,1,73.5,10|0,2:0|2:0,2:0:0:0:
351,5,63384,2,0,P|314:4|281:20,1,73.5,10|8,2:1|2:0,2:0:0:0:
269,34,63633,1,8,2:0:0:0:
256,47,63715,2,0,L|178:33,1,73.5,10|8,2:0|2:3,2:0:0:0:
111,97,64047,6,0,L|121:169,1,73.5,12|2,2:1|2:0,2:0:0:0:
42,223,64378,2,0,P|100:264|170:250,1,147,10|8,2:0|2:1,2:0:0:0:
254,297,64876,1,10,2:1:0:0:
295,211,65041,2,0,B|285:163|285:163|257:131|257:131|245:74,1,147,10|8,2:0|2:1,2:0:0:0:
308,3,65539,1,10,2:1:0:0:
380,64,65704,2,0,L|458:75,1,73.5,10|8,2:0|2:1,2:0:0:0:
510,151,66036,2,0,P|517:201|480:255,1,110.25,10|0,2:0|2:0,2:0:0:0:
448,278,66367,2,0,L|375:267,1,73.5,10|0,2:0|2:0,2:0:0:0:
295,211,66699,6,0,L|222:221,1,73.5,12|2,2:1|2:0,2:0:0:0:
138,267,67030,2,0,P|124:196|165:138,1,147,10|8,2:0|2:1,2:0:0:0:
259,118,67528,1,10,2:1:0:0:
295,211,67693,2,0,P|346:216|414:144,1,147,10|8,2:0|2:1,2:0:0:0:
447,64,68191,1,10,2:1:0:0:
374,2,68356,2,0,L|298:16,1,73.5,14|8,2:0|2:0,2:0:0:0:
291,30,68605,1,8,2:0:0:0:
279,44,68688,2,0,L|203:30,1,73.5,8|8,2:0|2:3,2:0:0:0:
125,80,69019,2,0,L|150:200,1,110.25,8|0,2:3|2:0,2:0:0:0:
130,230,69351,6,0,L|51:211,2,63.0000000000001,14|2|10,2:1|2:0|2:1,2:0:0:0:
152,313,69848,1,2,2:0:0:0:
152,313,70014,2,0,P|200:352|275:338,1,126,10|8,2:1|2:1,2:0:0:0:
339,324,70511,2,0,L|314:187,1,126,2|2,2:0|2:0,2:0:0:0:
259,140,71008,2,0,L|270:66,1,63.0000000000001,10|2,2:1|2:0,2:0:0:0:
337,32,71340,2,0,P|404:27|447:67,1,126,10|8,2:1|2:1,2:0:0:0:
445,63,72003,6,0,L|456:-11,2,63.0000000000001,10|2|10,2:1|2:0|2:1,2:0:0:0:
486,139,72500,1,2,2:0:0:0:
486,139,72666,2,0,B|440:148|440:148|409:174|409:174|359:184,1,126,10|10,2:1|2:1,2:0:0:0:
348,260,73163,2,0,P|312:242|298:149,1,126,2|2,2:0|2:0,2:0:0:0:
344,101,73660,2,0,L|332:33,1,63.0000000000001,10|2,2:1|2:0,2:0:0:0:
258,4,73992,2,0,B|172:-5|215:30|106:22,1,126,10|8,2:1|2:1,2:0:0:0:
72,75,74489,5,0,2:0:0:0:
72,75,74655,2,0,L|84:137,1,63.0000000000001,10|10,2:1|2:3,2:0:0:0:
36,204,74986,1,10,2:1:0:0:
36,204,75152,1,10,2:3:0:0:
73,277,75318,2,0,P|120:315|181:308,1,126,10|8,2:1|2:1,2:0:0:0:
270,310,75815,5,10,2:3:0:0:
270,310,75898,1,8,2:3:0:0:
270,310,75981,2,0,L|257:243,1,63.0000000000001,8|10,2:1|2:3,2:0:0:0:
204,186,76312,2,0,L|217:119,1,63.0000000000001,10|10,2:1|2:3,2:0:0:0:
177,51,76644,2,0,P|231:44|291:88,1,126,10|8,2:1|2:1,2:0:0:0:
369,125,77141,5,8,2:3:0:0:
369,125,77224,1,8,2:3:0:0:
369,125,77307,2,0,L|443:111,2,63.0000000000001,10|10|10,2:1|2:3|2:1,2:0:0:0:
327,197,77804,1,10,2:3:0:0:
327,197,77970,2,0,B|281:185|281:185|242:196|242:196|192:184,1,126,10|10,2:1|2:0,2:0:0:0:
172,117,78467,1,10,2:0:0:0:
172,117,78798,6,0,L|90:132,1,63.0000000000001,10|10,2:0|2:0,2:0:0:0:
44,178,79130,1,10,2:0:0:0:
95,241,79295,2,0,L|80:320,1,63.0000000000001,10|8,2:1|2:0,2:0:0:0:
91,316,79544,1,8,2:0:0:0:
100,328,79627,1,10,2:0:0:0:
167,373,79793,1,8,2:3:0:0:
229,307,79958,6,0,B|277:316|277:316|311:346|311:346|357:354,1,140,14|10,2:1|2:0,2:0:0:0:
419,287,80456,1,2,2:0:0:0:
497,332,80621,2,0,P|507:282|457:203,1,140,10|8,2:1|2:0,2:0:0:0:
405,140,81119,2,0,L|269:173,1,140,2|0,2:0|2:0,2:0:0:0:
201,234,81616,2,0,L|112:212,1,70,10|0,2:0|2:0,2:0:0:0:
43,201,81947,2,0,P|3:144|10:76,1,140,10|8,2:1|2:0,2:0:0:0:
10,76,82610,6,0,L|77:92,1,70,10|0,2:1|2:0,2:0:0:0:
152,37,82942,1,10,2:0:0:0:
152,37,83108,1,2,2:0:0:0:
220,97,83273,2,0,B|229:188|194:140|201:255,1,140,10|8,2:1|2:0,2:0:0:0:
131,294,83771,1,2,2:0:0:0:
196,356,83936,6,0,P|241:370|334:326,1,140,12|10,2:1|2:0,2:0:0:0:
408,300,84434,2,0,B|417:209|382:257|389:142,1,140,14|8,2:1|2:1,2:0:0:0:
437,86,84931,2,0,P|394:69|356:75,1,70,8|8,2:0|2:0,2:0:0:0:
279,66,85262,6,0,L|255:-24,2,70,14|2|10,2:1|2:0|2:0,2:0:0:0:
220,136,85760,1,2,2:0:0:0:
151,76,85925,2,0,P|86:66|10:131,1,140,8|8,2:1|2:0,2:0:0:0:
2,192,86423,2,0,L|83:214,1,70,2|8,2:0|2:1,2:0:0:0:
147,164,86754,1,2,2:0:0:0:
210,230,86920,2,0,L|191:297,1,70,10|2,2:0|2:0,2:0:0:0:
140,371,87251,2,0,P|208:380|273:336,1,140,10|8,2:1|2:0,2:0:0:0:
267,345,87914,6,0,L|334:363,2,70,10|2|10,2:1|2:0|2:0,2:0:0:0:
190,297,88412,1,2,2:0:0:0:
255,235,88577,2,0,L|237:168,1,70,8|8,2:1|2:1,2:0:0:0:
171,102,88909,1,8,2:0:0:0:
252,60,89075,2,0,P|198:17|129:20,1,140,14|10,2:1|2:0,2:0:0:0:
44,4,89572,1,10,2:0:0:0:
44,4,89737,1,10,2:1:0:0:
66,92,89903,2,0,L|42:186,1,70,10|8,2:0|2:1,2:0:0:0:
106,230,90235,1,0,2:0:0:0:
106,230,90566,6,0,L|213:206,1,110.25,14|0,2:1|2:0,2:0:0:0:
244,169,90898,2,0,L|315:184,1,73.5,10|0,2:0|2:0,2:0:0:0:
385,118,91229,2,0,P|410:163|410:204,1,73.5,10|0,2:1|2:0,2:0:0:0:
482,249,91561,2,0,P|437:274|396:274,1,73.5,10|0,2:0|2:0,2:0:0:0:
347,342,91892,6,0,P|299:309|193:328,1,147,10|10,2:1|2:0,2:0:0:0:
141,377,92389,1,0,2:0:0:0:
58,328,92555,2,0,L|82:234,1,73.5,10|0,2:1|2:0,2:0:0:0:
156,204,92887,2,0,L|132:110,1,73.5,10|2,2:0|2:0,2:0:0:0:
82,54,93218,6,0,P|121:85|220:83,1,147,14|8,2:1|2:0,2:0:0:0:
266,5,93715,1,2,2:0:0:0:
354,40,93881,2,0,B|368:137|332:91|345:201,1,147,10|8,2:1|2:0,2:0:0:0:
419,242,94378,1,2,2:0:0:0:
373,326,94544,2,0,L|278:302,1,73.5,10|0,2:1|2:0,2:0:0:0:
221,360,94876,2,0,P|203:314|217:273,1,73.5,10|0,2:0|2:0,2:0:0:0:
272,221,95207,2,0,P|290:175|276:134,1,73.5,10|0,2:1|2:0,2:0:0:0:
250,63,95539,2,0,L|155:39,1,73.5,14|8,2:0|2:0,2:0:0:0:
169,33,95787,1,8,2:0:0:0:
159,21,95870,6,0,P|98:9|19:72,1,147,14|10,2:1|2:0,2:0:0:0:
110,102,96367,1,0,2:0:0:0:
41,168,96533,2,0,L|22:249,1,73.5,10|0,2:1|2:0,2:0:0:0:
1,333,96865,2,0,L|72:349,1,73.5,10|0,2:0|2:0,2:0:0:0:
166,366,97196,6,0,P|210:338|284:357,1,110.25,10|0,2:1|2:0,2:0:0:0:
307,368,97528,2,0,P|343:370|376:355,1,73.5,10|0,2:0|2:0,2:0:0:0:
469,376,97859,2,0,P|471:339|456:306,1,73.5,10|0,2:1|2:0,2:0:0:0:
477,212,98191,2,0,P|440:209|407:224,1,73.5,10|2,2:0|2:0,2:0:0:0:
317,256,98522,6,0,B|280:289|235:272|235:272|210:234|156:240,1,147,14|8,2:1|2:0,2:0:0:0:
99,278,99019,1,2,2:0:0:0:
43,199,99185,2,0,P|37:141|103:68,1,147,10|8,2:1|2:0,2:0:0:0:
174,16,99682,1,2,2:0:0:0:
234,99,99848,2,0,L|322:77,1,73.5,10|10,2:1|2:0,2:0:0:0:
314,69,100097,1,8,2:0:0:0:
323,58,100179,2,0,L|395:76,1,73.5,10|8,2:0|2:3,2:0:0:0:
465,151,100511,2,0,L|474:187,3,36.75,10|8|8|8,2:3|2:3|2:3|2:3,2:0:0:0:
511,221,100842,2,0,L|493:293,1,73.5,8|8,2:3|2:3,2:0:0:0:
489,306,101091,1,8,2:3:0:0:
486,320,101174,6,0,P|440:352|347:336,1,147,14|10,2:1|2:0,2:0:0:0:
261,365,101671,1,0,2:0:0:0:
179,311,101837,2,0,P|183:275|202:244,1,73.5,10|0,2:1|2:0,2:0:0:0:
281,190,102168,2,0,P|277:153|258:122,1,73.5,10|0,2:0|2:0,2:0:0:0:
199,46,102500,6,0,L|76:73,1,110.25,10|0,2:1|2:0,2:0:0:0:
44,81,102831,2,0,L|23:173,1,73.5,10|0,2:0|2:0,2:0:0:0:
100,215,103163,2,0,L|121:307,1,73.5,10|0,2:1|2:0,2:0:0:0:
64,367,103494,2,0,P|99:383|150:377,1,73.5,10|2,2:0|2:0,2:0:0:0:
213,329,103826,6,0,P|262:300|363:320,1,147,14|8,2:1|2:0,2:0:0:0:
415,379,104323,1,2,2:0:0:0:
503,342,104489,2,0,B|489:294|489:294|503:246|503:246|491:200,1,147,10|8,2:1|2:0,2:0:0:0:
407,153,104986,1,2,2:0:0:0:
475,86,105152,1,10,2:1:0:0:
475,86,105318,1,2,2:0:0:0:
396,31,105483,2,0,L|315:48,1,73.5,10|0,2:0|2:0,2:0:0:0:
268,124,105815,2,0,L|196:108,1,73.5,14|8,2:1|2:0,2:0:0:0:
184,99,106063,1,8,2:0:0:0:
172,89,106146,2,0,L|108:106,3,36.75,10|8|8|8,2:0|2:0|2:0|2:0,2:0:0:0:
91,116,106478,6,0,P|62:145|60:249,1,147,14|10,2:1|2:0,2:0:0:0:
16,331,106975,1,0,2:0:0:0:
97,378,107141,2,0,P|134:378|166:361,1,73.5,10|0,2:1|2:0,2:0:0:0:
261,374,107472,2,0,P|260:337|243:305,1,73.5,10|0,2:0|2:0,2:0:0:0:
167,246,107804,6,0,P|228:211|291:230,1,110.25,10|0,2:1|2:0,2:0:0:0:
306,239,108135,2,0,L|399:263,1,73.5,10|0,2:0|2:0,2:0:0:0:
456,311,108467,2,0,P|473:278|473:242,1,73.5,10|8,2:1|2:0,2:0:0:0:
469,228,108715,1,8,2:0:0:0:
462,214,108798,2,0,P|444:181|444:145,1,73.5,10|10,2:0|2:3,2:0:0:0:
495,64,109130,6,0,P|425:50|365:90,1,147,14|8,2:1|2:0,2:0:0:0:
326,177,109627,1,2,2:0:0:0:
291,266,109793,2,0,P|221:280|161:240,1,147,10|8,2:1|2:0,2:0:0:0:
130,149,110290,1,2,2:0:0:0:
47,193,110456,1,10,2:1:0:0:
47,193,110621,1,10,2:1:0:0:
9,105,110787,2,0,P|18:58|42:30,1,73.5,10|8,2:0|2:1,2:0:0:0:
123,4,111119,2,0,P|170:13|198:37,1,73.5,10|8,2:0|2:1,2:0:0:0:
227,115,111450,1,8,2:0:0:0:
321,281,111782,6,0,P|379:288|460:237,1,147,14|8,2:1|2:0,2:0:0:0:
502,163,112279,1,2,2:0:0:0:
464,75,112445,2,0,B|367:61|413:97|303:84,1,147,10|8,2:1|2:0,2:0:0:0:
227,115,112942,1,2,2:0:0:0:
288,195,113108,1,10,2:1:0:0:
288,195,113273,1,10,2:1:0:0:
214,255,113439,2,0,L|124:236,1,73.5,10|8,2:0|2:1,2:0:0:0:
60,290,113771,2,0,P|45:256|46:219,1,73.5,10|8,2:0|2:1,2:0:0:0:
7,132,114102,6,0,B|44:99|89:116|89:116|114:154|168:148,1,147,14|8,2:0|2:1,2:0:0:0:
227,115,114599,1,10,2:0:0:0:
227,115,114765,2,0,P|243:82|243:46,2,73.5,10|10|10,2:0|2:0|2:0,2:0:0:0:
307,166,115262,1,10,2:0:0:0:
249,243,115428,1,10,2:0:0:0:
249,243,115594,1,10,2:0:0:0:
321,305,115760,6,0,B|369:291|369:291|417:305|417:305|463:293,2,147,14|10|10,2:1|2:0|2:1,2:0:0:0:
259,378,116588,2,0,L|174:361,1,73.5,2|8,2:0|2:0,2:0:0:0:
108,307,116920,1,2,2:0:0:0:
29,360,117086,5,8,2:1:0:0:
29,360,117251,2,0,P|10:303|70:218,1,147,2|2,2:0|2:0,2:0:0:0:
130,179,117749,2,0,L|202:193,1,73.5,8|2,2:1|2:0,2:0:0:0:
279,249,118080,2,0,L|351:234,1,73.5,8|2,2:0|2:0,2:0:0:0:
420,300,118412,5,8,2:1:0:0:
496,242,118577,1,2,2:0:0:0:
496,242,118743,2,0,B|529:205|512:160|512:160|474:135|480:81,1,147,10|10,2:0|2:1,2:0:0:0:
499,18,119240,2,0,P|464:15|423:35,1,73.5,2|10,2:0|2:0,2:0:0:0:
352,87,119572,6,0,B|255:101|301:65|191:78,1,147,2|2,2:0|2:0,2:0:0:0:
121,118,120069,1,8,2:0:0:0:
61,42,120235,2,0,P|23:103|41:172,1,147,2|2,2:0|2:0,2:0:0:0:
130,209,120732,2,0,L|109:322,1,110.25,12|0,2:0|2:0,2:0:0:0:
147,346,121063,6,0,B|195:332|195:332|243:346|243:346|289:334,2,147,14|8|8,2:1|2:0|2:1,2:0:0:0:
58,383,121892,1,0,2:0:0:0:
2,305,122058,2,0,L|19:220,1,73.5,8|2,2:0|2:0,2:0:0:0:
0,138,122389,6,0,B|37:105|82:122|82:122|107:160|161:154,1,147,10|8,2:1|2:0,2:0:0:0:
165,64,122887,1,0,2:0:0:0:
257,84,123052,2,0,B|271:181|235:135|248:245,1,147,10|8,2:1|2:0,2:0:0:0:
321,288,123550,1,8,2:0:0:0:
268,367,123715,6,0,P|339:378|398:336,1,147,14|12,2:1|2:0,2:0:0:0:
477,280,124213,1,2,2:0:0:0:
477,280,124295,1,2,2:0:0:0:
477,280,124378,2,0,B|469:230|469:230|436:192|436:192|427:146,1,147,14|12,2:1|2:0,2:0:0:0:
449,59,124876,5,10,2:0:0:0:
449,59,124958,1,10,2:0:0:0:
449,59,125041,2,0,P|413:55|375:72,1,73.5,10|8,2:1|2:0,2:0:0:0:
368,83,125290,1,8,2:0:0:0:
356,97,125373,2,0,L|268:83,1,73.5,8|10,2:1|2:0,2:0:0:0:
214,19,125704,2,0,L|126:33,1,73.5,10|8,2:1|2:0,2:0:0:0:
128,43,125953,1,8,2:0:0:0:
115,56,126036,2,0,L|124:101,3,36.75,10|8|8|8,2:0|2:0|2:0|2:0,2:0:0:0:
157,124,126367,6,0,L|135:213,1,73.5,12|2,2:1|2:0,2:0:0:0:
59,249,126699,1,14,2:0:0:0:
59,249,126865,1,2,2:0:0:0:
114,326,127030,1,10,2:1:0:0:
192,270,127196,2,0,B|270:258|261:297|362:288,1,147,2|2,2:0|2:0,2:0:0:0:
408,352,127693,2,0,P|430:310|426:268,1,73.5,10|2,2:1|2:0,2:0:0:0:
381,202,128025,1,10,2:0:0:0:
463,154,128191,2,0,P|423:118|322:121,1,147,2|2,2:0|2:0,2:0:0:0:
270,187,128688,2,0,P|221:211|167:209,1,110.25,10|0,2:0|2:0,2:0:0:0:
120,198,129019,6,0,P|99:146|107:109,1,73.5,12|2,2:1|2:0,2:0:0:0:
23,71,129351,1,10,2:0:0:0:
23,71,129516,1,2,2:0:0:0:
90,3,129682,1,10,2:1:0:0:
160,67,129848,2,0,B|238:54|230:96|330:85,1,147,2|2,2:0|2:0,2:0:0:0:
378,26,130345,6,0,P|396:57|398:93,1,73.5,14|2,2:1|2:0,2:0:0:0:
480,144,130677,1,10,2:0:0:0:
430,225,130842,2,0,B|376:211|376:211|333:227|333:227|288:221,1,147,14|10,2:1|2:1,2:0:0:0:
217,155,131340,2,0,L|132:173,1,73.5,14|0,2:0|2:0,2:0:0:0:
63,220,131671,6,0,P|48:186|49:149,2,73.5,14|2|10,2:1|2:0|2:0,2:0:0:0:
144,270,132168,1,2,2:0:0:0:
90,349,132334,2,0,P|131:366|172:361,1,73.5,10|2,2:1|2:0,2:0:0:0:
233,302,132666,2,0,P|274:285|315:290,1,73.5,10|2,2:0|2:0,2:0:0:0:
316,289,132914,1,0,2:0:0:0:
329,294,132997,5,10,2:1:0:0:
401,356,133163,1,2,2:0:0:0:
453,276,133329,2,0,L|430:198,1,73.5,10|2,2:0|2:0,2:0:0:0:
511,151,133660,2,0,P|439:160|378:123,1,147,10|8,2:1|2:0,2:0:0:0:
399,30,134157,1,8,2:0:0:0:
306,7,134323,6,0,B|228:-6|236:36|136:25,1,147,14|8,2:1|2:0,2:0:0:0:
69,1,134820,2,0,B|56:79|98:71|87:171,1,147,2|0,2:0|2:0,2:0:0:0:
40,227,135318,2,0,P|73:241|109:240,1,73.5,8|2,2:0|2:0,2:0:0:0:
124,235,135566,1,2,2:0:0:0:
137,229,135649,2,0,P|170:214|206:215,1,73.5,14|2,2:1|2:0,2:0:0:0:
288,165,135981,2,0,P|303:198|302:234,1,73.5,14|2,2:0|2:0,2:0:0:0:
248,313,136312,5,10,2:0:0:0:
314,382,136478,1,10,2:0:0:0:
405,353,136644,1,10,2:0:0:0:
394,258,136809,1,14,2:0:0:0:
256,192,136892,12,2,138301,2:0:0:0:
202,130,148909,6,0,P|171:108|77:116,2,126,10|10|10,2:1|2:1|2:1,2:0:0:0:
202,130,149903,1,10,2:1:0:0:
300,260,150235,2,0,P|331:282|425:274,2,126,10|10|10,2:1|2:1|2:1,2:0:0:0:
300,260,151229,1,10,2:1:0:0:
389,122,151561,6,0,L|521:148,1,126,10|8,2:1|2:1,2:0:0:0:
396,30,152224,2,0,L|272:5,1,126,10|8,2:1|2:1,2:0:0:0:
138,99,152887,2,0,L|150:160,1,63.0000000000001,10|2,2:1|2:0,2:0:0:0:
116,235,153218,1,10,2:1:0:0:
236,123,153550,2,0,P|289:113|363:163,1,126,10|10,2:1|2:1,2:0:0:0:
449,276,154213,6,0,L|369:293,1,63.0000000000001,10|8,2:0|2:3,2:0:0:0:
324,341,154544,2,0,L|262:327,1,63.0000000000001,10|8,2:0|2:3,2:0:0:0:
193,372,154876,2,0,P|181:342|180:311,1,63.0000000000001,10|8,2:0|2:3,2:0:0:0:
231,247,155207,2,0,P|242:217|243:186,1,63.0000000000001,10|8,2:0|2:3,2:0:0:0:
314,143,155539,6,0,P|272:111|189:122,1,126,10|10,2:0|2:0,2:0:0:0:
122,93,156036,1,8,2:3:0:0:
56,142,156202,2,0,L|75:226,1,63.0000000000001,10|8,2:0|2:3,2:0:0:0:
79,211,156450,1,8,2:3:0:0:
88,219,156533,2,0,L|69:303,1,63.0000000000001,10|10,2:0|2:3,2:0:0:0:
116,351,156865,6,0,L|146:344,3,31.5,10|8|8|8,2:0|2:3|2:3|2:3,2:0:0:0:
177,316,157196,2,0,L|207:322,3,31.5,8|8|10|8,2:0|2:3|2:3|2:3,2:0:0:0:
243,342,157528,2,0,L|304:328,1,63.0000000000001,10|8,2:0|2:3,2:0:0:0:
316,332,157776,1,8,2:3:0:0:
327,336,157859,1,10,2:0:0:0:
400,371,158025,1,10,2:0:0:0:
400,371,159516,6,0,B|433:334|416:289|416:289|378:264|384:210,1,147,14|10,2:1|2:0,2:0:0:0:
450,171,160014,1,0,2:0:0:0:
401,89,160179,2,0,P|361:86|324:111,1,73.5,10|0,2:1|2:0,2:0:0:0:
237,89,160511,2,0,P|233:129|258:166,1,73.5,10|0,2:0|2:0,2:0:0:0:
296,240,160842,6,0,B|248:249|248:249|214:279|214:279|159:291,1,147,10|10,2:1|2:0,2:0:0:0:
93,360,161340,1,0,2:0:0:0:
13,308,161505,2,0,L|30:214,1,73.5,10|0,2:1|2:0,2:0:0:0:
97,171,161837,2,0,L|80:77,1,73.5,10|2,2:0|2:0,2:0:0:0:
6,42,162168,6,0,P|59:8|145:25,1,147,10|8,2:1|2:0,2:0:0:0:
234,13,162666,1,2,2:0:0:0:
261,104,162831,2,0,B|270:195|235:150|241:263,1,147,10|8,2:1|2:0,2:0:0:0:
180,322,163329,1,2,2:0:0:0:
262,378,163494,1,10,2:1:0:0:
262,378,163660,1,2,2:0:0:0:
320,302,163826,2,0,L|439:323,1,110.25,10|0,2:0|2:0,2:0:0:0:
467,292,164157,2,0,L|450:198,1,73.5,10|0,2:1|2:0,2:0:0:0:
472,125,164489,2,0,P|431:121|394:146,1,73.5,10|8,2:0|2:0,2:0:0:0:
328,195,164820,6,0,B|291:228|246:211|246:211|221:173|167:179,1,147,14|10,2:1|2:0,2:0:0:0:
122,238,165318,1,0,2:0:0:0:
50,175,165483,2,0,P|45:138|61:106,1,73.5,10|0,2:1|2:0,2:0:0:0:
46,11,165815,2,0,P|82:6|114:22,1,73.5,10|0,2:0|2:0,2:0:0:0:
189,82,166146,6,0,B|280:91|235:56|348:62,1,147,10|10,2:1|2:0,2:0:0:0:
408,1,166644,1,0,2:0:0:0:
486,55,166809,2,0,P|501:87|497:123,1,73.5,10|0,2:1|2:0,2:0:0:0:
430,192,167141,2,0,P|414:224|418:260,1,73.5,12|2,2:0|2:0,2:0:0:0:
499,310,167472,6,0,B|462:277|417:294|417:294|392:332|338:326,1,147,14|8,2:1|2:0,2:0:0:0:
290,380,167970,1,2,2:0:0:0:
228,307,168135,2,0,B|237:259|237:259|267:225|267:225|278:172,1,147,10|8,2:1|2:0,2:0:0:0:
335,96,168633,1,10,2:0:0:0:
279,18,168798,2,0,L|203:31,1,73.5,10|10,2:1|2:0,2:0:0:0:
199,47,169047,1,8,2:0:0:0:
192,64,169130,2,0,L|116:51,1,73.5,10|8,2:1|2:0,2:0:0:0:
48,115,169461,2,0,L|55:155,3,36.75,10|8|8|8,2:1|2:0|2:0|2:0,2:0:0:0:
81,190,169793,2,0,L|74:230,3,36.75,8|8|8|8,2:1|2:0|2:0|2:0,2:0:0:0:
89,271,170124,6,0,P|142:265|189:293,1,110.25,14|0,2:1|2:0,2:0:0:0:
215,333,170456,2,0,L|287:320,1,73.5,14|0,2:0|2:0,2:0:0:0:
369,369,170787,2,0,P|385:336|380:300,1,73.5,10|0,2:1|2:0,2:0:0:0:
311,233,171119,2,0,P|295:200|300:164,1,73.5,10|0,2:0|2:0,2:0:0:0:
250,82,171450,6,0,B|287:49|332:66|332:66|357:104|411:98,1,147,10|10,2:1|2:0,2:0:0:0:
433,18,171947,1,0,2:0:0:0:
505,68,172113,2,0,L|493:149,1,73.5,10|0,2:1|2:0,2:0:0:0:
436,208,172445,2,0,L|448:289,1,73.5,10|2,2:0|2:0,2:0:0:0:
401,356,172776,6,0,B|310:365|355:330|242:336,1,147,14|8,2:1|2:0,2:0:0:0:
180,292,173273,1,2,2:0:0:0:
126,362,173439,2,0,P|92:303|120:229,1,147,10|8,2:1|2:0,2:0:0:0:
199,202,173936,2,0,L|184:105,1,73.5,2|8,2:0|2:1,2:0:0:0:
123,68,174268,1,2,2:0:0:0:
186,7,174434,2,0,P|239:1|286:29,1,110.25,10|0,2:0|2:0,2:0:0:0:
312,64,174765,2,0,L|384:51,1,73.5,14|0,2:1|2:0,2:0:0:0:
480,58,175097,2,0,P|503:102|483:170,1,110.25,14|8,2:0|2:0,2:0:0:0:
447,178,175428,6,0,L|336:201,1,110.25,14|0,2:1|2:0,2:0:0:0:
291,208,175760,2,0,L|278:280,1,73.5,10|0,2:0|2:0,2:0:0:0:
293,374,176091,2,0,P|256:378|224:362,1,73.5,10|0,2:1|2:0,2:0:0:0:
172,281,176423,2,0,P|135:276|103:292,1,73.5,10|0,2:0|2:0,2:0:0:0:
61,377,176754,6,0,B|94:340|77:295|77:295|39:270|45:216,1,147,10|10,2:1|2:0,2:0:0:0:
2,162,177251,1,0,2:0:0:0:
71,95,177417,2,0,P|107:90|139:106,1,73.5,10|8,2:1|2:1,2:0:0:0:
211,169,177749,2,0,L|283:156,1,73.5,14|2,2:0|2:0,2:0:0:0:
297,142,177997,1,0,2:0:0:0:
311,130,178080,6,0,P|370:166|363:245,1,147,14|8,2:1|2:0,2:0:0:0:
293,296,178577,1,2,2:0:0:0:
355,368,178743,2,0,B|392:335|437:352|437:352|462:390|516:384,1,147,10|8,2:1|2:0,2:0:0:0:
509,291,179240,1,2,2:0:0:0:
441,226,179406,2,0,L|359:238,1,73.5,10|10,2:1|2:1,2:0:0:0:
293,296,179737,2,0,P|244:289|205:232,1,110.25,10|0,2:0|2:0,2:0:0:0:
185,200,180069,2,0,L|197:127,1,73.5,14|8,2:0|2:1,2:0:0:0:
278,76,180400,1,12,2:0:0:0:
223,4,180566,5,2,2:0:0:0:
223,4,180732,2,0,B|175:13|175:13|141:43|141:43|86:55,1,147,14|8,2:1|2:0,2:0:0:0:
10,108,181229,1,2,2:0:0:0:
81,171,181395,2,0,B|90:262|55:217|61:330,1,147,10|8,2:1|2:0,2:0:0:0:
132,377,181892,1,2,2:0:0:0:
204,314,182058,2,0,L|296:330,1,73.5,10|10,2:1|2:1,2:0:0:0:
353,383,182389,2,0,P|377:336|362:278,1,110.25,14|0,2:0|2:0,2:0:0:0:
328,250,182721,2,0,L|340:177,1,73.5,10|8,2:0|2:1,2:0:0:0:
292,94,183052,1,8,2:0:0:0:
364,31,183218,5,10,2:1:0:0:
364,30,183384,2,0,P|430:28|475:73,1,110.25,14|0,2:0|2:0,2:0:0:0:
493,90,183715,1,8,2:0:0:0:
486,188,183881,1,10,2:1:0:0:
486,188,184047,2,0,B|438:175|438:175|395:188|395:188|340:176,1,147,10|8,2:0|2:0,2:0:0:0:
292,94,184544,1,10,2:1:0:0:
204,132,184710,2,0,L|219:219,1,73.5,10|10,2:0|2:1,2:0:0:0:
263,287,185041,2,0,P|221:304|152:272,1,110.25,10|0,2:0|2:0,2:0:0:0:
138,241,185373,2,0,L|58:259,1,73.5,14|8,2:0|2:1,2:0:0:0:
5,183,185704,1,12,2:0:0:0:
54,96,185870,5,10,2:1:0:0:
54,96,186036,2,0,L|171:109,1,110.25,12|0,2:0|2:0,2:0:0:0:
204,132,186367,1,8,2:0:0:0:
284,79,186533,1,10,2:1:0:0:
284,79,186699,2,0,P|300:153|255:210,1,147,10|8,2:0|2:0,2:0:0:0:
170,238,187196,1,10,2:1:0:0:
227,321,187362,1,14,2:1:0:0:
227,321,187528,1,10,2:0:0:0:
314,283,187693,6,0,L|361:276,3,36.75,10|8|8|8,2:1|2:0|2:0|2:0,2:0:0:0:
386,245,188025,2,0,L|433:252,3,36.75,10|8|8|8,2:1|2:0|2:0|2:0,2:0:0:0:
469,256,188356,2,0,P|488:295|481:326,1,73.5,8|8,2:3|2:3,2:0:0:0:
405,380,188688,6,0,B|357:367|357:367|314:380|314:380|259:368,1,147,14|10,2:1|2:0,2:0:0:0:
207,290,189185,1,0,2:0:0:0:
130,348,189351,2,0,P|113:304|117:269,1,73.5,10|0,2:1|2:0,2:0:0:0:
170,200,189682,2,0,P|187:156|183:121,1,73.5,10|0,2:0|2:0,2:0:0:0:
118,61,190014,6,0,P|165:36|245:54,1,110.25,10|0,2:1|2:0,2:0:0:0:
260,66,190345,2,0,L|351:48,1,73.5,10|0,2:0|2:0,2:0:0:0:
427,37,190677,2,0,L|445:128,1,73.5,10|0,2:1|2:0,2:0:0:0:
460,202,191008,2,0,L|369:220,1,73.5,10|8,2:0|2:0,2:0:0:0:
294,194,191340,6,0,P|290:230|303:264,1,73.5,12|2,2:1|2:0,2:0:0:0:
356,343,191671,2,0,P|295:304|225:319,1,147,10|8,2:0|2:1,2:0:0:0:
151,380,192168,1,2,2:0:0:0:
60,348,192334,2,0,B|51:297|51:297|73:255|73:255|66:205,1,147,10|8,2:0|2:1,2:0:0:0:
10,130,192831,1,2,2:0:0:0:
79,64,192997,2,0,L|204:92,1,110.25,14|0,2:0|2:0,2:0:0:0:
219,123,193329,2,0,L|290:106,1,73.5,12|2,2:1|2:0,2:0:0:0:
368,50,193660,2,0,P|386:90|378:140,1,73.5,14|8,2:0|2:0,2:0:0:0:
324,193,193992,6,0,P|296:229|304:335,1,147,14|10,2:1|2:0,2:0:0:0:
375,383,194489,1,0,2:0:0:0:
470,372,194655,2,0,P|486:340|486:304,1,73.5,10|0,2:1|2:0,2:0:0:0:
430,226,194986,2,0,P|413:193|413:157,1,73.5,10|0,2:0|2:0,2:0:0:0:
470,79,195318,2,0,L|352:54,1,110.25,14|0,2:1|2:0,2:0:0:0:
329,20,195649,2,0,L|257:35,1,73.5,14|8,2:0|2:0,2:0:0:0:
248,47,195898,1,8,2:0:0:0:
239,58,195981,2,0,L|167:43,1,73.5,14|8,2:1|2:0,2:0:0:0:
80,83,196312,2,0,L|87:119,3,36.75,10|8|8|8,2:0|2:0|2:0|2:0,2:0:0:0:
71,164,196644,6,0,L|-1:149,2,73.5,14|2|10,2:1|2:0|2:0,2:0:0:0:
145,224,197141,1,2,2:0:0:0:
221,167,197307,2,0,P|239:198|241:234,1,73.5,10|10,2:1|2:1,2:0:0:0:
182,309,197638,1,10,2:0:0:0:
259,364,197804,6,0,B|337:351|329:393|429:382,1,147,2|10,2:0|2:1,2:0:0:0:
492,351,198301,2,0,P|510:319|512:283,1,73.5,10|10,2:0|2:1,2:0:0:0:
505,186,198633,2,0,L|384:211,1,110.25,10|0,2:0|2:0,2:0:0:0:
354,221,198964,1,10,2:0:0:0:
354,221,199295,6,0,L|282:206,2,73.5,14|2|10,2:1|2:0|2:0,2:0:0:0:
416,294,199793,1,2,2:0:0:0:
352,365,199958,2,0,L|280:350,1,73.5,10|10,2:1|2:1,2:0:0:0:
189,382,200290,1,10,2:0:0:0:
126,309,200456,2,0,B|117:258|117:258|139:216|139:216|132:166,1,147,2|10,2:0|2:1,2:0:0:0:
79,88,200953,2,0,P|111:73|148:73,1,73.5,10|10,2:0|2:1,2:0:0:0:
225,130,201284,2,0,P|271:156|349:147,1,110.25,14|0,2:0|2:0,2:0:0:0:
373,141,201616,1,14,2:0:0:0:
373,141,201947,6,0,L|389:212,1,73.5,14|10,2:0|2:1,2:0:0:0:
473,259,202279,1,10,2:0:0:0:
428,343,202445,1,10,2:1:0:0:
341,302,202610,2,0,L|269:318,1,73.5,10|10,2:0|2:1,2:0:0:0:
197,382,202942,1,10,2:0:0:0:
112,336,203108,6,0,B|79:299|96:254|96:254|134:229|128:175,1,147,10|10,2:1|2:1,2:0:0:0:
48,152,203605,1,10,2:0:0:0:
128,100,203771,1,10,2:1:0:0:
58,34,203936,2,0,P|106:8|160:10,1,110.25,14|0,2:0|2:0,2:0:0:0:
202,34,204268,1,14,2:0:0:0:
202,34,204599,6,0,L|259:21,3,36.75,14|8|10|8,2:1|2:0|2:0|2:0,2:0:0:0:
282,45,204931,2,0,L|263:131,1,73.5,10|14,2:0|2:1,2:0:0:0:
269,131,205179,1,8,2:0:0:0:
272,145,205262,1,10,2:0:0:0:
206,214,205428,1,10,2:0:0:0:
269,285,205594,2,0,L|340:269,1,73.5,14|10,2:1|2:0,2:0:0:0:
354,274,205842,1,8,2:0:0:0:
367,279,205925,5,14,2:1:0:0:
429,351,206091,1,10,2:0:0:0:
511,300,206257,1,10,2:0:0:0:
511,300,206423,1,10,2:1:0:0:
268,144,206920,5,10,2:0:0:0:
206,214,207086,1,10,2:1:0:0:
124,165,207251,1,10,2:0:0:0:
124,165,207417,1,10,2:1:0:0:
389,57,207914,5,2,0:0:0:0:
