osu file format v14

[General]
AudioFilename: vbr Believe in yourself (TV Ver.).mp3
AudioLeadIn: 0
PreviewTime: 963
Countdown: 1
SampleSet: None
StackLeniency: 0.7
Mode: 0
LetterboxInBreaks: 1
WidescreenStoryboard: 1

[Editor]
Bookmarks: 31490,34648,37455,40262,43069,45262,45876,54297,56402,57104,65525,66928,68332,73244,73946,79209,79560
DistanceSpacing: 1.3
BeatDivisor: 4
GridSize: 32
TimelineZoom: 1.4

[Metadata]
Title:Believe in yourself (TV Size)
TitleUnicode:Believe in yourself (TV Size)
Artist:Abe Mao
ArtistUnicode:阿部 真央
Creator:greenwood0301
Version:Insane
Source:ベイビーステップ
Tags:baby steps opening iHatePeople My Angel Mir Oppajime あべま Virtue- -AsrieLx-
BeatmapID:1593280
BeatmapSetID:356923

[Difficulty]
HPDrainRate:7
CircleSize:4
OverallDifficulty:8
ApproachRate:9
SliderMultiplier:1.40000000596046
SliderTickRate:1

[Events]
//Background and Video events
Video,0,"Opening.avi"
0,0,"baby 3.jpg",0,0
//Break Periods
//Storyboard Layer 0 (Background)
//Storyboard Layer 1 (Fail)
//Storyboard Layer 2 (Pass)
//Storyboard Layer 3 (Foreground)
//Storyboard Sound Samples

[TimingPoints]
964,350.877192982456,4,2,0,100,1,0
965,-100,4,2,0,40,0,0
6402,-100,4,1,0,60,0,0
11490,-133.333333333333,4,3,0,60,0,0
11841,-66.6666666666667,4,1,0,60,0,0
12192,-100,4,2,0,30,0,0
31490,-100,4,3,0,50,0,0
45349,-100,4,1,0,55,0,0
45876,-66.6666666666667,4,3,0,50,0,0
54297,-100,4,1,0,60,0,0
57104,-100,4,2,0,70,0,1
65525,-100,4,3,0,70,0,1
68332,-100,4,2,0,70,0,1
73244,-100,4,1,0,70,0,1
73946,-100,4,1,0,70,0,1
79560,-100,4,3,0,70,0,1
82718,-100,4,1,0,70,0,1
83771,-100,4,2,0,100,0,0

[Colours]
Combo1 : 249,187,0
Combo2 : 65,148,37
Combo3 : 129,89,46
Combo4 : 218,3,202

[HitObjects]
315,96,963,6,0,P|378:52|419:190,1,280.000001192092
321,205,1841,1,0,0:0:0:0:
222,194,2016,1,0,0:0:0:0:
148,135,2192,1,0,0:0:0:0:
218,89,2367,6,0,P|155:45|81:182,1,280.000001192092
149,255,3244,1,0,0:0:0:0:
244,268,3420,1,0,0:0:0:0:
344,236,3595,1,0,0:0:0:0:
396,173,3771,6,0,P|428:242|280:291,1,280.000001192092
222,202,4648,1,0,0:0:0:0:
250,113,4823,1,0,0:0:0:0:
201,39,4999,1,0,0:0:0:0:
168,129,5174,6,0,P|43:124|53:248,1,280.000001192092
144,288,6051,1,0,0:0:0:0:
249,258,6227,1,0,0:0:0:0:
322,146,6402,1,0,0:0:0:0:
322,146,6490,1,0,0:0:0:0:
322,146,6578,2,0,L|233:122,1,70.000000298023
63,65,6928,5,0,0:0:0:0:
179,182,7104,1,0,0:0:0:0:
181,26,7279,1,0,0:0:0:0:
89,163,7455,1,0,0:0:0:0:
231,98,7630,1,0,0:0:0:0:
78,52,7806,1,0,0:0:0:0:
189,173,7981,2,0,L|234:248,1,70.000000298023
374,353,8332,5,0,0:0:0:0:
471,183,8507,1,0,0:0:0:0:
292,237,8683,1,0,0:0:0:0:
474,307,8858,1,0,0:0:0:0:
356,160,9034,1,0,0:0:0:0:
374,353,9209,2,0,L|297:346,1,70.000000298023
127,161,9560,5,0,0:0:0:0:
321,133,9735,1,0,0:0:0:0:
112,270,9911,5,0,0:0:0:0:
310,234,10086,1,0,0:0:0:0:
131,76,10262,5,0,0:0:0:0:
353,41,10437,1,0,0:0:0:0:
96,190,10613,5,0,0:0:0:0:
321,133,10788,1,0,0:0:0:0:
102,287,10963,5,0,0:0:0:0:
347,209,11139,1,0,0:0:0:0:
105,111,11314,1,0,0:0:0:0:
460,312,11490,6,0,L|382:349,1,78.7500033393501,0|0,0:0|0:0,0:0:0:0:
388,345,11841,6,0,L|291:205,1,157.5000066787,8|0,0:0|0:0,0:0:0:0:
246,79,12192,6,0,P|285:100|305:133,1,70.000000298023
217,149,12542,2,0,P|178:128|158:95,1,70.000000298023
67,27,12893,1,0,0:0:0:0:
35,153,13069,1,0,0:0:0:0:
163,107,13244,1,0,0:0:0:0:
67,27,13420,1,0,0:0:0:0:
162,14,13595,6,0,L|240:20,1,70.000000298023
350,14,13946,2,0,L|271:20,1,70.000000298023
181,93,14297,1,0,0:0:0:0:
310,109,14472,1,0,0:0:0:0:
200,182,14648,2,0,P|242:194|274:174,1,70.000000298023
310,109,14999,6,0,P|325:62|347:41,1,70.000000298023
433,36,15349,2,0,P|418:83|396:104,1,70.000000298023
312,188,15700,1,0,0:0:0:0:
416,267,15876,1,0,0:0:0:0:
415,146,16051,1,0,0:0:0:0:
348,253,16227,1,0,0:0:0:0:
258,277,16402,6,0,P|226:291|192:287,1,70.000000298023
81,276,16753,2,0,P|112:290|146:287,1,70.000000298023
242,200,17104,1,0,0:0:0:0:
117,191,17279,1,0,0:0:0:0:
188,85,17455,2,0,L|104:116,1,70.000000298023
49,156,17806,6,0,P|12:162|-33:132,1,70.000000298023
41,83,18156,2,0,P|73:70|107:76,1,70.000000298023
199,110,18507,1,0,0:0:0:0:
267,5,18683,1,0,0:0:0:0:
338,111,18858,1,0,0:0:0:0:
199,110,19034,1,0,0:0:0:0:
101,160,19209,6,0,L|107:234,1,70.000000298023
101,322,19560,2,0,L|107:247,1,70.000000298023
205,170,19911,1,0,0:0:0:0:
230,293,20086,1,0,0:0:0:0:
311,183,20262,2,0,P|348:195|376:216,1,70.000000298023
322,294,20613,6,0,P|361:332|383:336,1,70.000000298023
425,254,20963,2,0,P|386:216|364:212,1,70.000000298023
251,178,21314,1,0,0:0:0:0:
166,79,21490,1,0,0:0:0:0:
293,67,21665,1,0,0:0:0:0:
185,147,21841,1,0,0:0:0:0:
109,214,22016,6,0,P|146:233|178:231,1,70.000000298023
272,214,22367,2,0,P|234:233|202:231,1,70.000000298023
124,137,22718,1,0,0:0:0:0:
250,113,22893,1,0,0:0:0:0:
133,40,23069,2,0,L|219:25,1,70.000000298023
309,21,23420,6,0,P|350:30|377:57,1,70.000000298023
306,106,23771,2,0,P|265:97|238:70,1,70.000000298023
152,3,24121,1,0,0:0:0:0:
63,88,24297,1,0,0:0:0:0:
181,127,24472,1,0,0:0:0:0:
152,3,24648,1,0,0:0:0:0:
246,16,24823,6,0,L|319:22,1,70.000000298023
413,15,25174,2,0,L|339:21,1,70.000000298023
256,115,25525,1,0,0:0:0:0:
380,140,25700,1,0,0:0:0:0:
256,202,25876,2,0,P|284:231|320:247,1,70.000000298023
411,216,26227,6,0,P|442:254|452:279,1,70.000000298023
364,284,26578,2,0,P|333:246|323:221,1,70.000000298023
259,126,26928,1,0,0:0:0:0:
179,226,27104,1,0,0:0:0:0:
160,104,27279,1,0,0:0:0:0:
251,200,27455,1,0,0:0:0:0:
298,284,27630,6,0,P|336:268|357:241,1,70.000000298023
406,178,27981,2,0,P|389:215|363:236,1,70.000000298023
245,197,28332,1,0,0:0:0:0:
319,98,28507,1,0,0:0:0:0:
196,138,28683,2,0,P|209:100|253:74,1,70.000000298023
316,29,29034,6,0,P|281:7|234:11,1,70.000000298023
300,95,29385,2,0,P|335:117|382:113,1,70.000000298023
490,80,29735,1,0,0:0:0:0:
397,178,29911,1,0,0:0:0:0:
512,198,30086,1,0,0:0:0:0:
490,80,30262,1,0,0:0:0:0:
410,21,30437,6,0,L|314:29,1,70.000000298023
228,22,30788,2,0,L|323:30,1,70.000000298023
389,117,31139,1,0,0:0:0:0:
263,140,31314,1,0,0:0:0:0:
335,245,31490,6,0,P|316:287|202:317,3,140.000000596046,8|0|8|0,0:0|0:0|0:0|0:0,0:0:0:0:
105,283,32718,1,8,0:0:0:0:
38,179,32893,2,0,P|78:144|161:161,1,140.000000596046,0|8,0:0|0:0,0:0:0:0:
240,254,33420,5,8,0:0:0:0:
183,71,33595,1,8,0:0:0:0:
373,44,33771,2,4,L|374:-5,1,35.0000001490115
266,134,33946,2,4,L|264:187,1,35.0000001490115
374,252,34121,1,0,0:0:0:0:
475,94,34297,1,2,0:0:0:0:
73,66,34648,5,0,0:0:0:0:
174,327,34999,5,0,0:0:0:0:
420,222,35174,1,0,0:0:0:0:
63,110,35525,5,0,0:0:0:0:
386,53,35700,1,0,0:0:0:0:
226,66,36227,5,0,0:0:0:0:
174,227,36402,1,0,0:0:0:0:
292,130,36578,1,0,0:0:0:0:
142,129,36753,1,0,0:0:0:0:
270,227,36928,1,0,0:0:0:0:
226,66,37104,1,0,0:0:0:0:
174,227,37279,1,0,0:0:0:0:
292,129,37455,6,0,P|332:114|381:116,1,70.000000298023
489,136,37806,2,0,P|449:151|400:149,1,70.000000298023
292,129,38157,1,0,0:0:0:0:
293,291,38332,1,0,0:0:0:0:
193,237,38507,2,0,P|215:202|257:190,1,70.000000298023
363,152,38858,6,0,P|327:129|285:135,1,70.000000298023
171,121,39209,2,0,P|206:98|248:104,1,70.000000298023
361,76,39560,2,0,P|325:53|283:59,1,70.000000298023
181,44,39911,2,0,P|216:21|258:27,1,70.000000298023
432,38,40262,5,0,0:0:0:0:
54,268,40613,5,0,0:2:0:0:
285,328,40788,1,0,0:2:0:0:
84,94,41139,5,0,0:0:0:0:
379,172,41314,1,0,0:0:0:0:
195,71,41841,5,0,0:0:0:0:
371,204,42016,1,0,0:0:0:0:
312,6,42192,1,0,0:0:0:0:
235,214,42367,1,0,0:0:0:0:
418,79,42542,1,0,0:0:0:0:
195,71,42718,1,0,0:0:0:0:
371,204,42893,1,0,0:0:0:0:
312,6,43069,6,0,P|261:-1|226:10,1,70.000000298023
128,68,43420,1,0,0:0:0:0:
243,129,43595,2,0,P|294:136|329:125,1,70.000000298023
420,67,43946,1,0,0:0:0:0:
495,166,44121,2,0,P|484:220|449:245,1,70.000000298023
357,290,44472,6,0,P|320:249|311:224,1,70.000000298023
155,290,44823,2,0,P|192:249|201:224,1,70.000000298023
321,127,45174,2,0,P|290:102|248:103,1,70.000000298023
221,94,45437,5,0,0:0:0:0:
173,93,45524,1,0,0:0:0:0:
134,120,45612,1,0,0:0:0:0:
119,165,45700,1,0,0:0:0:0:
134,211,45787,1,0,0:0:0:0:
177,235,45876,6,0,P|212:245|274:216,1,105.000004452467
391,72,46227,1,0,0:0:0:0:
466,248,46402,1,0,0:0:0:0:
487,53,46578,1,0,0:0:0:0:
368,210,46753,1,0,0:0:0:0:
216,345,46928,2,0,P|275:358|346:329,1,105.000004452467
492,353,47279,6,0,P|430:356|388:339,1,105.000004452467
254,194,47630,1,0,0:0:0:0:
439,226,47806,1,0,0:0:0:0:
258,121,47981,1,0,0:0:0:0:
444,154,48156,1,0,0:0:0:0:
279,49,48332,2,0,P|229:42|173:85,1,105.000004452467
149,228,48683,6,0,P|193:267|271:246,1,105.000004452467
344,108,49034,1,0,0:0:0:0:
342,299,49209,1,0,0:0:0:0:
409,109,49385,1,0,0:0:0:0:
408,301,49560,1,0,0:0:0:0:
482,117,49735,2,0,P|458:170|409:180,1,105.000004452467
290,183,50086,6,0,P|237:174|185:117,1,105.000004452467
78,5,50437,1,0,0:0:0:0:
255,73,50613,1,0,0:0:0:0:
62,75,50788,1,0,0:0:0:0:
242,18,50963,1,0,0:0:0:0:
92,140,51139,2,0,P|106:189|151:217,1,105.000004452467
325,152,51490,6,0,P|373:172|390:251,1,105.000004452467
235,349,51841,1,0,0:0:0:0:
420,279,52016,1,0,0:0:0:0:
247,201,52192,1,0,0:0:0:0:
352,354,52367,1,0,0:0:0:0:
173,283,52542,2,0,P|146:243|153:177,1,105.000004452467
137,29,52893,6,0,P|178:17|239:46,1,105.000004452467
81,172,53245,1,0,0:0:0:0:
282,111,53421,1,0,0:0:0:0:
240,294,53596,1,0,0:0:0:0:
189,111,53771,1,0,0:0:0:0:
67,263,53946,2,0,P|123:310|160:315,1,105.000004452467
201,202,54297,5,0,0:0:0:0:
28,352,54472,1,0,0:0:0:0:
112,137,54823,5,0,0:0:0:0:
239,330,54999,1,0,0:0:0:0:
482,34,55349,5,0,0:0:0:0:
93,124,55700,5,0,0:0:0:0:
173,265,55876,1,0,0:0:0:0:
183,108,56051,1,0,0:0:0:0:
105,245,56227,1,0,0:0:0:0:
162,31,56402,5,0,0:0:0:0:
196,33,56489,1,0,0:0:0:0:
228,48,56577,1,0,0:0:0:0:
254,71,56665,1,0,0:0:0:0:
275,99,56752,1,0,0:0:0:0:
295,128,56840,1,0,0:0:0:0:
318,154,56928,1,0,0:0:0:0:
349,169,57016,1,0,0:0:0:0:
384,173,57104,6,0,P|419:166|457:175,1,70.000000298023
402,259,57455,2,0,P|367:266|329:257,1,70.000000298023
204,232,57806,1,0,0:0:0:0:
309,158,57981,1,0,0:0:0:0:
203,91,58156,1,0,0:0:0:0:
97,161,58332,1,0,0:0:0:0:
204,232,58507,6,0,L|152:281,1,70.000000298023
50,369,58858,1,0,0:0:0:0:
119,310,59034,1,0,0:0:0:0:
134,185,59209,2,0,P|101:199|73:244,1,70.000000298023
174,252,59560,2,0,P|207:238|235:193,1,70.000000298023
279,86,59911,6,0,P|308:52|340:44,1,70.000000298023
349,138,60262,2,0,P|320:172|288:180,1,70.000000298023
174,252,60613,1,0,0:0:0:0:
126,140,60788,1,0,0:0:0:0:
49,238,60963,1,0,0:0:0:0:
174,252,61139,1,0,0:0:0:0:
248,141,61314,6,0,L|305:196,1,70.000000298023
392,274,61665,2,0,P|359:245|320:238,1,70.000000298023
211,222,62016,1,0,0:0:0:0:
111,145,62192,1,0,0:0:0:0:
211,59,62367,2,0,P|171:40|136:42,1,70.000000298023
30,82,62718,6,0,P|16:136|25:162,1,70.000000298023
98,202,63069,2,0,P|112:148|103:122,1,70.000000298023
100,18,63420,1,0,0:0:0:0:
226,16,63595,1,0,0:0:0:0:
236,146,63771,1,0,0:0:0:0:
111,147,63946,1,0,0:0:0:0:
4,227,64121,6,0,L|78:250,1,70.000000298023
201,284,64472,1,0,0:0:0:0:
112,263,64648,1,0,0:0:0:0:
42,157,64823,2,0,P|71:130|120:123,1,70.000000298023
185,152,65174,2,0,P|156:179|107:186,1,70.000000298023
22,121,65525,6,0,P|51:94|100:87,1,70.000000298023,8|8,0:0|0:0,0:0:0:0:
243,179,65876,1,8,0:0:0:0:
302,45,66051,1,4,0:0:0:0:
244,39,66139,1,4,0:0:0:0:
189,56,66227,1,4,0:0:0:0:
243,179,66402,1,0,0:0:0:0:
192,290,66578,2,0,P|233:312|266:307,1,70.000000298023,2|0,0:0|0:0,0:0:0:0:
359,226,66928,6,0,P|330:252|281:259,1,70.000000298023,8|8,0:0|0:0,0:0:0:0:
138,167,67279,1,8,0:0:0:0:
79,302,67454,1,4,0:0:0:0:
137,308,67542,1,4,0:0:0:0:
192,290,67630,1,4,0:0:0:0:
138,167,67805,1,0,0:0:0:0:
189,56,67981,2,0,P|148:34|115:39,1,70.000000298023,2|0,0:0|0:0,0:0:0:0:
55,156,68332,6,0,P|55:203|73:235,1,70.000000298023
138,167,68683,2,0,P|138:120|120:88,1,70.000000298023
29,27,69034,1,0,0:0:0:0:
31,163,69209,1,0,0:0:0:0:
160,164,69385,1,0,0:0:0:0:
163,32,69560,1,0,0:0:0:0:
67,102,69735,6,0,L|145:102,1,70.000000298023
271,101,70086,1,0,0:0:0:0:
184,103,70262,1,0,0:0:0:0:
124,226,70437,2,0,P|79:237|43:218,1,70.000000298023
95,151,70788,2,0,P|140:139|176:158,1,70.000000298023
247,237,71139,6,0,P|275:273|321:292,1,70.000000298023
315,191,71490,2,0,P|287:155|241:136,1,70.000000298023
167,52,71841,1,0,0:0:0:0:
195,181,72016,1,0,0:0:0:0:
75,151,72192,1,0,0:0:0:0:
167,52,72367,1,0,0:0:0:0:
291,30,72542,6,0,P|333:35|367:58,1,70.000000298023
466,32,72893,2,0,P|424:37|390:60,1,70.000000298023
276,113,73244,1,0,0:0:0:0:
288,145,73331,1,0,0:0:0:0:
309,173,73419,1,0,0:0:0:0:
337,193,73507,1,0,0:0:0:0:
370,198,73595,2,0,P|406:192|454:231,1,70.000000298023
306,308,73946,5,0,0:0:0:0:
204,147,74121,1,0,0:0:0:0:
195,316,74297,1,0,0:0:0:0:
310,122,74472,1,0,0:0:0:0:
406,318,74648,1,0,0:0:0:0:
401,99,74823,1,0,0:0:0:0:
303,304,74999,1,0,0:0:0:0:
238,58,75174,1,0,0:0:0:0:
34,219,75349,5,0,0:0:0:0:
259,193,75525,1,0,0:0:0:0:
61,287,75700,1,0,0:0:0:0:
235,129,75876,1,0,0:0:0:0:
0,160,76051,1,0,0:0:0:0:
190,9,76227,1,0,0:0:0:0:
129,200,76402,1,0,0:0:0:0:
28,24,76578,1,0,0:0:0:0:
129,200,76753,5,0,0:0:0:0:
255,57,76928,1,0,0:0:0:0:
177,232,77104,1,0,0:0:0:0:
198,46,77279,1,0,0:0:0:0:
240,228,77455,1,0,0:0:0:0:
143,69,77630,1,0,0:0:0:0:
288,192,77806,1,0,0:0:0:0:
108,118,77981,1,0,0:0:0:0:
301,119,78156,5,0,0:0:0:0:
467,215,78332,1,0,0:0:0:0:
388,37,78507,1,0,0:0:0:0:
346,221,78683,1,0,0:0:0:0:
491,123,78858,1,0,0:0:0:0:
301,119,79034,1,0,0:0:0:0:
491,123,79209,5,0,0:0:0:0:
458,111,79296,1,0,0:0:0:0:
425,122,79384,1,0,0:0:0:0:
402,149,79472,1,0,0:0:0:0:
388,185,79560,5,0,0:0:0:0:
479,331,79911,5,0,0:0:0:0:
333,319,80262,5,0,0:0:0:0:
154,315,80613,6,0,P|200:277|225:275,1,70.000000298023
343,198,80963,2,0,P|297:236|272:238,1,70.000000298023
132,216,81314,2,0,P|178:178|203:176,1,70.000000298023
326,101,81665,2,0,P|280:139|255:141,1,70.000000298023
188,108,82016,1,0,0:0:0:0:
155,96,82103,1,0,0:0:0:0:
120,100,82191,1,0,0:0:0:0:
91,118,82279,1,0,0:0:0:0:
72,147,82367,2,0,P|70:208|89:240,1,70.000000298023
183,330,82718,5,0,0:0:0:0:
243,117,82893,1,0,0:0:0:0:
329,322,83069,1,0,0:0:0:0:
177,143,83244,1,0,0:0:0:0:
265,350,83420,1,0,0:0:0:0:
324,137,83595,1,0,0:0:0:0:
114,99,83771,2,0,B|68:161|139:264|147:257|157:253|164:247|172:239|204:243|198:162|189:136|161:135|198:-4|281:145,1,420.000001788138,0|14,0:0|0:0,0:0:0:0:
