osu file format v14

[General]
AudioFilename: audio.mp3
AudioLeadIn: 0
PreviewTime: 57060
Countdown: 0
SampleSet: Soft
StackLeniency: 0.4
Mode: 0
LetterboxInBreaks: 0
WidescreenStoryboard: 1

[Editor]
DistanceSpacing: 1
BeatDivisor: 4
GridSize: 16
TimelineZoom: 1.4

[Metadata]
Title:Believe in yourself (TV Size)
TitleUnicode:Believe in yourself (TV Size)
Artist:Abe Mao
ArtistUnicode:阿部真央
Creator:FreezingAnimenz
Version:Simple & Share's Insane
Source:ベイビーステップ
Tags:anime pop j-pop jpop rock jrock j-rock baby steps opening japanese simple- share leominexd sanairrt
BeatmapID:3728071
BeatmapSetID:1817171

[Difficulty]
HPDrainRate:5
CircleSize:4
OverallDifficulty:7.5
ApproachRate:8.8
SliderMultiplier:1.6
SliderTickRate:1

[Events]
//Background and Video events
0,0,"Hiten.Goane.Ryu.full.2222652-min.png",0,0
Video,850,"Abe Mao - Believe in yourself (TV Size).avi"
//Break Periods
//Storyboard Layer 0 (Background)
//Storyboard Layer 1 (Fail)
//Storyboard Layer 2 (Pass)
//Storyboard Layer 3 (Foreground)
//Storyboard Layer 4 (Overlay)
//Storyboard Sound Samples

[TimingPoints]
-483,350.877192982456,4,2,0,85,1,0
920,-100,4,2,1,60,0,0
6534,-100,4,2,1,75,0,0
6885,-100,4,2,1,55,0,0
7236,-100,4,2,1,57,0,0
7587,-100,4,2,1,59,0,0
7938,-100,4,2,1,61,0,0
8288,-100,4,2,1,63,0,0
8639,-100,4,2,1,65,0,0
8990,-100,4,2,1,67,0,0
9341,-100,4,2,1,69,0,0
9692,-100,4,2,1,71,0,0
10043,-100,4,2,1,73,0,0
10394,-100,4,2,1,75,0,0
10745,-100,4,2,1,77,0,0
11095,-100,4,2,1,79,0,0
11446,-100,4,2,1,55,0,0
12148,-111.111111111111,4,2,1,70,0,0
34604,-100,4,2,1,75,0,0
37411,-100,4,2,1,70,0,0
40218,-100,4,2,1,75,0,0
43025,-100,4,2,1,70,0,0
45832,-100,4,2,1,75,0,0
54253,-100,4,2,1,70,0,0
56008,-100,4,2,1,78,0,0
57060,-90.9090909090909,4,2,1,85,0,1
79516,-90.9090909090909,4,2,1,70,0,1
82674,-90.9090909090909,4,2,1,55,0,1
82850,-90.9090909090909,4,2,1,60,0,1
83025,-90.9090909090909,4,2,1,65,0,1
83201,-90.9090909090909,4,2,1,70,0,1
83376,-90.9090909090909,4,2,1,75,0,1
83552,-90.9090909090909,4,2,1,80,0,1
83727,-133.333333333333,4,2,1,70,0,0

[Colours]
Combo1 : 128,255,255
Combo2 : 255,205,181
Combo3 : 128,128,255
Combo4 : 255,128,255

[HitObjects]
43,308,6359,5,0,1:1:0:0:
43,308,6446,1,0,1:1:0:0:
43,308,6534,2,0,B|80:269|129:286|129:286|150:322|196:328,1,160,12|0,2:2|3:3,0:0:0:0:
296,260,7060,1,0,3:3:0:0:
286,238,7236,2,0,P|241:234|200:231,1,80,2|0,1:2|3:3,0:0:0:0:
276,354,7587,2,0,P|321:350|362:347,1,80,0|0,1:1|3:3,0:0:0:0:
401,243,7938,6,0,B|402:202|402:202|366:175,2,80,2|0|0,1:2|3:3|1:1,0:0:0:0:
482,293,8464,1,0,3:3:0:0:
482,293,8639,2,0,B|481:334|481:334|517:361,2,80,2|0|0,1:2|3:3|1:1,0:0:0:0:
286,238,9166,5,0,3:3:0:0:
328,149,9341,2,0,B|290:118|252:141|254:145|257:149|217:168|171:137,1,160,0|0,3:3|3:3,0:0:0:0:
139,277,9867,1,8,2:2:0:0:
26,217,10043,2,0,P|70:204|115:206,1,80,8|8,2:2|2:2,0:0:0:0:
153,60,10394,2,0,P|113:72|92:108,1,80,8|8,2:2|2:2,0:0:0:0:
231,306,10745,5,8,2:2:0:0:
184,143,10920,1,8,2:2:0:0:
128,343,11095,5,8,2:2:0:0:
322,254,11271,1,8,2:2:0:0:
59,78,12148,6,0,B|93:61|126:101|124:103|122:106|152:144|192:124,1,143.999995605469,4|8,1:2|2:2,0:0:0:0:
272,54,12674,2,0,P|230:35|196:31,1,71.9999978027344,2|0,2:2|1:1,0:0:0:0:
286,149,13025,1,2,1:2:0:0:
398,111,13201,2,0,P|391:71|380:24,1,71.9999978027344,10|0,2:2|0:0,0:0:0:0:
358,205,13552,6,0,P|387:168|485:182,1,143.999995605469,2|8,1:2|2:2,0:0:0:0:
428,253,14078,1,2,2:2:0:0:
491,353,14253,2,0,P|500:309|510:274,1,71.9999978027344,0|2,1:1|1:2,0:0:0:0:
382,358,14604,2,0,P|339:333|298:334,1,71.9999978027344,10|0,2:2|0:0,0:0:0:0:
187,349,14955,6,0,B|207:332|231:317|231:317|201:213,1,143.999995605469,2|8,1:2|2:2,0:0:0:0:
52,250,15481,2,0,P|92:258|132:263,1,71.9999978027344,2|0,2:2|1:1,0:0:0:0:
67,165,15832,1,2,1:2:0:0:
119,81,16008,2,0,P|83:64|39:74,1,71.9999978027344,10|0,2:2|0:0,0:0:0:0:
208,151,16359,6,0,B|245:115|221:72|220:76|219:80|196:33|232:-1,1,143.999995605469,2|8,1:2|2:2,0:0:0:0:
325,60,16885,2,0,B|343:48|375:80|375:80|414:43|455:66,1,143.999995605469,2|2,2:2|1:2,0:0:0:0:
499,176,17411,2,0,P|461:169|415:162,1,71.9999978027344,10|0,2:2|0:0,0:0:0:0:
333,261,17762,6,0,P|394:256|437:334,1,143.999995605469,2|8,1:2|2:2,0:0:0:0:
320,349,18288,2,0,B|263:340|263:340|232:363|232:363|171:352,1,143.999995605469,2|2,2:2|1:2,0:0:0:0:
117,254,18815,1,10,2:2:0:0:
52,350,18990,1,0,0:0:0:0:
30,189,19166,6,0,P|72:145|161:174,1,143.999995605469,2|8,1:2|2:2,0:0:0:0:
252,42,19692,2,0,L|163:57,1,71.9999978027344,2|0,2:2|1:1,0:0:0:0:
273,154,20043,1,2,1:2:0:0:
375,31,20218,2,0,B|371:77|371:77|384:96|384:96|381:142,1,107.999996704102,10|0,2:2|0:0,0:0:0:0:
399,174,20569,6,0,L|484:198,1,71.9999978027344,2|0,1:2|0:0,0:0:0:0:
431,331,20920,2,0,B|400:306|363:342|367:345|371:348|339:378|301:361,1,143.999995605469,8|0,2:2|1:1,0:0:0:0:
190,316,21445,1,2,1:2:0:0:
235,225,21621,2,0,P|270:227|297:250,1,71.9999978027344,10|2,2:2|2:2,0:0:0:0:
93,365,21973,6,0,P|92:321|89:276,1,71.9999978027344,2|0,1:2|0:0,0:0:0:0:
31,179,22324,2,0,P|72:164|113:176,1,71.9999978027344,8|0,2:2|0:0,0:0:0:0:
191,225,22674,1,0,1:1:0:0:
79,268,22850,1,2,1:2:0:0:
199,185,23025,2,0,P|193:146|186:103,1,71.9999978027344,10|0,2:2|0:0,0:0:0:0:
62,55,23376,6,0,B|92:79|129:43|125:40|121:37|153:7|191:25,1,143.999995605469,4|8,1:2|2:2,0:0:0:0:
345,115,23902,2,0,P|303:129|263:151,1,71.9999978027344,2|0,2:2|1:1,0:0:0:0:
297,20,24253,1,2,1:2:0:0:
420,54,24429,2,0,P|442:97|437:124,1,71.9999978027344,10|0,2:2|0:0,0:0:0:0:
463,234,24780,6,0,B|383:200|383:200|346:221|358:267,1,143.999995605469,2|8,1:2|2:2,0:0:0:0:
231,358,25306,2,0,B|232:305|229:299|229:299|245:277|245:277|242:271|241:200,1,143.999995605469,2|0,1:2|1:1,0:0:0:0:
323,339,25832,2,0,L|395:332,1,71.9999978027344,10|0,2:2|0:0,0:0:0:0:
241,219,26183,6,0,P|175:201|120:276,1,143.999995605469,2|8,1:2|2:2,0:0:0:0:
27,330,26709,2,0,P|66:337|106:352,1,71.9999978027344,2|0,2:2|1:1,0:0:0:0:
198,292,27060,1,2,1:2:0:0:
310,358,27236,2,0,P|315:316|321:270,1,71.9999978027344,10|0,2:2|0:0,0:0:0:0:
241,202,27587,6,0,B|183:197|183:197|160:173|160:173|104:167,1,143.999995605469,2|8,1:2|2:2,0:0:0:0:
197,92,28113,1,2,2:2:0:0:
132,19,28288,2,0,P|105:44|102:82,1,71.9999978027344,0|2,1:1|1:2,0:0:0:0:
289,78,28639,2,0,P|284:43|257:19,1,71.9999978027344,10|0,2:2|0:0,0:0:0:0:
241,202,28990,6,0,B|277:182|313:212|309:214|306:217|347:250|394:216,1,143.999995605469,2|8,1:2|2:2,0:0:0:0:
447,357,29516,2,0,P|395:342|357:339,1,71.9999978027344,2|0,2:2|1:1,0:0:0:0:
482,268,29867,1,2,1:2:0:0:
430,184,30043,2,0,P|390:203|371:238,1,71.9999978027344,10|0,2:2|0:0,0:0:0:0:
294,349,30394,6,0,B|293:292|293:292|271:261|271:261|273:212,1,143.999995605469,2|8,1:2|2:2,0:0:0:0:
201,331,30920,1,2,2:2:0:0:
134,212,31095,2,0,P|98:199|57:214,1,71.9999978027344,0|2,1:1|1:2,0:0:0:0:
96,358,31446,2,0,L|95:281,1,71.9999978027344,10|0,2:2|0:0,0:0:0:0:
22,89,31797,6,0,B|48:98|71:110|71:110|165:71,1,143.999995605469,2|8,1:2|2:2,0:0:0:0:
217,165,32324,1,2,2:2:0:0:
269,78,32499,2,0,P|257:43|240:12,1,71.9999978027344,0|2,1:1|1:2,0:0:0:0:
197,187,32850,1,10,2:2:0:0:
350,144,33025,1,2,2:2:0:0:
301,245,33201,6,0,B|350:265|350:265|368:298|368:298|427:323,1,143.999995605469,2|8,1:2|2:2,0:0:0:0:
294,351,33727,1,8,0:2:0:0:
294,351,33815,1,8,2:2:0:0:
294,351,33902,2,0,P|258:337|223:324,1,71.9999978027344,8|0,2:2|1:1,0:0:0:0:
103,286,34253,2,0,P|120:330|120:362,1,71.9999978027344,8|0,2:2|0:0,0:0:0:0:
28,244,34604,6,0,P|94:251|150:170,1,160,4|2,1:2|1:2,0:0:0:0:
228,81,35131,1,10,2:2:0:0:
317,179,35306,2,0,L|238:164,1,80,2|0,0:2|1:1,0:0:0:0:
408,142,35657,2,0,P|434:184|425:225,1,80,14|0,2:2|0:0,0:0:0:0:
346,73,36008,6,0,B|379:28|422:50|420:54|418:58|468:80|498:22,1,160,2|2,2:2|1:2,0:0:0:0:
408,142,36534,1,0,1:1:0:0:
491,224,36709,2,0,P|496:175|501:136,1,80,10|2,2:2|1:2,0:0:0:0:
451,348,37060,1,10,2:2:0:0:
364,218,37236,1,0,1:1:0:0:
328,332,37411,6,0,B|246:297|246:297|202:319|209:367,1,160,4|10,1:2|2:2,0:0:0:0:
108,221,37938,1,2,2:2:0:0:
108,221,38025,1,2,0:2:0:0:
108,221,38113,2,0,P|151:226|199:232,1,80,2|0,1:2|1:1,0:0:0:0:
212,52,38464,2,0,P|171:69|149:112,1,80,10|0,2:2|0:0,0:0:0:0:
253,152,38815,6,0,B|287:120|334:148|332:151|328:155|381:185|414:133,1,160,2|8,1:2|2:2,0:0:0:0:
493,64,39341,1,2,2:2:0:0:
391,3,39516,2,0,P|368:40|363:76,1,80,2|0,1:2|1:1,0:0:0:0:
477,225,39867,2,0,P|483:183|492:138,1,80,8|0,2:2|0:0,0:0:0:0:
492,324,40218,6,0,P|459:272|351:279,1,160,4|2,1:2|1:2,0:0:0:0:
311,375,40745,1,10,2:2:0:0:
194,277,40920,2,0,P|237:286|283:295,1,80,2|0,2:2|1:1,0:0:0:0:
113,343,41271,2,0,P|87:303|95:257,1,80,14|0,2:2|0:0,0:0:0:0:
159,191,41622,6,0,B|105:178|100:180|100:180|82:151|82:151|77:154|2:138,2,160,2|2|10,2:2|1:2|2:2,0:0:0:0:
250,115,42499,1,2,1:2:0:0:
175,22,42674,2,0,P|159:74|152:118,1,80,10|0,2:2|1:1,0:0:0:0:
346,81,43025,6,0,P|323:43|289:31,1,80,4|0,1:2|0:0,0:0:0:0:
374,172,43376,2,0,P|410:156|428:122,1,80,10|2,2:2|2:2,0:0:0:0:
291,199,43727,1,2,1:2:0:0:
297,230,43902,1,0,1:1:0:0:
371,295,44078,2,0,P|407:265|458:267,1,80,10|0,2:2|0:0,0:0:0:0:
308,357,44429,6,0,B|283:317|227:333|228:337|231:342|186:360|160:314,1,160,2|8,1:2|2:2,0:0:0:0:
224,250,44955,1,2,2:2:0:0:
57,274,45131,2,0,P|71:314|81:367,1,80,2|8,1:2|2:2,0:0:0:0:
137,204,45481,1,8,2:2:0:0:
155,169,45568,1,8,2:2:0:0:
151,130,45656,1,0,3:3:0:0:
124,101,45744,1,0,3:3:0:0:
91,84,45832,6,0,B|164:72|164:72|186:86|186:86|267:75,1,160,4|10,1:2|2:2,0:0:0:0:
322,167,46359,1,2,1:2:0:0:
392,95,46534,2,0,P|398:55|407:17,1,80,2|0,1:2|1:1,0:0:0:0:
309,180,46885,2,0,P|314:219|324:258,1,80,10|0,2:2|0:0,0:0:0:0:
357,373,47236,6,0,P|408:317|489:348,2,160,2|10|2,1:2|2:2|1:2,0:0:0:0:
260,224,48113,1,0,1:1:0:0:
139,351,48288,1,10,2:2:0:0:
267,328,48464,1,0,0:0:0:0:
146,248,48639,6,0,B|100:225|71:263|74:266|77:269|42:310|1:286,2,160,2|10|2,1:2|2:2|1:2,0:0:0:0:
14,192,49516,1,0,1:1:0:0:
108,136,49692,2,0,P|75:98|40:96,1,80,10|0,2:2|0:0,0:0:0:0:
146,248,50043,6,0,P|211:214|309:207,1,160,2|8,1:2|2:2,0:0:0:0:
401,138,50569,1,2,1:2:0:0:
352,57,50745,2,0,P|314:93|311:127,1,80,2|0,1:2|1:1,0:0:0:0:
487,182,51095,2,0,L|498:96,1,80,8|0,2:2|0:0,0:0:0:0:
389,248,51446,6,0,B|477:274|477:274|496:320|462:349,2,160,2|10|2,1:2|2:2|1:2,0:0:0:0:
318,350,52324,1,0,1:1:0:0:
230,239,52499,2,0,L|215:324,1,80,10|0,2:2|0:0,0:0:0:0:
319,191,52850,6,0,P|234:192|191:119,2,160,2|10|2,1:2|2:2|1:2,0:0:0:0:
405,65,53727,1,0,1:1:0:0:
283,105,53902,1,10,2:2:0:0:
418,227,54078,5,0,1:1:0:0:
418,227,54166,1,0,1:1:0:0:
418,227,54253,2,0,P|409:179|402:137,1,80,12|0,2:2|1:1,0:0:0:0:
334,354,54604,1,2,2:2:0:0:
464,317,54780,1,2,1:2:0:0:
339,269,54955,2,0,B|293:249|265:291|268:294|271:297|239:344|189:319,1,160,14|2,2:2|2:2,0:0:0:0:
54,231,55481,1,0,1:1:0:0:
109,348,55657,6,0,P|115:301|135:261,1,80,10|0,2:2|1:1,0:0:0:0:
105,151,56008,2,0,P|55:132|13:151,1,80,12|2,2:2|3:2,0:0:0:0:
226,193,56359,5,10,2:2:0:0:
247,159,56446,1,8,2:2:0:0:
244,120,56534,1,8,2:2:0:0:
220,89,56622,1,8,2:2:0:0:
184,70,56709,2,0,L|184:26,3,40,8|8|8|8,2:2|2:2|2:2|2:2,0:0:0:0:
74,38,57060,6,0,B|70:142|143:82|147:217,1,176.000005371094,4|10,1:2|2:2,0:0:0:0:
91,257,57587,1,2,2:2:0:0:
191,334,57762,2,0,P|145:362|88:352,1,88.000002685547,0|2,1:1|1:2,0:0:0:0:
82,271,58113,2,0,P|128:243|185:253,1,88.000002685547,10|2,2:2|0:0,0:0:0:0:
367,228,58464,6,0,B|381:260|339:287|339:287|280:271,1,132.00000402832,2|0,1:2|0:0,0:0:0:0:
260,266,58815,2,0,P|303:282|310:346,1,88.000002685547,10|2,2:2|2:2,0:0:0:0:
191,334,59166,5,0,1:1:0:0:
160,243,59341,1,2,1:2:0:0:
247,159,59516,2,0,P|274:122|229:31,1,132.00000402832,10|0,2:2|0:0,0:0:0:0:
231,31,59867,6,0,B|305:42|305:42|310:46|310:46|420:61,1,176.000005371094,2|10,1:2|2:2,0:0:0:0:
468,120,60394,1,2,2:2:0:0:
385,168,60569,1,0,1:1:0:0:
512,257,60745,1,2,1:2:0:0:
458,318,60920,2,0,P|408:301|361:290,1,88.000002685547,10|0,2:2|0:0,0:0:0:0:
223,193,61271,6,0,B|269:175|296:214|296:214|270:303,1,176.000005371094,2|10,1:2|2:2,0:0:0:0:
210,201,61797,1,2,2:2:0:0:
292,101,61973,1,0,1:1:0:0:
224,35,62148,1,2,1:2:0:0:
133,128,62324,2,0,P|86:160|36:156,1,88.000002685547,10|2,2:2|2:2,0:0:0:0:
20,95,62674,6,0,B|17:181|124:142|103:276,1,176.000005371094,4|10,1:2|2:2,0:0:0:0:
46,302,63201,1,2,2:2:0:0:
136,357,63376,1,0,1:1:0:0:
211,304,63552,1,2,1:2:0:0:
185,220,63727,2,0,P|130:219|95:256,1,88.000002685547,10|0,2:2|0:0,0:0:0:0:
211,304,64078,6,0,B|226:320|226:349|226:349|230:347|230:347|232:270|295:241,1,176.000005371094,2|10,1:2|2:2,0:0:0:0:
374,263,64604,1,2,2:2:0:0:
404,371,64780,2,0,P|362:342|312:339,1,88.000002685547,0|2,1:1|1:2,0:0:0:0:
185,220,65131,2,0,P|214:171|196:91,1,132.00000402832,10|0,2:2|0:0,0:0:0:0:
187,83,65481,5,2,1:2:0:0:
122,34,65657,1,0,1:1:0:0:
209,92,65832,1,10,2:2:0:0:
300,31,66008,5,2,3:2:0:0:
300,31,66095,1,8,2:2:0:0:
300,31,66183,2,0,B|338:38|338:38|341:40|341:40|395:49,1,88.000002685547,0|2,1:1|1:2,0:0:0:0:
473,95,66534,1,10,2:2:0:0:
391,145,66709,1,0,1:1:0:0:
478,215,66885,5,2,1:2:0:0:
382,161,67060,1,0,1:1:0:0:
370,297,67236,2,0,B|324:289|324:289|321:287|321:287|283:280,1,88.000002685547,8|0,2:2|3:3,0:0:0:0:
262,286,67499,1,8,2:2:0:0:
241,294,67587,2,0,P|228:236|255:204,1,88.000002685547,8|2,0:2|1:2,0:0:0:0:
382,161,67938,2,0,P|398:121|382:81,1,88.000002685547,14|0,2:2|0:0,0:0:0:0:
320,17,68288,6,0,B|216:10|283:104|162:95,1,176.000005371094,4|10,1:2|2:2,0:0:0:0:
105,39,68815,1,2,2:2:0:0:
28,111,68990,1,0,1:1:0:0:
112,170,69166,1,2,1:2:0:0:
11,221,69341,2,0,P|61:189|113:194,1,88.000002685547,10|0,2:2|0:0,0:0:0:0:
201,179,69692,6,0,P|189:257|173:363,1,176.000005371094,2|10,1:2|2:2,0:0:0:0:
138,281,70218,1,2,2:2:0:0:
226,254,70394,2,0,P|280:255|307:288,1,88.000002685547,0|2,1:1|1:2,0:0:0:0:
491,318,70745,2,0,B|425:305|425:305|392:326|415:379,1,132.00000402832,10|0,2:2|0:0,0:0:0:0:
413,383,71095,6,0,P|416:319|348:202,1,176.000005371094,2|10,1:2|2:2,0:0:0:0:
316,151,71622,1,2,2:2:0:0:
415,100,71797,2,0,P|460:110|512:67,1,88.000002685547,0|2,1:1|1:2,0:0:0:0:
373,15,72148,2,0,P|335:45|342:101,1,88.000002685547,10|0,2:2|0:0,0:0:0:0:
368,220,72499,6,0,P|303:165|209:185,1,176.000005371094,2|10,1:2|2:2,0:0:0:0:
182,253,73025,2,0,L|123:245,1,44.0000013427735,2|0,1:2|0:0,0:0:0:0:
97,243,73201,5,8,2:2:0:0:
113,229,73288,1,0,3:3:0:0:
124,210,73376,1,2,3:2:0:0:
133,190,73464,1,0,3:3:0:0:
133,167,73552,2,0,P|122:128|110:79,1,88.000002685547,14|0,2:2|0:0,0:0:0:0:
36,27,73902,5,4,1:2:0:0:
127,80,74078,1,0,1:1:0:0:
178,12,74253,5,10,2:2:0:0:
45,107,74429,1,2,1:2:0:0:
196,164,74604,2,0,P|248:169|304:175,1,88.000002685547,8|2,2:2|1:2,0:0:0:0:
97,243,74955,2,0,P|45:248|-11:254,1,88.000002685547,10|0,2:2|1:1,0:0:0:0:
170,351,75306,5,14,2:2:0:0:
265,252,75481,1,0,1:1:0:0:
309,362,75657,5,10,2:2:0:0:
184,273,75832,1,2,1:2:0:0:
283,172,76008,2,0,P|301:117|277:69,1,88.000002685547,8|2,2:2|1:2,0:0:0:0:
224,42,76359,5,10,2:2:0:0:
292,89,76534,1,0,1:1:0:0:
372,0,76709,2,0,B|376:89|461:53|461:141,1,176.000005371094,12|10,2:2|2:2,0:0:0:0:
413,208,77236,1,2,1:2:0:0:
349,275,77411,2,0,P|286:257|241:247,1,88.000002685547,8|2,2:2|1:2,0:0:0:0:
428,365,77762,2,0,P|470:354|512:341,1,88.000002685547,10|0,2:2|1:1,0:0:0:0:
332,187,78113,5,14,2:2:0:0:
440,283,78288,1,0,1:1:0:0:
413,208,78464,5,10,2:2:0:0:
349,275,78639,1,2,1:2:0:0:
269,93,78815,5,8,2:2:0:0:
332,187,78990,1,0,1:1:0:0:
449,30,79166,5,10,2:2:0:0:
415,20,79253,1,8,2:2:0:0:
383,35,79341,1,10,2:2:0:0:
364,63,79429,1,8,2:2:0:0:
364,98,79516,5,4,1:2:0:0:
223,186,79867,5,0,1:1:0:0:
398,380,80218,5,8,2:2:0:0:
284,327,80569,5,0,1:1:0:0:
349,275,80745,2,0,L|444:293,1,88.000002685547,14|2,2:2|1:2,0:0:0:0:
223,186,81095,5,10,2:2:0:0:
158,134,81271,2,0,L|63:152,1,88.000002685547,0|2,1:0|3:2,0:0:0:0:
248,40,81622,1,14,2:2:0:0:
248,40,81973,5,10,2:2:0:0:
278,57,82060,1,8,2:2:0:0:
311,68,82148,1,8,2:2:0:0:
345,74,82236,1,8,2:2:0:0:
380,69,82324,2,0,P|436:49|487:70,1,88.000002685547,4|0,1:2|0:0,0:0:0:0:
473,251,82674,5,8,2:2:0:0:
285,158,82850,1,8,2:2:0:0:
303,343,83025,5,8,2:2:0:0:
394,155,83201,1,8,2:2:0:0:
227,252,83376,1,8,1:2:0:0:
210,246,83464,1,8,3:0:0:0:
193,240,83552,1,8,1:2:0:0:
176,234,83639,1,0,0:0:0:0:
164,230,83727,1,10,2:2:0:0:
