osu file format v14

[General]
AudioFilename: audio.mp3
AudioLeadIn: 0
PreviewTime: 57060
Countdown: 0
SampleSet: Soft
StackLeniency: 0.5
Mode: 0
LetterboxInBreaks: 0
WidescreenStoryboard: 1

[Editor]
Bookmarks: 57060
DistanceSpacing: 1
BeatDivisor: 4
GridSize: 32
TimelineZoom: 1

[Metadata]
Title:Believe in yourself (TV Size)
TitleUnicode:Believe in yourself (TV Size)
Artist:Abe Mao
ArtistUnicode:阿部真央
Creator:FreezingAnimenz
Version:Normal
Source:ベイビーステップ
Tags:anime pop j-pop jpop rock jrock j-rock baby steps opening japanese simple- share leominexd sanairrt
BeatmapID:3735739
BeatmapSetID:1817171

[Difficulty]
HPDrainRate:3
CircleSize:3.5
OverallDifficulty:4
ApproachRate:5
SliderMultiplier:1
SliderTickRate:1

[Events]
//Background and Video events
0,0,"Hiten.Goane.Ryu.full.2222652-min.png",0,0
Video,850,"Abe Mao - Believe in yourself (TV Size).avi"
//Break Periods
//Storyboard Layer 0 (Background)
//Storyboard Layer 1 (Fail)
//Storyboard Layer 2 (Pass)
//Storyboard Layer 3 (Foreground)
//Storyboard Layer 4 (Overlay)
//Storyboard Sound Samples

[TimingPoints]
-483,350.877192982456,4,2,1,85,1,0
920,-111.111111111111,4,2,1,60,0,0
6534,-111.111111111111,4,2,1,75,0,0
6885,-111.111111111111,4,2,1,55,0,0
7236,-111.111111111111,4,2,1,57,0,0
7587,-111.111111111111,4,2,1,59,0,0
7938,-111.111111111111,4,2,1,61,0,0
8288,-111.111111111111,4,2,1,63,0,0
8639,-111.111111111111,4,2,1,65,0,0
8990,-111.111111111111,4,2,1,67,0,0
9341,-111.111111111111,4,2,1,69,0,0
9692,-111.111111111111,4,2,1,71,0,0
10043,-111.111111111111,4,2,1,73,0,0
10394,-111.111111111111,4,2,1,75,0,0
10745,-111.111111111111,4,2,1,77,0,0
11095,-111.111111111111,4,2,1,79,0,0
11446,-111.111111111111,4,2,1,55,0,0
12148,-111.111111111111,4,2,1,70,0,0
33727,-111.111111111111,4,2,1,70,0,0
34253,-100,4,2,1,70,0,0
34604,-100,4,2,1,75,0,0
37411,-100,4,2,1,70,0,0
40218,-100,4,2,1,75,0,0
43025,-100,4,2,1,70,0,0
45306,-100,4,2,1,70,0,0
45832,-90.9090909090909,4,2,1,75,0,0
54253,-90.9090909090909,4,2,1,70,0,0
56008,-90.9090909090909,4,2,1,78,0,0
57060,-90.9090909090909,4,2,1,85,0,1
67938,-90.9090909090909,4,2,1,85,0,1
68288,-90.9090909090909,4,2,1,85,0,1
73201,-100,4,2,1,85,0,0
73552,-100,4,2,1,85,0,0
73902,-90.9090909090909,4,2,1,85,0,1
79516,-100,4,2,1,70,0,0
82324,-100,4,2,1,70,0,0
82674,-100,4,2,1,55,0,0
82850,-100,4,2,1,60,0,0
83025,-100,4,2,1,65,0,0
83201,-100,4,2,1,70,0,0
83376,-100,4,2,1,75,0,0
83552,-100,4,2,1,80,0,0
83727,-100,4,2,1,70,0,0

[Colours]
Combo1 : 128,255,255
Combo2 : 255,205,181
Combo3 : 128,128,255
Combo4 : 255,128,255

[HitObjects]
24,70,920,6,0,P|85:35|155:62,1,134.999995880127,2|2,2:2|2:2,0:0:0:0:
255,128,1973,1,2,2:2:0:0:
230,214,2324,2,0,P|238:286|301:298,1,134.999995880127,2|2,2:2|2:2,0:0:0:0:
424,288,3376,1,2,2:2:0:0:
458,204,3727,2,0,P|458:128|403:88,1,134.999995880127,2|2,2:2|2:2,0:0:0:0:
372,82,4429,2,0,L|273:62,1,89.9999972534181,2|2,2:2|2:2,0:0:0:0:
210,117,5131,2,0,P|158:96|87:125,2,134.999995880127,2|2|2,2:2|2:2|2:2,0:0:0:0:
271,182,6534,6,0,L|259:282,1,89.9999972534181,12|0,2:2|3:3,0:0:0:0:
196,335,7236,1,2,1:2:0:0:
107,321,7587,1,0,1:1:0:0:
62,242,7938,2,0,P|63:194|110:166,1,89.9999972534181,2|0,1:2|1:1,0:0:0:0:
135,152,8464,1,0,3:3:0:0:
135,152,8639,2,0,L|198:143,1,44.999998626709,2|0,1:2|3:3,0:0:0:0:
218,167,8990,2,0,L|262:173,1,44.999998626709,0|0,1:1|3:3,0:0:0:0:
307,179,9341,6,0,P|352:172|378:133,1,89.9999972534181,0|0,3:3|3:3,0:0:0:0:
409,53,10043,1,8,2:2:0:0:
323,24,10394,1,8,2:2:0:0:
245,70,10745,2,0,L|184:82,1,44.999998626709,8|8,2:2|2:2,0:0:0:0:
165,51,11095,2,0,L|118:45,1,44.999998626709,8|8,2:2|2:2,0:0:0:0:
78,61,11446,1,2,2:2:0:0:
7,226,12148,6,0,P|-6:289|9:314,1,89.9999972534181,4|8,1:2|2:2,0:0:0:0:
35,347,12674,2,0,L|172:338,1,134.999995880127,2|10,2:2|2:2,0:0:0:0:
245,288,13552,2,0,P|277:261|325:263,1,89.9999972534181,2|8,1:2|2:2,0:0:0:0:
367,285,14078,1,0,1:0:0:0:
367,285,14253,2,0,L|419:274,1,44.999998626709,2|2,2:2|1:2,0:0:0:0:
453,261,14604,1,10,2:2:0:0:
477,174,14955,6,0,P|465:122|421:99,1,89.9999972534181,2|8,1:2|2:2,0:0:0:0:
400,75,15481,2,0,L|300:60,1,89.9999972534181,2|2,2:2|1:2,0:0:0:0:
268,78,16008,1,10,2:2:0:0:
182,50,16359,2,0,P|131:59|102:93,1,89.9999972534181,2|8,1:2|2:2,0:0:0:0:
86,128,16885,1,0,1:0:0:0:
86,128,17060,2,0,L|106:184,1,44.999998626709,2|2,2:2|1:2,0:0:0:0:
94,214,17411,1,10,2:2:0:0:
106,303,17762,6,0,P|158:297|197:326,1,89.9999972534181,2|8,1:2|2:2,0:0:0:0:
219,348,18288,2,0,L|308:335,1,89.9999972534181,2|2,2:2|1:2,0:0:0:0:
352,346,18815,1,10,2:2:0:0:
394,266,19166,2,0,P|359:236|308:241,1,89.9999972534181,2|8,1:2|2:2,0:0:0:0:
278,213,19692,2,0,L|179:188,1,89.9999972534181,2|2,2:2|1:2,0:0:0:0:
145,195,20218,1,10,2:2:0:0:
132,105,20569,6,0,P|140:65|185:43,1,89.9999972534181,2|8,1:2|2:2,0:0:0:0:
272,43,21271,2,0,L|325:29,2,44.999998626709,0|2|10,1:1|1:2|2:2,0:0:0:0:
238,127,21973,2,0,P|211:165|230:219,1,89.9999972534181,2|8,1:2|2:2,0:0:0:0:
275,275,22674,2,0,L|330:263,1,44.999998626709,0|2,1:1|1:2,0:0:0:0:
363,259,23025,1,10,2:2:0:0:
411,183,23376,6,0,P|458:185|484:233,1,89.9999972534181,4|8,1:2|2:2,0:0:0:0:
485,261,23902,2,0,L|468:351,1,89.9999972534181,2|2,2:2|1:2,0:0:0:0:
431,375,24429,1,10,2:2:0:0:
353,328,24780,2,0,P|312:304|253:317,1,89.9999972534181,2|8,1:2|2:2,0:0:0:0:
231,329,25306,2,0,L|135:342,1,89.9999972534181,2|2,2:2|1:2,0:0:0:0:
98,352,25832,1,10,2:2:0:0:
49,276,26183,6,0,P|34:230|59:187,1,89.9999972534181,2|8,1:2|2:2,0:0:0:0:
89,170,26709,2,0,L|181:152,1,89.9999972534181,2|2,2:2|1:2,0:0:0:0:
222,145,27236,1,10,2:2:0:0:
302,103,27587,2,0,P|353:81|400:95,1,89.9999972534181,2|8,1:2|2:2,0:0:0:0:
427,103,28113,2,0,L|407:199,1,89.9999972534181,2|2,2:2|1:2,0:0:0:0:
391,232,28639,1,10,2:2:0:0:
386,321,28990,6,0,P|346:305|294:310,1,89.9999972534181,2|8,1:2|2:2,0:0:0:0:
254,304,29516,2,0,L|161:322,1,89.9999972534181,2|2,2:2|1:2,0:0:0:0:
131,350,30043,1,10,2:2:0:0:
51,307,30394,2,0,P|32:271|51:217,1,89.9999972534181,2|8,1:2|2:2,0:0:0:0:
77,195,30920,1,2,1:2:0:0:
77,195,31095,2,0,L|138:174,1,44.999998626709,0|2,1:1|1:2,0:0:0:0:
160,160,31446,1,10,2:2:0:0:
247,180,31797,6,0,P|286:186|333:158,1,89.9999972534181,2|8,1:2|2:2,0:0:0:0:
408,120,32499,2,0,L|463:102,2,44.999998626709,0|2|10,1:1|1:2|2:2,0:0:0:0:
342,57,33201,2,0,P|302:33|246:39,1,89.9999972534181,2|8,1:2|2:2,0:0:0:0:
221,53,33727,1,8,0:2:0:0:
221,53,33902,2,0,L|162:68,1,44.999998626709,8|0,2:2|1:1,0:0:0:0:
134,86,34253,1,8,2:2:0:0:
34,90,34604,6,0,P|17:135|38:188,1,100,4|2,1:2|1:2,0:0:0:0:
60,224,35131,2,0,L|162:202,1,100,10|0,2:2|1:1,0:0:0:0:
207,210,35657,2,0,P|264:198|307:232,1,100,14|2,2:2|2:2,0:0:0:0:
338,247,36183,1,12,2:2:0:0:
435,215,36534,1,0,1:1:0:0:
435,215,36709,2,0,L|451:163,1,50,10|2,2:2|1:2,0:0:0:0:
470,121,37060,2,0,L|455:69,1,50,10|0,2:2|1:1,0:0:0:0:
417,40,37411,6,0,P|372:24|312:38,1,100,4|10,1:2|2:2,0:0:0:0:
225,62,38113,2,0,L|157:78,1,50,2|0,1:2|1:1,0:0:0:0:
126,67,38464,1,10,2:2:0:0:
56,137,38815,2,0,P|47:187|81:234,1,100,2|8,1:2|2:2,0:0:0:0:
119,254,39341,1,2,2:2:0:0:
119,254,39516,2,0,L|177:236,1,50,2|0,1:2|1:1,0:0:0:0:
216,240,39867,1,8,2:2:0:0:
289,173,40218,6,0,P|336:155|390:175,1,100,4|2,1:2|1:2,0:0:0:0:
413,207,40745,2,0,L|399:314,1,100,10|0,2:2|1:1,0:0:0:0:
373,348,41271,1,14,2:2:0:0:
273,359,41622,1,2,2:2:0:0:
273,359,41797,2,0,P|217:341|171:366,1,100,12|0,2:2|1:1,0:0:0:0:
131,363,42324,2,0,L|72:351,1,50,10|2,2:2|1:2,0:0:0:0:
35,334,42674,1,10,2:2:0:0:
7,237,43025,6,0,P|14:195|76:172,1,100,4|10,1:2|2:2,0:0:0:0:
158,188,43727,2,0,L|223:176,1,50,2|0,1:2|1:1,0:0:0:0:
252,156,44078,1,10,2:2:0:0:
318,231,44429,2,0,P|364:248|416:228,1,100,2|8,1:2|2:2,0:0:0:0:
443,195,44955,1,2,2:2:0:0:
443,195,45131,2,0,L|448:136,1,50,2|8,1:2|2:2,0:0:0:0:
434,97,45481,1,8,2:2:0:0:
341,36,45832,6,0,P|296:9|221:21,1,110.000003356934,4|10,1:2|2:2,0:0:0:0:
163,91,46534,2,0,L|90:111,1,55.0000016784668,2|0,1:2|1:1,0:0:0:0:
54,101,46885,1,10,2:2:0:0:
37,208,47236,2,0,P|-9:262|-5:306,2,110.000003356934,2|10|2,1:2|2:2|1:2,0:0:0:0:
136,255,48288,1,10,2:2:0:0:
229,313,48639,6,0,P|279:327|330:301,1,110.000003356934,2|10,1:2|2:2,0:0:0:0:
384,289,49166,1,2,1:2:0:0:
384,289,49341,2,0,L|389:218,1,55.0000016784668,2|0,1:2|1:1,0:0:0:0:
386,178,49692,1,10,2:2:0:0:
430,77,50043,2,0,P|384:52|323:73,1,110.000003356934,2|8,1:2|2:2,0:0:0:0:
281,82,50569,1,2,1:2:0:0:
281,82,50745,2,0,L|221:73,1,55.0000016784668,2|0,1:2|1:1,0:0:0:0:
175,53,51095,1,8,2:2:0:0:
129,152,51446,6,0,L|150:265,1,110.000003356934,2|10,1:2|2:2,0:0:0:0:
155,312,51973,1,2,1:2:0:0:
155,312,52148,2,0,L|222:294,1,55.0000016784668,2|0,1:2|1:1,0:0:0:0:
261,311,52499,1,10,2:2:0:0:
363,351,52850,2,0,P|403:322|465:331,1,110.000003356934,2|10,1:2|2:2,0:0:0:0:
508,300,53376,1,2,1:2:0:0:
508,300,53552,2,0,L|522:231,1,55.0000016784668,2|0,1:2|1:1,0:0:0:0:
499,194,53902,1,10,2:2:0:0:
451,94,54253,5,12,2:2:0:0:
239,33,54955,1,14,2:2:0:0:
375,205,55657,2,0,L|348:262,1,55.0000016784668,10|0,2:2|1:1,0:0:0:0:
297,265,56008,2,0,L|267:314,1,55.0000016784668,12|2,2:2|3:2,0:0:0:0:
226,348,56359,2,0,P|181:303|129:306,1,110.000003356934,10|8,2:2|2:2,0:0:0:0:
40,250,57060,6,0,P|13:192|33:128,1,110.000003356934,4|10,1:2|2:2,0:0:0:0:
59,108,57587,2,0,L|174:86,1,110.000003356934,2|2,2:2|1:2,0:0:0:0:
217,64,58113,1,10,2:2:0:0:
326,69,58464,2,0,L|304:179,1,110.000003356934,2|10,1:2|2:2,0:0:0:0:
334,222,58990,1,2,2:2:0:0:
334,222,59166,2,0,P|356:241|357:278,1,55.0000016784668,0|2,1:1|1:2,0:0:0:0:
361,320,59516,1,10,2:2:0:0:
263,370,59867,6,0,L|146:351,1,110.000003356934,2|10,1:2|2:2,0:0:0:0:
100,339,60394,2,0,P|77:294|118:234,1,110.000003356934,2|2,2:2|1:2,0:0:0:0:
143,208,60920,1,10,2:2:0:0:
248,239,61271,1,2,1:2:0:0:
358,239,61622,1,10,2:2:0:0:
358,239,61797,2,0,P|399:200|380:143,1,110.000003356934,2|2,2:2|1:2,0:0:0:0:
390,96,62324,1,10,2:2:0:0:
283,70,62674,6,0,L|165:98,1,110.000003356934,4|10,1:2|2:2,0:0:0:0:
66,106,63376,2,0,L|12:129,1,55.0000016784668,0|2,1:1|1:2,0:0:0:0:
0,180,63727,1,10,2:2:0:0:
86,247,64078,2,0,L|204:218,1,110.000003356934,2|10,1:2|2:2,0:0:0:0:
300,194,64780,2,0,L|358:207,1,55.0000016784668,0|2,1:1|1:2,0:0:0:0:
399,235,65131,1,10,2:2:0:0:
365,341,65481,5,2,1:2:0:0:
257,351,65832,2,0,P|215:368|167:358,2,82.5000025177003,10|8|2,2:2|2:2|1:2,0:0:0:0:
289,306,66534,1,10,2:2:0:0:
286,195,66885,1,2,1:2:0:0:
192,143,67236,2,0,P|183:89|195:60,2,82.5000025177003,8|8|2,2:2|2:2|1:2,0:0:0:0:
173,195,67938,1,14,2:2:0:0:
213,297,68288,6,0,P|265:310|314:268,1,110.000003356934,4|10,1:2|2:2,0:0:0:0:
363,264,68815,2,0,L|375:150,1,110.000003356934,2|2,2:2|1:2,0:0:0:0:
407,110,69341,1,10,2:2:0:0:
333,28,69692,2,0,P|285:48|220:30,1,110.000003356934,2|10,1:2|2:2,0:0:0:0:
175,43,70218,1,2,2:2:0:0:
175,43,70394,2,0,L|110:50,1,55.0000016784668,0|2,1:1|1:2,0:0:0:0:
65,52,70745,1,10,2:2:0:0:
91,158,71095,6,0,P|117:218|90:269,1,110.000003356934,2|10,1:2|2:2,0:0:0:0:
90,310,71622,2,0,P|113:352|182:349,1,110.000003356934,2|2,2:2|1:2,0:0:0:0:
216,326,72148,1,10,2:2:0:0:
246,220,72499,2,0,L|227:98,1,110.000003356934,2|10,1:2|2:2,0:0:0:0:
236,60,73025,1,2,1:2:0:0:
236,60,73201,2,0,L|298:44,1,50,8|2,2:2|3:2,0:0:0:0:
331,31,73552,1,14,2:2:0:0:
423,90,73902,6,0,L|399:220,1,110.000003356934,4|10,1:2|2:2,0:0:0:0:
402,253,74429,1,2,1:2:0:0:
402,253,74604,2,0,L|381:321,1,55.0000016784668,8|2,2:2|1:2,0:0:0:0:
342,340,74955,1,10,2:2:0:0:
237,305,75306,2,0,P|183:287|125:315,1,110.000003356934,14|10,2:2|2:2,0:0:0:0:
87,290,75832,1,2,1:2:0:0:
87,290,76008,2,0,L|64:224,1,55.0000016784668,8|2,2:2|1:2,0:0:0:0:
39,191,76359,1,10,2:2:0:0:
94,96,76709,6,0,P|147:68|216:86,1,110.000003356934,12|10,2:2|2:2,0:0:0:0:
250,79,77236,2,0,L|368:73,1,110.000003356934,2|2,1:2|1:2,0:0:0:0:
415,73,77762,1,10,2:2:0:0:
488,154,78113,2,0,P|495:208|441:252,1,110.000003356934,14|10,2:2|2:2,0:0:0:0:
427,291,78639,2,0,L|313:276,1,110.000003356934,2|0,1:2|1:1,0:0:0:0:
263,263,79166,1,10,2:2:0:0:
167,292,79516,6,0,P|133:268|63:281,1,100,4|0,1:2|1:1,0:0:0:0:
0,247,80218,1,8,2:2:0:0:
36,158,80569,1,0,1:1:0:0:
36,158,80745,2,0,L|100:144,1,50,14|2,2:2|1:2,0:0:0:0:
123,116,81095,2,0,L|187:102,1,50,10|0,2:2|1:1,0:0:0:0:
260,152,81622,2,0,P|310:167|360:142,1,100,14|10,2:2|2:2,0:0:0:0:
443,106,82324,6,0,B|514:179|407:229|479:311,2,200,4|8|10,1:2|2:2|2:2,0:0:0:0:
