osu file format v14

[General]
AudioFilename: audio.mp3
AudioLeadIn: 0
PreviewTime: 57060
Countdown: 0
SampleSet: Soft
StackLeniency: 0.4
Mode: 0
LetterboxInBreaks: 0
WidescreenStoryboard: 0

[Editor]
Bookmarks: 57060
DistanceSpacing: 1
BeatDivisor: 4
GridSize: 32
TimelineZoom: 1

[Metadata]
Title:Believe in yourself (TV Size)
TitleUnicode:Believe in yourself (TV Size)
Artist:Abe Mao
ArtistUnicode:阿部真央
Creator:FreezingAnimenz
Version:Belief
Source:ベイビーステップ
Tags:anime pop j-pop jpop rock jrock j-rock baby steps opening japanese simple- share leominexd sanairrt
BeatmapID:3728070
BeatmapSetID:1817171

[Difficulty]
HPDrainRate:6
CircleSize:4.2
OverallDifficulty:8
ApproachRate:9.2
SliderMultiplier:1.6
SliderTickRate:1

[Events]
//Background and Video events
0,0,"Hiten.Goane.Ryu.full.2222652-min.png",0,0
Video,850,"Abe Mao - Believe in yourself (TV Size).avi"
//Break Periods
//Storyboard Layer 0 (Background)
//Storyboard Layer 1 (Fail)
//Storyboard Layer 2 (Pass)
//Storyboard Layer 3 (Foreground)
//Storyboard Layer 4 (Overlay)
//Storyboard Sound Samples

[TimingPoints]
-483,350.877192982456,4,2,1,85,1,0
920,-200,4,2,1,60,0,0
6534,-142.857142857143,4,2,1,75,0,0
6885,-142.857142857143,4,2,1,55,0,0
7236,-142.857142857143,4,2,1,57,0,0
7587,-142.857142857143,4,2,1,59,0,0
7938,-142.857142857143,4,2,1,61,0,0
8288,-142.857142857143,4,2,1,63,0,0
8639,-142.857142857143,4,2,1,65,0,0
8990,-142.857142857143,4,2,1,67,0,0
9341,-142.857142857143,4,2,1,69,0,0
9692,-142.857142857143,4,2,1,71,0,0
10043,-142.857142857143,4,2,1,73,0,0
10394,-142.857142857143,4,2,1,75,0,0
10745,-142.857142857143,4,2,1,77,0,0
11095,-142.857142857143,4,2,1,79,0,0
11446,-142.857142857143,4,2,1,55,0,0
12148,-111.111111111111,4,2,1,70,0,0
33727,-111.111111111111,4,2,1,70,0,0
34253,-90.9090909090909,4,2,1,70,0,0
34604,-100,4,2,1,75,0,0
37411,-100,4,2,1,70,0,0
40218,-100,4,2,1,75,0,0
43025,-100,4,2,1,70,0,0
45306,-125,4,2,1,70,0,0
45832,-90.9090909090909,4,2,1,75,0,0
54253,-90.9090909090909,4,2,1,70,0,0
56008,-90.9090909090909,4,2,1,78,0,0
57060,-83.3333333333333,4,2,1,85,0,1
67938,-66.6666666666667,4,2,1,85,0,1
68288,-83.3333333333333,4,2,1,85,0,1
73201,-83.3333333333333,4,2,1,85,0,0
73552,-90.9090909090909,4,2,1,85,0,0
73639,-90.9090909090909,4,2,1,5,0,0
73902,-83.3333333333333,4,2,1,85,0,1
79516,-100,4,2,1,70,0,0
82324,-83.3333333333333,4,2,1,70,0,1
82674,-83.3333333333333,4,2,1,55,0,1
82850,-83.3333333333333,4,2,1,60,0,1
83025,-83.3333333333333,4,2,1,65,0,1
83201,-83.3333333333333,4,2,1,70,0,1
83376,-83.3333333333333,4,2,1,75,0,1
83552,-83.3333333333333,4,2,1,80,0,1
83727,-125,4,2,1,70,0,0

[Colours]
Combo1 : 128,255,255
Combo2 : 255,205,181
Combo3 : 128,128,255
Combo4 : 255,128,255

[HitObjects]
47,187,920,6,0,B|104:188|129:131|129:131|257:177,1,240,2|2,2:2|2:2,0:0:0:0:
375,228,2324,6,0,P|395:172|366:115,1,120,2|2,2:2|2:2,0:0:0:0:
155,231,3376,2,0,L|209:216,1,40,2|0,2:2|0:0,0:0:0:0:
322,354,3727,6,0,L|192:328,1,120,2|2,2:2|2:2,0:0:0:0:
280,248,4429,2,0,L|367:231,1,80,2|2,2:2|2:2,0:0:0:0:
309,42,5131,6,0,P|256:90|279:169,1,160,2|2,2:2|2:2,0:0:0:0:
411,267,6183,1,2,2:2:0:0:
277,306,6359,5,0,1:1:0:0:
277,306,6446,1,0,1:1:0:0:
277,306,6534,1,12,2:2:0:0:
277,306,6885,5,0,3:3:0:0:
188,235,7060,1,0,3:3:0:0:
337,216,7236,5,2,1:2:0:0:
182,338,7411,1,0,3:3:0:0:
250,161,7587,1,0,1:1:0:0:
356,305,7762,1,0,3:3:0:0:
121,268,7938,5,2,1:2:0:0:
170,115,8113,1,0,3:3:0:0:
121,268,8288,1,0,1:1:0:0:
170,115,8464,1,0,3:3:0:0:
232,202,8639,5,2,1:2:0:0:
70,140,8814,1,0,3:3:0:0:
232,202,8989,1,0,1:1:0:0:
70,140,9165,1,0,3:3:0:0:
130,275,9341,5,0,3:3:0:0:
130,275,9516,1,0,3:3:0:0:
216,141,9692,1,0,3:3:0:0:
216,141,9867,1,8,2:2:0:0:
106,58,10043,5,8,2:2:0:0:
106,58,10218,1,8,2:2:0:0:
196,230,10394,1,8,2:2:0:0:
196,230,10569,1,8,2:2:0:0:
297,123,10745,5,8,2:2:0:0:
88,226,10920,1,8,2:2:0:0:
287,295,11095,1,8,2:2:0:0:
170,113,11271,1,8,2:2:0:0:
59,336,11446,6,0,P|110:322|169:312,1,111.999996582031,2|2,2:2|2:2,0:0:0:0:
228,163,12148,6,0,B|168:138|153:200|79:176,1,143.999995605469,4|8,1:2|2:2,0:0:0:0:
295,79,12674,2,0,P|332:84|365:92,1,71.9999978027344,2|0,2:2|1:1,0:0:0:0:
399,270,13025,1,2,1:2:0:0:
199,253,13201,2,0,P|236:242|283:232,1,71.9999978027344,10|0,2:2|0:0,0:0:0:0:
504,168,13552,6,0,P|428:198|371:164,1,143.999995605469,2|8,1:2|2:2,0:0:0:0:
234,59,14078,2,0,P|242:104|256:155,1,71.9999978027344,2|0,2:2|1:1,0:0:0:0:
317,232,14429,1,2,1:2:0:0:
409,98,14604,2,0,P|415:63|421:7,1,71.9999978027344,10|0,2:2|0:0,0:0:0:0:
224,197,14955,6,0,P|162:169|79:194,1,143.999995605469,2|8,1:2|2:2,0:0:0:0:
69,291,15481,2,0,P|77:328|99:368,1,71.9999978027344,2|0,2:2|1:1,0:0:0:0:
237,277,15832,1,2,1:2:0:0:
94,102,16008,1,10,2:2:0:0:
237,277,16183,1,0,0:0:0:0:
360,184,16359,6,0,L|211:159,1,143.999995605469,2|8,1:2|2:2,0:0:0:0:
425,57,16885,2,0,P|437:97|439:132,1,71.9999978027344,2|0,2:2|1:1,0:0:0:0:
310,247,17236,1,2,1:2:0:0:
246,127,17411,2,0,P|281:116|326:112,1,71.9999978027344,10|0,2:2|0:0,0:0:0:0:
512,222,17762,6,0,P|460:264|384:246,1,143.999995605469,2|8,1:2|2:2,0:0:0:0:
264,196,18288,2,0,P|250:161|245:124,1,71.9999978027344,2|0,2:2|1:1,0:0:0:0:
327,34,18639,1,2,1:2:0:0:
432,173,18815,2,0,P|392:171|332:158,1,71.9999978027344,10|0,2:2|0:0,0:0:0:0:
158,40,19166,6,0,P|138:124|196:164,1,143.999995605469,2|8,1:2|2:2,0:0:0:0:
318,280,19692,2,0,P|284:267|228:264,1,71.9999978027344,2|0,2:2|1:1,0:0:0:0:
100,211,20043,1,2,1:2:0:0:
271,100,20218,2,0,P|268:141|259:183,1,71.9999978027344,10|0,2:2|0:0,0:0:0:0:
85,358,20569,6,0,P|155:326|227:344,1,143.999995605469,2|8,1:2|2:2,0:0:0:0:
324,320,21095,1,2,2:2:0:0:
324,320,21271,2,0,P|335:281|343:230,1,71.9999978027344,0|2,1:1|1:2,0:0:0:0:
173,144,21622,2,0,P|180:184|187:214,1,71.9999978027344,10|2,2:2|2:2,0:0:0:0:
377,167,21973,6,0,P|337:157|286:151,1,71.9999978027344,2|0,1:2|0:0,0:0:0:0:
226,86,22324,2,0,P|303:46|352:68,1,143.999995605469,8|0,2:2|1:1,0:0:0:0:
116,52,22850,1,2,1:2:0:0:
116,52,23025,2,0,P|129:92|140:151,1,71.9999978027344,10|0,2:2|0:0,0:0:0:0:
247,227,23376,6,0,B|307:202|322:264|396:240,1,143.999995605469,4|8,1:2|2:2,0:0:0:0:
206,340,23902,2,0,P|166:328|107:323,1,71.9999978027344,2|0,2:2|1:1,0:0:0:0:
46,244,24253,1,2,1:2:0:0:
178,117,24429,2,0,P|187:152|191:188,1,71.9999978027344,10|0,2:2|0:0,0:0:0:0:
310,256,24780,6,0,P|378:268|445:224,1,143.999995605469,2|8,1:2|2:2,0:0:0:0:
391,77,25306,1,2,1:2:0:0:
258,143,25481,2,0,P|293:148|329:151,1,71.9999978027344,2|0,2:2|1:1,0:0:0:0:
436,306,25832,2,0,P|402:293|352:288,1,71.9999978027344,10|0,2:2|0:0,0:0:0:0:
161,255,26183,6,0,P|239:262|300:210,1,143.999995605469,2|8,1:2|2:2,0:0:0:0:
375,74,26709,2,0,P|372:114|363:154,1,71.9999978027344,2|0,2:2|1:1,0:0:0:0:
217,185,27060,1,2,1:2:0:0:
134,82,27236,2,0,P|170:86|212:97,1,71.9999978027344,10|0,2:2|0:0,0:0:0:0:
45,209,27587,6,0,P|26:146|21:63,1,143.999995605469,2|8,1:2|2:2,0:0:0:0:
197,168,28113,2,0,P|164:185|115:198,1,71.9999978027344,2|0,2:2|1:1,0:0:0:0:
11,296,28464,1,2,1:2:0:0:
109,367,28639,2,0,P|117:331|123:285,1,71.9999978027344,10|0,2:2|0:0,0:0:0:0:
280,274,28990,6,0,P|352:283|422:301,1,143.999995605469,2|8,1:2|2:2,0:0:0:0:
332,127,29516,2,0,P|345:163|352:204,1,71.9999978027344,2|0,2:2|1:1,0:0:0:0:
201,374,29867,1,2,1:2:0:0:
103,198,30042,1,10,2:2:0:0:
274,194,30218,1,0,0:0:0:0:
141,294,30394,6,0,P|69:283|-1:267,1,143.999995605469,2|8,1:2|2:2,0:0:0:0:
206,125,30920,2,0,P|199:164|185:195,1,71.9999978027344,2|0,2:2|1:1,0:0:0:0:
126,364,31271,1,2,1:2:0:0:
57,194,31446,1,10,2:2:0:0:
126,364,31622,1,0,0:0:0:0:
196,247,31797,6,0,P|182:215|174:180,1,71.9999978027344,2|0,1:2|0:0,0:0:0:0:
313,85,32148,2,0,P|304:120|289:152,1,71.9999978027344,8|2,2:2|2:2,0:0:0:0:
287,328,32499,1,0,1:1:0:0:
96,235,32674,1,2,1:2:0:0:
186,109,32850,2,0,P|183:153|161:205,1,71.9999978027344,10|2,2:2|2:2,0:0:0:0:
46,348,33201,6,0,P|109:316|189:331,1,143.999995605469,2|8,1:2|2:2,0:0:0:0:
302,277,33727,1,8,0:2:0:0:
302,277,33815,1,8,2:2:0:0:
302,277,33902,2,0,L|244:259,1,35.9999989013672,8|0,2:2|3:0,0:0:0:0:
178,206,34078,2,0,L|234:187,1,35.9999989013672,0|0,1:1|0:0,0:0:0:0:
323,49,34253,6,0,L|306:188,1,132.00000402832,8|0,2:2|0:0,0:0:0:0:
432,330,34604,6,0,P|457:276|362:224,1,160,4|2,1:2|1:2,0:0:0:0:
111,280,35131,2,0,P|187:264|283:253,1,160,10|0,2:2|1:1,0:0:0:0:
504,148,35657,2,0,P|446:95|368:123,1,160,14|2,2:2|2:2,0:0:0:0:
212,183,36183,5,12,2:2:0:0:
324,384,36359,1,2,1:2:0:0:
410,237,36534,1,0,1:1:0:0:
222,308,36709,2,0,P|183:306|145:294,1,80,10|2,2:2|1:2,0:0:0:0:
245,205,37060,2,0,P|284:195|324:191,1,80,10|0,2:2|1:1,0:0:0:0:
433,321,37411,6,0,P|448:256|454:160,1,160,4|10,1:2|2:2,0:0:0:0:
385,81,37938,1,2,2:2:0:0:
279,247,38113,2,0,P|321:246|379:229,1,80,2|0,1:2|1:1,0:0:0:0:
274,82,38464,2,0,P|275:124|292:182,1,80,10|0,2:2|0:0,0:0:0:0:
237,331,38815,6,0,P|164:300|68:345,1,160,2|8,1:2|2:2,0:0:0:0:
0,238,39341,1,2,2:2:0:0:
190,130,39516,2,0,P|188:172|178:229,1,80,2|0,1:2|1:1,0:0:0:0:
36,70,39867,2,0,P|73:58|115:55,1,80,8|0,2:2|0:0,0:0:0:0:
262,195,40218,6,0,B|301:172|382:244|414:226,1,160,4|2,1:2|1:2,0:0:0:0:
465,141,40745,1,10,2:2:0:0:
334,29,40920,2,0,P|341:73|353:126,1,80,2|0,2:2|1:1,0:0:0:0:
405,211,41271,2,0,P|418:173|430:135,1,80,14|0,2:2|0:0,0:0:0:0:
174,217,41622,5,2,2:2:0:0:
272,381,41797,1,12,2:2:0:0:
340,181,41973,1,2,1:2:0:0:
166,325,42148,1,0,1:1:0:0:
373,367,42324,2,0,P|413:360|460:340,1,80,10|2,2:2|1:2,0:0:0:0:
300,264,42674,2,0,P|259:255|208:250,1,80,10|0,2:2|1:1,0:0:0:0:
404,91,43025,6,0,P|435:165|403:236,1,160,4|10,1:2|2:2,0:0:0:0:
217,149,43552,1,2,2:2:0:0:
217,149,43727,2,0,P|178:143|132:132,1,80,2|0,1:2|1:1,0:0:0:0:
282,53,44078,2,0,P|321:47|367:36,1,80,10|0,2:2|0:0,0:0:0:0:
478,116,44429,6,0,P|422:167|346:151,1,160,2|8,1:2|2:2,0:0:0:0:
226,120,44955,2,0,P|186:115|148:132,1,80,2|2,2:2|1:2,0:0:0:0:
112,370,45306,5,8,2:2:0:0:
142,362,45393,1,8,2:2:0:0:
168,343,45481,1,8,2:2:0:0:
184,315,45569,1,8,2:2:0:0:
188,284,45656,1,0,3:3:0:0:
179,253,45744,1,0,3:3:0:0:
161,234,45832,6,0,L|58:210,1,88.000002685547,4|0,1:2|1:1,0:0:0:0:
191,115,46183,1,10,2:2:0:0:
312,266,46359,1,2,1:2:0:0:
122,58,46534,2,0,P|164:38|221:26,1,88.000002685547,2|0,1:2|1:1,0:0:0:0:
354,176,46885,2,0,P|312:155|255:143,1,88.000002685547,10|0,2:2|0:0,0:0:0:0:
508,143,47236,5,2,1:2:0:0:
360,312,47411,1,0,1:1:0:0:
342,75,47587,1,10,2:2:0:0:
506,245,47762,1,2,1:2:0:0:
248,250,47938,2,0,L|357:225,1,88.000002685547,2|0,1:2|1:1,0:0:0:0:
410,161,48288,2,0,L|301:136,1,88.000002685547,10|0,2:2|0:0,0:0:0:0:
164,160,48639,5,2,1:2:0:0:
335,51,48815,1,0,1:1:0:0:
264,250,48990,1,10,2:2:0:0:
177,51,49166,1,2,1:2:0:0:
350,154,49341,2,0,P|397:137|443:130,1,88.000002685547,2|0,1:2|1:1,0:0:0:0:
503,264,49692,2,0,P|456:247|410:240,1,88.000002685547,10|0,2:2|0:0,0:0:0:0:
263,116,50043,6,0,P|246:76|241:24,1,88.000002685547,2|0,1:2|1:1,0:0:0:0:
304,332,50394,1,8,2:2:0:0:
124,205,50569,1,2,1:2:0:0:
394,180,50745,2,0,P|351:189|307:193,1,88.000002685547,2|0,1:2|1:1,0:0:0:0:
216,142,51095,2,0,P|175:121|132:114,1,88.000002685547,8|0,2:2|0:0,0:0:0:0:
37,339,51446,6,0,P|76:319|137:306,1,88.000002685547,2|0,1:2|1:1,0:0:0:0:
242,213,51797,1,10,2:2:0:0:
47,140,51973,1,2,1:2:0:0:
220,361,52148,2,0,P|208:318|188:279,1,88.000002685547,2|0,1:2|1:1,0:0:0:0:
166,118,52499,2,0,P|145:157|134:199,1,88.000002685547,10|0,2:2|0:0,0:0:0:0:
278,222,52850,6,0,P|326:222|379:205,1,88.000002685547,2|0,1:2|1:1,0:0:0:0:
244,50,53201,1,10,2:2:0:0:
61,205,53376,1,2,1:2:0:0:
185,320,53552,2,0,P|174:277|157:236,1,88.000002685547,2|0,1:2|1:1,0:0:0:0:
167,59,53902,1,10,2:2:0:0:
374,139,54078,5,0,1:1:0:0:
374,139,54166,1,0,1:1:0:0:
374,139,54253,2,0,P|330:126|285:119,1,88.000002685547,12|0,2:2|1:1,0:0:0:0:
146,139,54604,1,2,2:2:0:0:
321,230,54780,1,2,1:2:0:0:
194,364,54955,2,0,P|202:322|217:270,1,88.000002685547,14|0,2:2|1:1,0:0:0:0:
257,148,55306,5,2,2:2:0:0:
366,305,55481,1,0,1:1:0:0:
132,267,55657,5,10,2:2:0:0:
235,45,55832,1,0,1:1:0:0:
361,203,56008,5,12,2:2:0:0:
100,93,56183,1,2,3:2:0:0:
0,236,56359,5,10,2:2:0:0:
37,222,56446,1,8,2:2:0:0:
75,232,56534,1,8,2:2:0:0:
101,261,56622,1,8,2:2:0:0:
108,291,56709,2,0,L|161:281,1,44.0000013427735,8|8,2:2|2:2,0:0:0:0:
264,227,56885,2,0,L|213:214,1,44.0000013427735,8|8,2:2|2:2,0:0:0:0:
254,380,57060,6,0,P|305:333|387:339,1,143.999995605469,4|0,1:2|0:0,0:0:0:0:
450,372,57411,2,0,P|458:324|471:278,1,95.9999970703126,10|2,2:2|2:2,0:0:0:0:
344,133,57762,2,0,P|355:179|361:227,1,95.9999970703126,0|2,1:1|1:2,0:0:0:0:
435,33,58113,1,10,2:2:0:0:
225,30,58288,5,2,0:0:0:0:
225,30,58376,1,2,0:0:0:0:
225,30,58464,2,0,P|237:96|250:184,1,143.999995605469,2|0,1:2|0:0,0:0:0:0:
223,243,58815,1,10,2:2:0:0:
51,181,58990,2,0,P|88:154|159:164,1,95.9999970703126,2|0,2:2|1:1,0:0:0:0:
439,192,59341,1,2,1:2:0:0:
374,114,59516,2,0,P|364:163|358:211,1,95.9999970703126,10|0,2:2|0:0,0:0:0:0:
194,22,59867,6,0,P|206:93|221:163,1,143.999995605469,2|0,1:2|0:0,0:0:0:0:
264,257,60218,1,10,2:2:0:0:
395,85,60394,2,0,P|348:72|277:62,1,95.9999970703126,2|0,2:2|1:1,0:0:0:0:
143,289,60745,1,2,1:2:0:0:
315,158,60920,1,10,2:2:0:0:
123,67,61095,1,0,0:0:0:0:
269,289,61271,6,0,L|421:260,1,143.999995605469,2|0,1:2|0:0,0:0:0:0:
468,183,61622,1,10,2:2:0:0:
260,41,61797,2,0,P|250:93|246:142,1,95.9999970703126,2|0,2:2|1:1,0:0:0:0:
199,370,62148,1,2,1:2:0:0:
131,106,62324,2,0,P|135:153|145:207,1,95.9999970703126,10|2,2:2|2:2,0:0:0:0:
5,343,62674,6,0,P|67:295|151:321,1,143.999995605469,4|0,1:2|0:0,0:0:0:0:
214,278,63025,1,10,2:2:0:0:
291,375,63201,2,0,L|190:357,1,95.9999970703126,2|0,2:2|1:1,0:0:0:0:
73,125,63552,1,2,1:2:0:0:
268,220,63727,1,10,2:2:0:0:
66,342,63902,1,0,0:0:0:0:
153,33,64078,6,0,P|204:89|177:161,1,143.999995605469,2|0,1:2|0:0,0:0:0:0:
139,233,64429,1,10,2:2:0:0:
374,272,64604,2,0,P|326:263|278:244,1,95.9999970703126,2|0,2:2|1:1,0:0:0:0:
112,111,64955,1,2,1:2:0:0:
293,69,65131,2,0,P|286:120|267:186,1,95.9999970703126,10|0,2:2|0:0,0:0:0:0:
159,367,65481,6,0,P|209:352|268:342,1,95.9999970703126,2|0,1:2|1:1,0:0:0:0:
367,204,65832,2,0,P|323:191|258:179,1,95.9999970703126,10|2,2:2|3:2,0:0:0:0:
204,102,66095,1,8,2:2:0:0:
204,102,66183,1,0,1:1:0:0:
158,198,66359,5,2,1:2:0:0:
353,66,66534,1,10,2:2:0:0:
158,198,66709,1,0,1:1:0:0:
370,341,66885,5,2,1:2:0:0:
477,139,67060,1,0,1:1:0:0:
265,229,67236,1,8,2:2:0:0:
440,272,67411,1,0,3:3:0:0:
440,272,67499,1,8,2:2:0:0:
440,272,67587,2,0,L|527:249,1,47.9999985351563,8|8,0:2|0:0,0:0:0:0:
379,168,67762,2,0,L|332:155,1,47.9999985351563,2|0,1:2|0:0,0:0:0:0:
197,370,67938,6,0,P|266:327|235:238,1,180.000006866455,14|0,2:2|0:0,0:0:0:0:
109,83,68288,6,0,P|123:130|134:210,1,95.9999970703126,4|0,1:2|0:0,0:0:0:0:
79,359,68639,1,10,2:2:0:0:
305,171,68815,2,0,P|256:154|185:139,1,95.9999970703126,2|0,2:2|1:1,0:0:0:0:
34,184,69166,1,2,1:2:0:0:
249,53,69341,1,10,2:2:0:0:
203,284,69516,1,0,0:0:0:0:
82,84,69692,6,0,P|103:131|118:178,1,95.9999970703126,2|0,1:2|0:0,0:0:0:0:
60,357,70043,1,10,2:2:0:0:
376,334,70218,2,0,P|330:330|267:314,1,95.9999970703126,2|0,2:2|1:1,0:0:0:0:
88,239,70569,1,2,1:2:0:0:
318,195,70745,1,10,2:2:0:0:
200,383,70920,1,0,0:0:0:0:
242,24,71095,6,0,P|247:94|234:169,1,143.999995605469,2|0,1:2|0:0,0:0:0:0:
177,258,71446,1,10,2:2:0:0:
370,276,71622,2,0,P|327:259|268:246,1,95.9999970703126,2|0,2:2|1:1,0:0:0:0:
102,184,71973,1,2,1:2:0:0:
341,154,72148,1,10,2:2:0:0:
245,358,72324,1,0,0:0:0:0:
198,37,72499,6,0,P|214:87|221:147,1,95.9999970703126,2|0,1:2|0:0,0:0:0:0:
105,362,72850,1,10,2:2:0:0:
12,205,73025,1,2,1:2:0:0:
191,282,73201,5,8,2:2:0:0:
213,251,73288,1,0,3:3:0:0:
247,234,73376,1,2,3:2:0:0:
285,238,73464,1,0,3:3:0:0:
318,248,73552,6,0,L|390:232,1,44.0000013427735,14|0,2:2|0:0,0:0:0:0:
94,130,73902,6,0,P|82:82|60:18,1,95.9999970703126,4|0,1:2|1:1,0:0:0:0:
265,314,74253,5,10,2:2:0:0:
360,158,74429,1,2,1:2:0:0:
36,238,74604,5,8,2:2:0:0:
137,383,74780,1,2,1:2:0:0:
270,123,74955,5,10,2:2:0:0:
154,271,75131,1,0,1:1:0:0:
433,384,75306,6,0,P|425:337|405:276,1,95.9999970703126,14|0,2:2|1:1,0:0:0:0:
325,45,75657,5,10,2:2:0:0:
272,251,75832,1,2,1:2:0:0:
463,198,76008,5,8,2:2:0:0:
228,140,76183,1,2,1:2:0:0:
347,312,76359,5,10,2:2:0:0:
470,115,76534,1,0,1:1:0:0:
263,234,76709,6,0,P|217:223|171:210,1,95.9999970703126,12|0,2:2|1:1,0:0:0:0:
394,181,77060,1,10,2:2:0:0:
192,64,77236,1,2,1:2:0:0:
394,181,77411,1,8,2:2:0:0:
192,64,77586,1,2,1:2:0:0:
106,261,77762,5,10,2:2:0:0:
316,136,77938,1,0,1:1:0:0:
238,370,78113,6,0,P|230:317|209:249,1,95.9999970703126,14|0,2:2|1:1,0:0:0:0:
88,157,78464,1,10,2:2:0:0:
321,238,78639,1,2,1:2:0:0:
88,157,78815,1,8,2:2:0:0:
321,238,78990,1,0,1:1:0:0:
212,63,79166,6,0,L|280:48,1,47.9999985351563,10|8,2:2|2:2,0:0:0:0:
305,121,79341,2,0,L|352:131,1,47.9999985351563,10|8,2:2|2:2,0:0:0:0:
422,64,79516,1,4,1:2:0:0:
422,64,79867,1,0,1:1:0:0:
222,245,80218,5,8,2:2:0:0:
349,180,80569,1,0,1:1:0:0:
476,242,80745,2,0,P|441:257|386:267,1,80,14|2,2:2|1:2,0:0:0:0:
351,335,81095,2,0,P|273:319|196:382,1,160,10|2,2:2|3:2,0:0:0:0:
108,359,81622,1,14,2:2:0:0:
240,161,81973,5,10,2:2:0:0:
260,194,82060,1,8,2:2:0:0:
259,233,82148,1,8,2:2:0:0:
237,266,82236,1,8,2:2:0:0:
206,279,82324,1,4,1:2:0:0:
3,163,82674,5,8,2:2:0:0:
171,77,82850,1,8,2:2:0:0:
104,227,83025,1,8,2:2:0:0:
0,66,83201,1,8,2:2:0:0:
249,151,83376,6,0,L|183:180,2,47.9999985351563,8|8|8,1:2|3:0|1:2,0:0:0:0:
394,247,83727,6,0,P|332:235|268:228,1,128,10|2,2:2|2:2,0:0:0:0:
