osu file format v14

[General]
AudioFilename: vbr Believe in yourself (TV Ver.).mp3
AudioLeadIn: 0
PreviewTime: 963
Countdown: 1
SampleSet: Soft
StackLeniency: 0.7
Mode: 0
LetterboxInBreaks: 1
WidescreenStoryboard: 1

[Editor]
DistanceSpacing: 1
BeatDivisor: 4
GridSize: 4
TimelineZoom: 1

[Metadata]
Title:Believe in yourself (TV Size)
TitleUnicode:Believe in yourself (TV Size)
Artist:Abe Mao
ArtistUnicode:阿部 真央
Creator:greenwood0301
Version:Normal
Source:ベイビーステップ
Tags:baby steps opening iHatePeople My Angel Mir Oppajime あべま Virtue- -AsrieLx-
BeatmapID:1015126
BeatmapSetID:356923

[Difficulty]
HPDrainRate:4
CircleSize:3
OverallDifficulty:4
ApproachRate:5
SliderMultiplier:1
SliderTickRate:1

[Events]
//Background and Video events
Video,0,"Opening.avi"
0,0,"baby 3.jpg",0,0
//Break Periods
//Storyboard Layer 0 (Background)
//Storyboard Layer 1 (Fail)
//Storyboard Layer 2 (Pass)
//Storyboard Layer 3 (Foreground)
//Storyboard Sound Samples

[TimingPoints]
964,350.877192982456,4,2,0,100,1,0
965,-100,4,2,0,40,0,0
6314,-100,4,1,0,60,0,0
11402,-100,4,2,0,50,0,0
11928,-100,4,2,0,40,0,0
22016,-100,4,1,0,50,0,0
23069,-100,4,2,0,40,0,0
31841,-100,4,1,0,55,0,0
34297,-100,4,2,0,50,0,0
36753,-100,4,1,0,55,0,0
37104,-100,4,2,0,50,0,0
49385,-100,4,1,0,55,0,0
49735,-100,4,2,0,50,0,0
52893,-100,4,1,0,55,0,0
57104,-100,4,2,0,70,0,1
67630,-100,4,1,0,70,0,1
67981,-100,4,2,0,70,0,1
73946,-100,4,1,0,70,0,1
79560,-100,4,2,0,70,0,1
82718,-100,4,1,0,100,0,1
83771,-100,4,2,0,100,0,0

[Colours]
Combo1 : 249,187,0
Combo2 : 65,148,37
Combo3 : 129,89,46
Combo4 : 218,3,202

[HitObjects]
90,187,964,6,2,P|110:96|224:57,1,200
288,100,2016,1,0,0:0:0:0:
388,120,2367,2,2,P|346:191|228:161,1,200
164,242,3420,5,0,0:0:0:0:
239,307,3771,2,2,P|331:287|386:364,1,200
453,290,4823,1,0,0:0:0:0:
434,191,5174,6,2,P|326:136|354:62,1,200
237,78,6227,1,0,0:0:0:0:
256,192,6578,12,0,8683,0:0:0:0:
91,163,9385,6,0,P|120:112|160:96,1,100
256,96,10086,1,0,0:0:0:0:
337,153,10437,1,0,0:0:0:0:
256,192,10788,1,0,0:0:0:0:
337,249,11139,1,0,0:0:0:0:
273,317,11490,2,2,P|229:314|165:307,1,100
105,234,12192,5,8,0:0:0:0:
124,139,12542,2,0,P|167:85|199:71,1,100,0|8,0:0|0:0,0:0:0:0:
281,116,13244,1,0,0:0:0:0:
357,180,13595,5,8,0:0:0:0:
381,276,13946,2,0,P|332:276|279:252,1,100,0|8,0:0|0:0,0:0:0:0:
188,231,14648,1,0,0:0:0:0:
91,248,14999,6,8,P|75:213|99:152,1,100,8|0,0:0|0:0,0:0:0:0:
179,105,15700,1,8,0:0:0:0:
272,141,16051,1,0,0:0:0:0:
365,183,16402,6,0,P|353:226|314:269,1,100,8|0,0:0|0:0,0:0:0:0:
223,231,17104,1,8,0:0:0:0:
272,141,17455,1,0,0:0:0:0:
207,64,17806,6,0,P|165:38|115:39,1,100,8|0,0:0|0:0,0:0:0:0:
79,133,18507,1,8,0:0:0:0:
138,221,18858,1,0,0:0:0:0:
224,171,19209,6,0,P|259:123|313:120,1,100,8|0,0:0|0:0,0:0:0:0:
306,215,19911,2,0,P|325:252|383:277,1,100,8|0,0:0|0:0,0:0:0:0:
456,216,20613,6,0,P|442:181|388:148,1,100,8|0,0:0|0:0,0:0:0:0:
295,117,21314,1,8,0:0:0:0:
198,143,21665,1,0,0:0:0:0:
105,183,22016,5,0,0:0:0:0:
142,275,22367,1,0,0:0:0:0:
241,271,22718,1,0,0:0:0:0:
281,241,22893,1,0,0:0:0:0:
303,196,23069,1,4,0:0:0:0:
204,179,23420,5,8,0:0:0:0:
104,175,23771,2,0,P|99:116|128:65,1,100,0|8,0:0|0:0,0:0:0:0:
209,47,24472,1,0,0:0:0:0:
260,132,24823,5,8,0:0:0:0:
330,61,25174,2,0,P|375:86|393:146,1,100,0|8,0:0|0:0,0:0:0:0:
326,194,25876,1,0,0:0:0:0:
365,286,26227,1,8,0:0:0:0:
265,282,26578,6,0,P|217:257|200:205,1,100,0|8,0:0|0:0,0:0:0:0:
234,124,27279,1,0,0:0:0:0:
161,52,27630,6,0,P|101:42|52:53,1,100,8|0,0:0|0:0,0:0:0:0:
67,148,28332,2,0,P|127:158|176:147,1,100,8|0,0:0|0:0,0:0:0:0:
259,116,29034,5,8,0:0:0:0:
321,37,29385,2,0,P|386:22|431:43,1,100,0|8,0:0|0:0,0:0:0:0:
419,132,30086,1,0,0:0:0:0:
317,134,30437,5,8,0:0:0:0:
361,222,30788,2,0,P|295:229|240:226,1,100,0|8,0:0|0:0,0:0:0:0:
171,183,31490,1,0,0:0:0:0:
84,232,31841,5,0,0:0:0:0:
81,332,32192,2,8,P|136:320|180:277,1,100,0|0,0:0|0:0,0:0:0:0:
268,281,32893,1,0,0:0:0:0:
227,189,33244,5,0,0:0:0:0:
187,97,33595,2,0,L|139:72,2,50
271,57,34297,1,4,0:0:0:0:
367,83,34648,6,0,P|415:101|452:155,1,100,8|0,0:0|0:0,0:0:0:0:
353,189,35349,1,0,0:0:0:0:
257,160,35700,1,8,0:0:0:0:
250,259,36051,6,0,B|197:265|197:265|157:296,1,100
64,288,36753,1,0,0:0:0:0:
68,238,36928,1,0,0:0:0:0:
78,188,37104,1,4,0:0:0:0:
118,96,37455,6,0,P|177:94|236:92,1,100,8|0,0:0|0:0,0:0:0:0:
258,183,38156,2,0,L|316:182,2,50,8|0|0,0:0|0:0|0:0,0:0:0:0:
202,276,38858,5,8,0:0:0:0:
111,232,39209,2,0,P|113:166|116:113,1,100,0|8,0:0|0:0,0:0:0:0:
171,49,39911,1,0,0:0:0:0:
269,43,40262,6,2,P|316:69|348:127,1,100,10|2,0:0|0:0,0:0:0:0:
440,120,40963,2,2,P|455:171|438:235,1,100,10|2,0:0|0:0,0:0:0:0:
504,287,41665,2,2,P|470:328|407:350,1,100,10|2,0:0|0:0,0:0:0:0:
352,282,42367,1,8,0:0:0:0:
252,273,42718,1,0,0:0:0:0:
206,193,43069,6,8,P|255:155|298:122,1,100,8|0,0:0|0:0,0:0:0:0:
394,140,43771,1,8,0:0:0:0:
346,227,44121,1,0,0:0:0:0:
257,273,44472,6,8,P|188:265|162:225,1,100
164,144,45174,2,0,L|94:51,2,100,8|8|8,0:0|0:0|0:0,0:0:0:0:
38,144,46227,5,8,0:0:0:0:
42,243,46578,1,0,0:0:0:0:
118,306,46928,2,0,P|162:327|211:338,1,100,8|0,0:0|0:0,0:0:0:0:
250,246,47630,5,8,0:0:0:0:
171,183,47981,1,0,0:0:0:0:
184,83,48332,1,8,0:0:0:0:
282,63,48683,6,0,P|351:72|373:112,1,100,0|8,0:0|0:0,0:0:0:0:
382,191,49385,1,0,0:0:0:0:
367,238,49560,1,0,0:0:0:0:
331,272,49735,1,4,0:0:0:0:
254,336,50086,6,8,P|188:334|137:338,1,100
152,235,50788,1,8,0:0:0:0:
74,171,51139,1,0,0:0:0:0:
119,82,51490,5,8,0:0:0:0:
213,48,51841,2,0,P|272:47|326:76,1,100,0|8,0:0|0:0,0:0:0:0:
323,163,52542,1,0,0:0:0:0:
319,262,52893,5,0,0:0:0:0:
219,262,53244,1,0,0:0:0:0:
217,161,53595,1,0,0:0:0:0:
217,60,53946,1,4,0:0:0:0:
316,49,54297,6,0,P|365:41|428:40,1,100
468,124,54999,1,0,0:0:0:0:
386,181,55349,2,0,P|387:224|387:288,1,100
294,294,56051,1,0,0:0:0:0:
280,245,56227,1,0,0:0:0:0:
261,198,56402,2,0,L|160:161,1,100
90,86,57104,5,8,0:0:0:0:
47,176,57455,1,0,0:0:0:0:
128,233,57806,2,0,L|149:182,2,50,8|0|0,0:0|0:0|0:0,0:0:0:0:
218,275,58507,5,8,0:0:0:0:
310,229,58858,2,0,P|325:276|354:316,1,100,0|8,0:0|0:0,0:0:0:0:
450,272,59560,1,0,0:0:0:0:
400,185,59911,5,8,0:0:0:0:
310,229,60262,1,0,0:0:0:0:
223,278,60613,2,8,P|151:259|132:224,1,100,8|0,0:0|0:0,0:0:0:0:
91,152,61314,5,8,0:0:0:0:
165,85,61665,2,0,P|248:52|277:54,1,100,0|8,0:0|0:0,0:0:0:0:
329,121,62367,1,0,0:0:0:0:
380,206,62718,6,0,P|359:242|286:262,1,100,8|0,0:0|0:0,0:0:0:0:
206,266,63420,1,8,0:0:0:0:
109,240,63771,2,0,P|96:194|130:138,1,100,0|8,0:0|0:0,0:0:0:0:
195,100,64472,6,0,P|227:65|296:73,1,100,0|8,0:0|0:0,0:0:0:0:
347,133,65174,1,0,0:0:0:0:
391,222,65525,6,0,P|348:243|277:241,1,100,8|0,0:0|0:0,0:0:0:0:
199,271,66227,1,8,0:0:0:0:
132,196,66578,1,0,0:0:0:0:
172,104,66928,6,8,P|219:63|272:70,1,100
348,95,67630,1,0,0:0:0:0:
325,140,67806,1,0,0:0:0:0:
344,185,67981,1,4,0:0:0:0:
375,280,68332,6,8,P|294:276|276:259,1,100,8|0,0:0|0:0,0:0:0:0:
310,170,69034,1,8,0:0:0:0:
408,154,69385,2,8,P|402:103|351:64,1,100,0|8,0:0|0:0,0:0:0:0:
268,62,70086,6,0,P|218:61|173:81,1,100,0|8,0:0|0:0,0:0:0:0:
228,164,70788,1,0,0:0:0:0:
284,246,71139,6,0,P|247:259|164:257,1,100,8|0,0:0|0:0,0:0:0:0:
116,189,71841,1,8,0:0:0:0:
183,115,72192,1,0,0:0:0:0:
268,62,72542,6,0,P|320:59|378:88,1,100,8|0,0:0|0:0,0:0:0:0:
403,168,73244,1,8,0:0:0:0:
340,246,73595,1,0,0:0:0:0:
251,291,73946,6,0,P|195:259|162:217,1,100
151,134,74648,2,8,P|214:83|248:77,1,100,0|0,0:0|0:0,0:0:0:0:
329,91,75349,5,0,0:0:0:0:
392,168,75700,2,0,P|371:202|310:221,1,100
231,192,76402,1,0,0:0:0:0:
131,202,76753,6,0,P|160:268|196:285,1,100
279,301,77455,1,0,0:0:0:0:
377,285,77806,2,0,P|421:265|446:222,1,100
398,134,78507,5,0,0:0:0:0:
322,68,78858,2,0,P|263:84|236:112,1,100
256,192,79560,12,0,80963,0:0:0:0:
105,280,81665,5,0,0:0:0:0:
49,196,82016,2,0,P|59:134|88:84,1,100
170,69,82718,5,0,0:0:0:0:
269,73,83069,1,0,0:0:0:0:
368,86,83420,2,0,P|380:137|368:191,1,100
293,239,84121,5,0,0:0:0:0:
193,233,84472,2,4,P|135:185|136:144,1,100
