osu file format v14

[General]
AudioFilename: vbr Believe in yourself (TV Ver.).mp3
AudioLeadIn: 0
PreviewTime: 963
Countdown: 1
SampleSet: Soft
StackLeniency: 0.7
Mode: 0
LetterboxInBreaks: 1
WidescreenStoryboard: 1

[Editor]
Bookmarks: 67981,73946
DistanceSpacing: 1.2
BeatDivisor: 4
GridSize: 32
TimelineZoom: 1.8

[Metadata]
Title:Believe in yourself (TV Size)
TitleUnicode:Believe in yourself (TV Size)
Artist:Abe Mao
ArtistUnicode:阿部 真央
Creator:greenwood0301
Version:Hard
Source:ベイビーステップ
Tags:baby steps opening iHatePeople My Angel Mir Oppajime あべま Virtue- -AsrieLx-
BeatmapID:785318
BeatmapSetID:356923

[Difficulty]
HPDrainRate:6
CircleSize:4
OverallDifficulty:7
ApproachRate:7
SliderMultiplier:1.50000000596046
SliderTickRate:1

[Events]
//Background and Video events
Video,0,"Opening.avi"
0,0,"baby 3.jpg",0,0
//Break Periods
//Storyboard Layer 0 (Background)
//Storyboard Layer 1 (Fail)
//Storyboard Layer 2 (Pass)
//Storyboard Layer 3 (Foreground)
//Storyboard Sound Samples

[TimingPoints]
964,350.877192982456,4,2,0,100,1,0
965,-100,4,2,0,40,0,0
6314,-100,4,1,0,60,0,0
11402,-133.333333333333,4,2,0,50,0,0
12104,-100,4,2,0,40,0,0
20437,-100,4,1,0,50,0,0
23212,-100,4,2,0,40,0,0
31578,-100,4,1,0,50,0,0
34440,-100,4,2,0,50,0,0
42949,-100,4,1,0,55,0,0
45788,-100,4,2,0,55,0,0
54034,-100,4,1,0,50,0,0
57104,-100,4,2,0,60,0,1
66841,-100,4,1,0,60,0,1
67981,-100,4,2,0,60,0,1
73858,-80,4,1,0,60,0,1
79560,-100,4,1,0,60,0,1
83771,-100,4,2,0,100,0,0

[Colours]
Combo1 : 249,187,0
Combo2 : 65,148,37
Combo3 : 129,89,46
Combo4 : 218,3,202

[HitObjects]
156,50,963,6,4,P|103:61|80:211,1,225.000000894069,0|6,0:0|0:0,0:0:0:0:
316,331,2016,1,10,0:0:0:0:
215,181,2367,2,0,P|253:132|399:163,1,225.000000894069,0|4,0:0|0:0,0:0:0:0:
180,322,3420,1,10,0:0:0:0:
61,186,3771,6,0,P|169:158|280:173,1,225.000000894069,0|4,0:0|0:0,0:0:0:0:
492,340,4823,1,10,0:0:0:0:
414,177,5174,2,0,P|418:126|281:61,1,225.000000894069,0|4,0:0|0:0,0:0:0:0:
177,308,6227,1,10,0:0:0:0:
357,308,6578,6,0,P|411:304|482:238,1,150.000000596046
422,173,7104,1,0,0:0:0:0:
418,79,7279,1,0,0:0:0:0:
323,81,7455,1,0,0:0:0:0:
321,175,7630,2,0,L|286:278,1,75.000000298023
231,337,7981,6,0,P|161:311|110:257,1,150.000000596046
100,169,8507,1,0,0:0:0:0:
159,101,8683,1,0,0:0:0:0:
213,172,8858,1,0,0:0:0:0:
266,99,9034,1,0,0:0:0:0:
337,153,9209,1,0,0:0:0:0:
409,214,9385,6,0,L|409:289,2,75.000000298023
320,213,9911,2,0,L|320:288,2,75.000000298023
233,216,10437,2,0,L|175:160,1,75.000000298023
93,84,10788,5,0,0:0:0:0:
58,167,10963,1,0,0:0:0:0:
67,256,11139,1,0,0:0:0:0:
116,330,11314,1,0,0:0:0:0:
212,331,11490,6,6,P|282:315|319:276,1,112.500004738569
268,92,12192,6,0,P|271:143|200:211,1,150.000000596046,0|8,0:0|0:0,0:0:0:0:
182,122,12718,2,0,L|155:44,1,75.000000298023
92,143,13069,2,0,L|65:65,1,75.000000298023,0|8,0:0|0:0,0:0:0:0:
0,133,13420,1,0,0:0:0:0:
32,247,13595,6,0,P|103:282|181:262,1,150.000000596046,0|8,0:0|0:0,0:0:0:0:
249,227,14121,2,0,L|316:162,1,75.000000298023
417,164,14472,2,0,L|363:216,1,75.000000298023,0|8,0:0|0:0,0:0:0:0:
313,291,14823,1,0,0:0:0:0:
190,289,14999,6,0,L|190:132,1,150.000000596046,0|8,0:0|0:0,0:0:0:0:
267,92,15525,2,0,L|350:59,1,75.000000298023
432,130,15876,2,0,L|470:196,1,75.000000298023,0|8,0:0|0:0,0:0:0:0:
441,280,16227,1,0,0:0:0:0:
305,288,16402,6,0,P|262:305|149:277,1,150.000000596046,0|8,0:0|0:0,0:0:0:0:
222,218,16928,2,0,L|308:196,1,75.000000298023
199,138,17279,2,0,L|126:156,1,75.000000298023,0|8,0:0|0:0,0:0:0:0:
63,221,17630,1,0,0:0:0:0:
127,323,17806,6,0,L|284:323,1,150.000000596046,0|8,0:0|0:0,0:0:0:0:
367,323,18332,2,0,L|366:242,1,75.000000298023
449,324,18683,2,0,L|448:243,1,75.000000298023,0|8,0:0|0:0,0:0:0:0:
462,159,19034,1,0,0:0:0:0:
379,72,19209,6,0,P|332:53|232:64,1,150.000000596046,0|8,0:0|0:0,0:0:0:0:
297,127,19735,2,0,L|374:162,1,75.000000298023
270,197,20086,2,0,L|201:165,1,75.000000298023,0|8,0:0|0:0,0:0:0:0:
119,46,20613,6,0,P|71:79|67:182,1,150.000000596046
224,352,21314,5,8,0:0:0:0:
224,224,21490,1,0,0:0:0:0:
115,289,21665,1,8,0:0:0:0:
292,349,22016,6,0,P|340:316|344:213,1,150.000000596046
288,32,22718,5,8,0:0:0:0:
288,160,22893,1,0,0:0:0:0:
399,97,23069,1,8,0:0:0:0:
485,224,23420,6,0,P|438:268|346:280,1,150.000000596046,0|8,0:0|0:0,0:0:0:0:
382,195,23946,2,0,L|282:216,1,75.000000298023
368,114,24297,2,0,L|470:96,1,75.000000298023,0|8,0:0|0:0,0:0:0:0:
418,13,24648,1,0,0:0:0:0:
295,31,24823,6,0,P|278:90|187:93,1,150.000000596046,0|8,0:0|0:0,0:0:0:0:
108,100,25349,2,0,L|108:179,1,75.000000298023
37,101,25700,2,0,L|37:180,1,75.000000298023,0|8,0:0|0:0,0:0:0:0:
34,267,26051,1,0,0:0:0:0:
160,352,26227,6,0,P|135:315|172:219,1,150.000000596046,0|8,0:0|0:0,0:0:0:0:
177,146,26753,2,0,L|286:145,1,75.000000298023
174,74,27104,2,0,L|99:74,1,75.000000298023,0|8,0:0|0:0,0:0:0:0:
40,148,27455,1,0,0:0:0:0:
32,256,27630,6,0,P|32:320|128:352,1,150.000000596046,0|8,0:0|0:0,0:0:0:0:
158,288,28156,2,0,L|106:223,1,75.000000298023
217,245,28507,2,0,L|263:303,1,75.000000298023,0|8,0:0|0:0,0:0:0:0:
353,322,28858,1,0,0:0:0:0:
388,220,29034,6,0,P|322:208|241:139,1,150.000000596046,0|8,0:0|0:0,0:0:0:0:
256,69,29560,2,0,L|178:69,1,75.000000298023
261,0,29911,2,0,L|336:0,1,75.000000298023,0|8,0:0|0:0,0:0:0:0:
404,60,30262,1,0,0:0:0:0:
441,159,30437,6,0,P|462:228|413:290,1,150.000000596046,0|8,0:0|0:0,0:0:0:0:
371,211,30963,2,0,L|293:211,1,75.000000298023
219,138,31314,2,0,L|294:138,1,75.000000298023,0|8,0:0|0:0,0:0:0:0:
64,62,31841,6,0,P|31:118|32:220,2,150.000000596046
163,132,32718,1,0,0:0:0:0:
163,132,32893,1,0,0:0:0:0:
262,62,33244,6,0,P|295:118|294:220,2,150.000000596046
163,132,34121,1,0,0:0:0:0:
163,132,34296,1,0,0:0:0:0:
32,262,34648,6,0,P|44:315|124:369,1,150.000000596046,0|8,0:0|0:0,0:0:0:0:
123,231,35174,2,0,P|97:279|121:372,1,150.000000596046,8|0,0:0|0:0,0:0:0:0:
226,289,35700,1,8,0:0:0:0:
479,353,36227,5,8,0:0:0:0:
418,283,36402,1,8,0:0:0:0:
396,192,36578,1,8,0:0:0:0:
415,101,36753,1,8,0:0:0:0:
479,36,36928,1,8,0:0:0:0:
388,15,37104,2,8,P|342:14|302:31,1,75.000000298023
316,99,37455,6,0,P|336:134|301:245,1,150.000000596046,0|8,0:0|0:0,0:0:0:0:
261,321,38156,1,0,0:0:0:0:
161,289,38507,1,8,0:0:0:0:
7,99,38858,6,0,P|-17:167|10:235,1,150.000000596046,0|8,0:0|0:0,0:0:0:0:
61,321,39559,1,0,0:0:0:0:
161,289,39910,1,8,0:0:0:0:
479,122,40262,6,0,P|456:52|393:15,1,150.000000596046,0|8,0:0|0:0,0:0:0:0:
388,153,40788,2,0,P|417:85|394:15,1,150.000000596046,8|0,0:0|0:0,0:0:0:0:
289,97,41314,1,8,0:0:0:0:
33,31,41841,5,8,0:0:0:0:
94,101,42016,1,8,0:0:0:0:
116,192,42192,1,8,0:0:0:0:
97,283,42367,1,8,0:0:0:0:
33,348,42542,1,8,0:0:0:0:
123,368,42718,2,8,P|161:371|197:360,1,75.000000298023
286,328,43069,6,0,P|330:305|344:205,1,150.000000596046
287,124,43771,1,0,0:0:0:0:
192,70,44121,1,0,0:0:0:0:
29,224,44472,6,0,P|38:276|136:342,1,150.000000596046
212,337,45174,1,0,0:0:0:0:
381,319,45349,2,4,B|366:320|411:319,4,37.5000001490115,0|0|0|0|0,0:2|0:2|0:2|0:2|0:2,0:2:0:0:
446,228,45876,6,0,P|467:188|461:158,1,75.000000298023,8|0,0:0|0:0,0:0:0:0:
405,89,46227,1,8,0:0:0:0:
405,89,46402,1,0,0:0:0:0:
278,63,46578,6,0,P|238:60|170:71,1,75.000000298023,8|0,0:0|0:0,0:0:0:0:
152,138,46928,1,8,0:0:0:0:
152,138,47104,1,0,0:0:0:0:
227,226,47279,6,0,P|214:261|180:288,1,75.000000298023,8|0,0:0|0:0,0:0:0:0:
117,343,47630,1,8,0:0:0:0:
117,343,47806,1,0,0:0:0:0:
66,224,47981,6,0,P|36:183|36:129,1,75.000000298023,8|0,0:0|0:0,0:0:0:0:
37,70,48332,1,8,0:0:0:0:
41,74,48507,1,0,0:0:0:0:
189,65,48683,5,8,0:0:0:0:
298,130,49034,6,0,P|285:168|251:198,1,75.000000298023
342,195,49385,2,0,P|368:168|380:133,1,75.000000298023
286,33,49735,1,8,0:0:0:0:
224,125,50086,2,0,P|193:127|78:48,1,150.000000596046
0,0,50613,1,8,0:0:0:0:
0,0,50788,1,8,0:0:0:0:
66,156,51490,6,0,P|45:196|51:226,1,75.000000298023,8|0,0:0|0:0,0:0:0:0:
130,320,51841,1,8,0:0:0:0:
128,320,52016,1,0,0:0:0:0:
234,321,52192,6,0,P|274:324|342:313,1,75.000000298023,8|0,0:0|0:0,0:0:0:0:
379,211,52542,1,8,0:0:0:0:
379,211,52718,1,0,0:0:0:0:
285,158,52893,6,0,P|298:123|332:96,1,75.000000298023,8|0,0:0|0:0,0:0:0:0:
442,53,53244,1,8,0:0:0:0:
442,53,53420,1,0,0:0:0:0:
446,160,53595,6,0,P|476:201|476:255,1,75.000000298023,8|0,0:0|0:0,0:0:0:0:
387,312,53946,1,8,0:0:0:0:
120,313,54297,6,0,P|72:302|55:197,1,150.000000596046
129,66,54999,1,0,0:0:0:0:
303,65,55349,5,0,0:0:0:0:
307,233,55700,1,0,0:0:0:0:
223,328,55876,2,0,L|160:269,1,75.000000298023
169,151,56227,1,0,0:0:0:0:
39,220,56402,2,2,L|-2:221,7,37.5000001490115,0|0|0|0|0|0|0|0,0:0|0:0|0:0|0:0|0:0|0:0|0:0|0:0,0:0:0:0:
67,283,57104,6,0,P|124:302|221:268,1,150.000000596046,0|8,0:0|0:0,0:0:0:0:
299,279,57630,2,0,L|299:198,1,75.000000298023
385,278,57981,2,0,L|385:197,1,75.000000298023,0|8,0:0|0:0,0:0:0:0:
451,140,58332,1,0,0:0:0:0:
484,253,58507,6,0,P|479:303|366:348,1,150.000000596046,0|8,0:0|0:0,0:0:0:0:
318,317,59034,2,0,L|385:277,1,75.000000298023
270,267,59385,2,0,L|194:311,1,75.000000298023,0|8,0:0|0:0,0:0:0:0:
123,272,59735,1,0,0:0:0:0:
66,165,59911,6,0,P|67:117|141:46,1,150.000000596046,0|8,0:0|0:0,0:0:0:0:
226,55,60437,2,0,L|226:142,1,75.000000298023
227,243,60788,2,0,L|227:327,1,75.000000298023,0|8,0:0|0:0,0:0:0:0:
316,339,61139,1,0,0:0:0:0:
440,350,61314,6,0,P|477:333|491:220,1,150.000000596046,0|8,0:0|0:0,0:0:0:0:
421,188,61841,2,0,L|421:271,1,75.000000298023
354,172,62192,2,0,L|354:92,1,75.000000298023,0|8,0:0|0:0,0:0:0:0:
268,64,62542,1,0,0:0:0:0:
141,65,62718,6,0,P|81:69|53:151,1,150.000000596046,0|8,0:0|0:0,0:0:0:0:
141,153,63244,2,0,L|216:153,1,75.000000298023
131,228,63595,2,0,L|53:228,1,75.000000298023,0|8,0:0|0:0,0:0:0:0:
55,319,63946,1,0,0:0:0:0:
181,325,64121,6,0,L|332:325,1,150.000000596046,0|8,0:0|0:0,0:0:0:0:
422,323,64648,2,0,L|422:246,1,75.000000298023
507,323,64999,2,0,L|506:239,1,75.000000298023,0|8,0:0|0:0,0:0:0:0:
491,158,65349,1,0,0:0:0:0:
392,76,65525,6,0,P|336:58|246:62,1,150.000000596046,0|8,0:0|0:0,0:0:0:0:
190,135,66051,2,0,L|268:135,1,75.000000298023
176,208,66402,2,0,L|94:208,1,75.000000298023,0|8,0:0|0:0,0:0:0:0:
53,283,66753,1,0,0:0:0:0:
31,95,66928,6,0,L|98:42,1,75.000000298023
204,50,67279,1,0,0:0:0:0:
233,169,67454,1,8,0:0:0:0:
233,169,67542,1,8,0:0:0:0:
233,169,67630,2,0,B|314:106|314:106|353:147,1,150.000000596046,8|4,0:0|0:0,0:0:0:0:
480,259,68332,6,0,P|466:315|377:348,1,150.000000596046,0|8,0:0|0:0,0:0:0:0:
344,270,68858,2,0,L|405:200,1,75.000000298023
282,236,69209,2,0,L|232:292,1,75.000000298023,0|8,0:0|0:0,0:0:0:0:
176,221,69560,1,0,0:0:0:0:
63,65,69735,6,0,P|30:117|30:216,1,150.000000596046,0|8,0:0|0:0,0:0:0:0:
29,280,70262,2,0,L|29:363,1,75.000000298023
116,281,70613,2,0,L|116:364,1,75.000000298023,0|8,0:0|0:0,0:0:0:0:
206,355,70963,1,0,0:0:0:0:
384,354,71139,6,0,L|384:200,1,150.000000596046,0|8,0:0|0:0,0:0:0:0:
383,113,71665,2,0,L|469:113,1,75.000000298023
371,41,72016,2,0,L|291:41,1,75.000000298023,0|8,0:0|0:0,0:0:0:0:
236,109,72367,1,0,0:0:0:0:
284,255,72542,6,0,P|272:326|191:349,1,150.000000596046,0|8,0:0|0:0,0:0:0:0:
199,261,73069,2,0,L|232:184,1,75.000000298023
126,240,73420,2,0,L|87:329,1,75.000000298023,0|8,0:0|0:0,0:0:0:0:
42,173,73946,6,0,P|36:137|62:77,1,93.7500003725287
160,63,74297,2,0,P|196:60|266:95,1,93.7500003725287
267,185,74648,2,0,L|321:279,1,93.7500003725287
421,289,74999,2,0,P|458:290|514:241,1,93.7500003725287
481,131,75349,5,0,0:0:0:0:
481,131,75525,1,0,0:0:0:0:
383,78,75700,1,0,0:0:0:0:
383,78,75876,1,0,0:0:0:0:
278,50,76051,1,0,0:0:0:0:
278,50,76227,1,0,0:0:0:0:
169,67,76402,1,0,0:0:0:0:
169,67,76578,1,0,0:0:0:0:
81,138,76753,6,0,P|55:181|116:328,1,187.500000745057
259,310,77279,6,0,P|306:206|275:139,1,187.500000745057
176,341,77806,6,0,L|176:119,1,187.500000745057
186,54,78332,1,0,0:0:0:0:
282,1,78507,1,0,0:0:0:0:
364,76,78683,1,0,0:0:0:0:
426,177,78858,5,0,0:0:0:0:
270,75,79209,1,0,0:0:0:0:
96,161,79560,1,0,0:0:0:0:
256,192,79735,12,4,81665,0:0:0:0:
160,128,82016,5,0,0:0:0:0:
353,129,82367,1,0,0:0:0:0:
257,260,82718,2,0,L|178:260,6,75.000000298023
86,241,84121,5,0,0:0:0:0:
194,95,84472,2,4,P|284:67|336:93,1,150.000000596046,0|14,0:0|0:0,0:0:0:0:
