osu file format v14

[General]
AudioFilename: audio.mp3
AudioLeadIn: 0
PreviewTime: 3184
Countdown: 0
SampleSet: Soft
StackLeniency: 0.5
Mode: 0
LetterboxInBreaks: 0
WidescreenStoryboard: 0

[Editor]
DistanceSpacing: 1.3
BeatDivisor: 4
GridSize: 32
TimelineZoom: 1.2

[Metadata]
Title:28-sai no Uta
TitleUnicode:28歳の唄
Artist:Abe Mao
ArtistUnicode:阿部真央
Creator:NeKroMan4ik
Version:Insane
Source:
Tags:j-rock japanese rock jrock acoustic bazz_b -mikan mikan
BeatmapID:3527093
BeatmapSetID:1725859

[Difficulty]
HPDrainRate:5
CircleSize:4.5
OverallDifficulty:8
ApproachRate:8.8
SliderMultiplier:1.4
SliderTickRate:1

[Events]
//Background and Video events
0,0,"FMzJo9DVcAIJR6k_waifu2x_photo_scale_tta_1.jpg",0,0
//Break Periods
//Storyboard Layer 0 (Background)
//Storyboard Layer 1 (Fail)
//Storyboard Layer 2 (Pass)
//Storyboard Layer 3 (Foreground)
//Storyboard Layer 4 (Overlay)
//Storyboard Sound Samples

[TimingPoints]
3320,361.44578313253,4,2,0,60,1,0
9091,361.44578313253,4,2,0,70,1,0
9091,-83.3333333333333,4,2,0,70,0,0
11982,-66.6666666666667,4,2,0,70,0,0
12705,-83.3333333333333,4,2,0,70,0,0
14886,361.44578313253,4,2,0,70,1,0
14886,-83.3333333333333,4,2,0,70,0,0
17054,-66.6666666666667,4,2,0,70,0,0
17777,-83.3333333333333,4,2,0,70,0,0
20669,-100,4,2,0,60,0,0
26452,-83.3333333333333,4,2,0,70,0,0
32235,-100,4,2,0,60,0,0
35126,-83.3333333333333,4,2,0,70,0,0
37295,-66.6666666666667,4,2,0,70,0,0
38018,-83.3333333333333,4,2,0,70,0,0
40187,-66.6666666666667,4,2,0,70,0,0
40910,-100,4,2,0,60,0,0
46693,-83.3333333333333,4,2,0,70,0,0
52476,-83.3333333333333,4,2,0,75,0,0
55367,-66.6666666666667,4,2,0,75,0,0
55639,-76.9230769230769,4,2,0,75,0,0
55910,-66.6666666666667,4,2,0,75,0,0
56361,-76.9230769230769,4,2,0,75,0,0
56632,-66.6666666666667,4,2,0,75,0,0
57084,-76.9230769230769,4,2,0,75,0,0
57355,-57.1428571428571,4,2,0,75,0,0
57536,-76.9230769230769,4,2,0,75,0,0
58259,-83.3333333333333,4,2,0,75,0,0
64765,-200,4,2,0,65,0,0
65488,-83.3333333333333,4,2,0,75,0,0
78500,-100,4,2,0,60,0,0

[Colours]
Combo1 : 253,147,187
Combo2 : 213,253,245
Combo3 : 254,197,169
Combo4 : 202,202,255

[HitObjects]
40,58,3320,6,0,L|50:117,1,35,2|0,1:3|0:0,0:0:0:0:
119,45,4042,2,0,L|129:104,1,35,2|0,1:3|0:0,0:0:0:0:
260,242,4765,6,0,L|270:183,1,35,2|0,1:3|0:0,0:0:0:0:
339,255,5488,2,0,L|349:196,1,35,2|0,1:3|0:0,0:0:0:0:
494,52,6211,5,2,1:3:0:0:
488,62,6301,1,0,0:0:0:0:
473,74,6392,2,0,L|413:85,1,35,0|0,0:3|0:0,0:0:0:0:
355,44,6573,1,2,0:0:0:0:
288,271,6934,6,0,L|347:282,1,35,2|0,1:3|0:0,0:0:0:0:
389,327,7115,1,0,0:0:0:0:
406,349,7205,1,0,0:0:0:0:
395,378,7295,1,2,0:0:0:0:
29,251,7657,6,0,L|11:170,1,70,2|0,1:3|0:0,0:0:0:0:
30,89,8018,1,2,0:0:0:0:
105,146,8199,1,2,0:0:0:0:
144,20,8380,2,0,L|132:79,1,35,2|0,1:3|0:0,0:0:0:0:
10,359,9091,6,0,P|50:353|98:344,1,83.9999974365235,2|0,1:3|0:0,0:0:0:0:
164,384,9362,1,2,0:0:0:0:
178,370,9452,2,0,L|189:281,1,83.9999974365235,10|0,0:0|1:0,0:0:0:0:
354,76,9813,2,0,B|364:115|364:115|351:156,1,83.9999974365235,2|0,1:2|1:0,0:0:0:0:
399,228,10084,1,2,0:0:0:0:
411,241,10175,2,0,P|460:239|494:204,1,83.9999974365235,10|0,0:0|0:0,0:0:0:0:
263,113,10536,6,0,P|194:123|100:135,1,125.999996154785,2|0,1:3|0:0,0:0:0:0:
61,88,10898,1,10,0:0:0:0:
215,2,11078,1,2,0:0:0:0:
152,287,11259,2,0,P|97:235|0:246,1,167.999994873047,2|8,1:2|0:0,0:0:0:0:
0,312,11711,1,2,0:0:0:0:
5,330,11801,1,2,0:0:0:0:
268,381,11982,6,0,P|318:381|378:356,1,105.000004005432,2|0,1:0|0:0,0:0:0:0:
484,213,12253,2,0,P|432:235|433:302,1,105.000004005432,2|0,0:1|0:0,0:0:0:0:
490,384,12524,2,0,P|494:352|501:331,1,52.5000020027161,2|0,1:0|0:0,0:0:0:0:
338,83,12705,6,0,L|355:180,1,83.9999974365235,2|0,1:0|1:0,0:0:0:0:
501,29,13066,2,0,P|457:25|397:4,1,83.9999974365235,10|0,0:0|0:0,0:0:0:0:
283,260,13428,5,2,1:3:0:0:
85,4,13789,1,10,0:3:0:0:
338,83,14151,1,6,0:3:0:0:
74,374,14886,6,0,P|82:320|96:266,1,83.9999974365235,2|2,1:3|0:0,0:0:0:0:
26,141,15247,1,10,0:0:0:0:
5,169,15337,1,2,0:0:0:0:
14,205,15428,1,2,1:2:0:0:
195,361,15608,2,0,L|282:349,1,83.9999974365235,2|0,1:3|1:0,0:0:0:0:
475,252,15970,1,10,0:0:0:0:
445,221,16060,1,2,0:0:0:0:
413,221,16151,1,2,0:0:0:0:
405,325,16331,5,2,1:3:0:0:
246,185,16512,1,2,0:0:0:0:
344,18,16693,1,8,0:0:0:0:
341,38,16783,1,2,0:0:0:0:
339,59,16873,1,2,0:0:0:0:
336,80,16964,1,2,0:0:0:0:
334,101,17054,6,0,B|388:108|398:137|444:141,1,105.000004005432,2|0,1:0|0:0,0:0:0:0:
512,30,17325,2,0,B|439:43|439:43|461:46|477:70,1,105.000004005432,2|0,0:1|0:0,0:0:0:0:
506,189,17596,2,0,L|524:118,1,52.5000020027161,2|0,0:1|0:0,0:0:0:0:
387,253,17777,6,0,P|404:315|407:345,1,83.9999974365235,2|2,1:3|0:0,0:0:0:0:
498,384,18139,1,10,0:0:0:0:
512,346,18229,1,2,0:0:0:0:
504,319,18319,1,2,1:2:0:0:
293,203,18500,2,0,L|192:216,1,83.9999974365235,2|2,1:3|1:2,0:0:0:0:
32,153,18861,1,10,0:0:0:0:
55,116,18951,1,2,0:0:0:0:
100,115,19041,1,2,0:0:0:0:
94,352,19223,6,0,P|80:277|73:252,1,83.9999974365235,2|2,1:3|0:0,0:0:0:0:
216,27,19584,2,0,L|209:71,1,41.9999987182618,10|2,0:0|0:0,0:0:0:0:
289,170,19765,2,0,L|282:128,1,41.9999987182618,2|0,1:2|0:0,0:0:0:0:
341,58,19946,1,2,1:0:0:0:
478,349,20669,5,2,1:3:0:0:
439,169,21392,1,2,1:3:0:0:
260,208,22115,1,2,1:3:0:0:
298,384,22837,1,2,1:3:0:0:
145,134,23560,6,0,L|157:64,1,70,2|0,1:3|0:0,0:0:0:0:
142,42,23831,1,0,0:0:0:0:
118,53,23922,1,2,0:0:0:0:
367,324,24283,6,0,L|355:254,1,70,2|0,1:3|0:0,0:0:0:0:
370,232,24554,1,0,0:0:0:0:
394,243,24645,1,2,0:0:0:0:
129,336,25006,6,0,P|58:346|-1:390,1,140,2|2,1:3|0:0,0:0:0:0:
129,336,25548,1,2,0:0:0:0:
23,250,25729,2,0,P|8:205|30:104,1,140,2|0,1:3|0:0,0:0:0:0:
318,6,26452,5,2,1:3:0:0:
286,189,26632,1,2,0:0:0:0:
486,124,26813,2,0,L|382:104,1,83.9999974365235,8|2,0:0|1:2,0:0:0:0:
227,253,27175,1,2,1:2:0:0:
259,283,27265,1,2,0:0:0:0:
296,277,27355,1,2,0:0:0:0:
182,21,27536,2,0,P|192:62|199:117,1,83.9999974365235,10|0,0:0|0:0,0:0:0:0:
286,189,27898,5,2,1:2:0:0:
458,60,28078,1,2,0:0:0:0:
356,0,28259,1,10,0:0:0:0:
454,238,28440,1,2,1:2:0:0:
362,355,28620,5,2,1:2:0:0:
294,304,28801,1,0,1:0:0:0:
211,316,28982,1,8,0:0:0:0:
160,384,29162,1,0,0:0:0:0:
89,280,29343,6,0,L|106:179,1,83.9999974365235,2|2,1:2|0:0,0:0:0:0:
49,121,29705,1,10,0:0:0:0:
43,115,29885,5,2,1:2:0:0:
189,252,30066,1,2,1:2:0:0:
189,153,30247,5,2,1:2:0:0:
0,277,30428,1,10,0:0:0:0:
161,384,30608,1,2,0:0:0:0:
89,280,30789,5,2,1:0:0:0:
137,68,30970,1,2,1:0:0:0:
348,117,31151,1,2,1:0:0:0:
299,328,31331,1,2,1:0:0:0:
218,198,31512,5,2,1:0:0:0:
218,198,31873,1,0,3:0:0:0:
399,29,32235,6,0,L|458:39,1,35,2|0,1:3|0:0,0:0:0:0:
386,108,32957,2,0,L|445:118,1,35,2|0,1:3|0:0,0:0:0:0:
126,276,33681,6,0,L|67:266,1,35,2|0,1:3|0:0,0:0:0:0:
113,355,34404,2,0,L|54:345,1,35,2|0,1:3|0:0,0:0:0:0:
256,192,35126,6,0,L|240:79,1,83.9999974365235,2|2,1:3|0:0,0:0:0:0:
129,269,35488,1,10,0:0:0:0:
165,285,35578,1,2,0:0:0:0:
200,264,35668,1,2,0:2:0:0:
393,57,35849,2,0,P|354:53|295:37,1,83.9999974365235,2|0,1:3|1:0,0:0:0:0:
462,194,36211,1,10,0:0:0:0:
498,179,36301,1,2,0:0:0:0:
508,140,36391,1,2,0:2:0:0:
356,163,36572,6,0,P|367:207|374:269,1,83.9999974365235,2|2,1:3|0:0,0:0:0:0:
506,384,36934,1,8,0:0:0:0:
483,349,37024,1,2,0:2:0:0:
446,330,37114,1,2,1:2:0:0:
405,333,37205,1,2,0:2:0:0:
371,356,37295,6,0,B|321:365|322:342|264:351,1,105.000004005432,2|0,1:0|0:0,0:0:0:0:
205,287,37566,2,0,B|182:253|182:253|191:290|191:290|180:320,1,105.000004005432,2|0,0:1|0:0,0:0:0:0:
121,368,37837,2,0,L|53:360,1,52.5000020027161,2|0,0:1|0:0,0:0:0:0:
8,308,38018,6,0,P|-1:276|21:229,1,83.9999974365235,2|2,1:3|0:0,0:0:0:0:
118,113,38379,1,10,0:0:0:0:
134,149,38469,1,2,0:0:0:0:
113,184,38559,1,2,0:2:0:0:
0,0,38741,2,0,P|36:27|86:18,1,83.9999974365235,2|2,1:3|1:2,0:0:0:0:
326,95,39102,1,10,0:0:0:0:
323,141,39193,1,2,0:0:0:0:
285,169,39283,1,2,0:0:0:0:
240,155,39373,1,2,0:0:0:0:
223,112,39464,6,0,L|237:-2,1,83.9999974365235,2|2,1:3|0:0,0:0:0:0:
430,0,39825,1,10,0:0:0:0:
434,33,39915,1,2,0:0:0:0:
439,66,40005,1,2,1:2:0:0:
444,99,40096,1,2,0:0:0:0:
449,132,40187,6,0,B|453:155|464:164|464:164|455:189,1,52.5000020027161,2|0,1:0|0:0,0:0:0:0:
188,99,40910,5,2,1:3:0:0:
43,151,41632,1,2,1:3:0:0:
70,0,42355,1,2,1:3:0:0:
188,99,43078,1,2,1:3:0:0:
85,327,43801,6,0,P|56:307|10:311,1,70,2|0,1:3|0:0,0:0:0:0:
10,319,44072,1,0,0:0:0:0:
11,337,44163,1,2,0:0:0:0:
307,315,44524,6,0,P|341:312|375:304,1,70,2|0,1:3|0:0,0:0:0:0:
512,248,44885,1,2,0:0:0:0:
431,206,45066,1,0,0:0:0:0:
456,384,45247,6,0,P|460:358|468:328,1,35,2|0,1:3|0:0,0:0:0:0:
385,93,45970,2,0,P|381:119|373:149,1,35,2|0,1:3|0:0,0:0:0:0:
45,118,46693,6,0,L|30:23,1,83.9999974365235,2|0,1:3|0:0,0:0:0:0:
190,263,47054,2,0,P|196:219|208:166,1,83.9999974365235,10|0,0:0|1:0,0:0:0:0:
93,362,47416,5,2,1:2:0:0:
295,241,47596,1,2,1:2:0:0:
231,384,47777,1,10,0:0:0:0:
64,236,47958,1,2,0:0:0:0:
153,81,48139,5,2,1:2:0:0:
159,89,48319,2,0,P|209:122|294:104,1,125.999996154785,2|0,0:0|0:0,0:0:0:0:
332,53,48681,1,2,1:2:0:0:
484,155,48861,1,10,0:0:0:0:
451,0,49042,1,2,1:2:0:0:
372,183,49223,2,0,P|381:223|386:268,1,83.9999974365235,10|0,0:0|0:0,0:0:0:0:
468,364,49584,5,2,1:3:0:0:
489,273,49764,1,2,0:0:0:0:
246,110,49946,5,10,0:0:0:0:
267,201,50126,1,2,1:2:0:0:
426,112,50307,6,0,P|469:125|509:130,1,83.9999974365235,2|0,1:2|1:0,0:0:0:0:
302,314,50669,2,0,L|219:296,1,83.9999974365235,10|0,0:2|0:0,0:0:0:0:
56,296,51030,5,2,1:0:0:0:
281,219,51211,1,2,1:0:0:0:
48,301,51392,1,2,1:0:0:0:
242,384,51572,1,2,1:0:0:0:
75,136,51753,1,2,1:0:0:0:
75,136,52114,6,0,B|75:103|66:86|66:86|91:122,1,83.9999974365235,2|0,0:0|0:0,0:0:0:0:
179,205,52476,6,0,P|233:201|257:170,1,83.9999974365235,6|0,1:2|1:0,0:0:0:0:
465,93,52747,1,2,0:0:0:0:
472,75,52837,2,0,P|419:63|377:45,1,83.9999974365235,10|0,0:0|1:0,0:0:0:0:
406,264,53199,6,0,P|430:227|408:168,1,83.9999974365235,10|0,0:0|1:0,0:0:0:0:
279,0,53560,2,0,P|287:39|293:103,1,83.9999974365235,10|0,0:0|1:0,0:0:0:0:
234,145,53831,1,2,0:0:0:0:
223,157,53922,6,0,L|133:141,1,83.9999974365235,10|0,0:0|1:0,0:0:0:0:
47,85,54283,1,10,0:0:0:0:
143,35,54464,5,2,1:2:0:0:
89,254,54645,1,10,0:0:0:0:
308,308,54825,1,0,1:0:0:0:
362,89,55006,1,8,0:0:0:0:
224,165,55187,1,0,1:0:0:0:
225,171,55367,6,0,P|230:234|247:297,1,105.000004005432,2|0,1:0|0:0,0:0:0:0:
181,347,55639,2,0,P|140:372|91:350,1,90.9999958343508,2|0,0:1|0:0,0:0:0:0:
321,234,55910,2,0,L|388:251,1,52.5000020027161,2|0,0:1|0:0,0:0:0:0:
493,213,56090,6,0,B|475:198|475:198|480:147|513:114,1,105.000004005432,2|0,1:0|0:0,0:0:0:0:
345,4,56361,2,0,L|364:114,1,90.9999958343508,2|0,0:1|0:0,0:0:0:0:
488,32,56632,2,0,P|459:30|429:11,1,52.5000020027161,2|0,0:1|0:0,0:0:0:0:
290,223,56813,6,0,P|317:194|388:203,1,105.000004005432,2|0,1:0|0:0,0:0:0:0:
253,97,57084,2,0,B|200:89|200:89|197:91|197:91|146:85,1,90.9999958343508,2|0,0:1|0:0,0:0:0:0:
92,37,57355,2,0,P|91:15|98:33,1,61.2500005841255,2|0,0:1|0:0,0:0:0:0:
57,112,57536,6,0,B|4:112|-24:68|-24:68|8:104|4:167,1,181.999991668702,2|2,1:0|0:2,0:0:0:0:
174,384,58259,6,0,P|219:337|328:354,1,167.999994873047,2|8,1:2|0:0,0:0:0:0:
465,249,58801,1,2,1:2:0:0:
339,124,58982,2,0,L|357:226,1,83.9999974365235,2|2,1:2|1:2,0:0:0:0:
512,0,59343,2,0,L|494:102,1,83.9999974365235,10|2,0:0|0:0,0:0:0:0:
260,189,59705,5,2,1:2:0:0:
418,99,59885,1,2,0:0:0:0:
276,22,60066,1,10,0:2:0:0:
415,262,60247,1,2,1:2:0:0:
341,330,60428,2,0,P|246:285|180:307,1,167.999994873047,2|10,1:2|0:0,0:0:0:0:
9,145,60970,1,2,0:0:0:0:
66,384,61151,6,0,P|86:300|69:209,1,167.999994873047,2|8,1:2|0:2,0:2:0:0:
272,136,61693,1,2,1:2:0:0:
199,1,61873,2,0,L|183:105,1,83.9999974365235,2|0,1:2|1:0,0:0:0:0:
373,262,62235,2,0,P|365:221|357:158,1,83.9999974365235,10|2,0:2|0:0,0:0:0:0:
272,136,62596,5,2,1:0:0:0:
447,326,62777,1,2,1:0:0:0:
263,130,62958,1,2,1:0:0:0:
487,54,63139,1,2,1:0:0:0:
373,234,63319,1,2,1:0:0:0:
374,225,63500,1,2,1:0:0:0:
375,217,63681,1,2,1:0:0:0:
376,209,63862,1,2,1:0:0:0:
402,136,64042,5,2,1:2:0:0:
302,180,64223,1,2,1:2:0:0:
346,280,64404,1,2,1:2:0:0:
446,236,64584,1,2,1:2:0:0:
293,99,64765,6,0,P|258:110|216:117,1,70,2|2,0:0|0:0,0:0:0:0:
54,56,65488,6,0,P|94:74|149:77,1,83.9999974365235,10|0,0:0|1:0,0:0:0:0:
365,215,65849,2,0,P|325:197|270:194,1,83.9999974365235,10|0,0:0|1:0,0:0:0:0:
142,296,66211,6,0,P|116:261|135:216,1,83.9999974365235,10|0,0:0|1:0,0:0:0:0:
239,0,66572,2,0,P|265:35|246:80,1,83.9999974365235,8|2,0:0|1:2,0:0:0:0:
365,215,66934,6,0,P|442:163|535:192,1,167.999994873047,10|8,0:0|0:0,0:0:0:0:
375,63,67476,1,0,1:0:0:0:
454,341,67657,6,0,P|470:286|445:249,1,83.9999974365235,10|0,0:0|1:0,0:0:0:0:
245,31,68018,2,0,P|260:72|260:137,1,83.9999974365235,8|2,0:0|1:2,0:0:0:0:
141,265,68379,5,10,0:0:0:0:
0,237,68560,1,2,1:2:0:0:
26,99,68741,1,10,0:0:0:0:
166,125,68922,1,2,1:2:0:0:
222,383,69102,5,10,0:0:0:0:
82,180,69283,1,2,1:2:0:0:
261,261,69464,1,10,0:0:0:0:
37,359,69645,1,0,1:2:0:0:
197,98,69825,6,0,B|287:123|276:73|374:102,1,167.999994873047,10|8,0:0|0:0,0:0:0:0:
512,0,70367,1,0,1:2:0:0:
472,249,70548,2,0,L|455:155,1,83.9999974365235,10|0,0:0|1:0,0:0:0:0:
365,318,70910,1,10,0:0:0:0:
512,384,71090,1,0,1:2:0:0:
338,205,71271,6,0,P|295:215|245:249,1,83.9999974365235,10|0,0:0|1:2,0:0:0:0:
23,49,71632,2,0,P|59:69|100:78,1,83.9999974365235,10|2,0:0|1:2,0:0:0:0:
53,373,71994,6,0,P|25:336|43:291,1,83.9999974365235,10|0,0:0|1:0,0:0:0:0:
176,148,72355,2,0,L|160:249,1,83.9999974365235,8|2,0:0|1:2,0:0:0:0:
257,344,72717,6,0,P|327:311|388:325,1,125.999996154785,10|0,0:0|0:0,0:0:0:0:
445,370,73078,1,10,0:0:0:0:
392,186,73259,1,2,1:2:0:0:
512,94,73440,2,0,P|501:134|491:201,1,83.9999974365235,10|0,0:0|1:0,0:0:0:0:
287,60,73801,1,10,0:0:0:0:
430,0,73982,1,2,1:2:0:0:
291,165,74163,6,0,L|208:178,1,83.9999974365235,10|0,0:0|1:0,0:0:0:0:
5,7,74524,2,0,P|51:23|59:81,1,83.9999974365235,10|0,0:0|1:0,0:0:0:0:
63,293,74885,2,0,P|44:241|51:207,1,83.9999974365235,10|0,0:0|1:0,0:0:0:0:
198,0,75247,2,0,L|184:98,1,83.9999974365235,10|0,0:0|1:0,0:0:0:0:
310,223,75608,5,2,1:2:0:0:
318,220,75788,1,2,1:2:0:0:
495,179,75970,5,2,1:2:0:0:
482,168,76150,1,2,1:2:0:0:
344,16,76331,5,2,1:2:0:0:
335,48,76511,1,2,1:2:0:0:
386,135,76693,5,2,1:0:0:0:
512,49,76873,1,2,1:0:0:0:
441,0,77054,5,2,1:0:0:0:
507,239,77235,1,2,1:0:0:0:
411,382,77416,5,2,1:0:0:0:
487,147,77596,1,2,1:0:0:0:
328,36,77777,5,2,0:0:0:0:
31,291,78500,6,0,L|26:326,1,35,2|0,1:3|0:0,0:0:0:0:
110,304,79222,2,0,L|105:339,1,35,2|0,1:3|0:0,0:0:0:0:
251,176,79946,6,0,L|246:142,1,35,2|0,1:3|0:0,0:0:0:0:
330,163,80668,2,0,L|325:129,1,35,2|0,1:3|0:0,0:0:0:0:
379,71,81030,5,2,0:0:0:0:
512,224,81392,5,6,1:2:0:0:
256,192,81482,12,2,82837,0:0:0:0:
